This file was generated by Ched 2.7.0.0.
#TITLE ""
#ARTIST ""
#DESIGNER ""
#DIFFICULTY 0
#PLAYLEVEL
#SONGID ""
#WAVE ""
#WAVEOFFSET 0
#JACKET ""
#REQUEST "ticks_per_beat 480"
#00002: 4
#BPM01: 196
#00008: 01
#TIL00: ""
#VOLUME: ""
#HISPEED 00
#MEASUREHS 00
#00116:0000120000000012
#00114:0000000000120000
#00118:0000000000120000
#0011a:0000000000000012
#00316:0000121200120000
#00314:0000000000000012
#0031a:0000000000120000
#00318:0000000000000012
#00214:0012000000000000
#00218:0012000000000000
#0041a:00120000
#00417:0012
#00414:00000012
#00516:1200121200000000
#00514:0000000000120000
#00518:0000000000120012
#00816:0012
#00818:00000012
#01012:0013000013001300
#01013:00000000000000000000000000530000
#01014:0000000000000053
#01015:00000000000000000000000000000053
#00912:0000000000000013
#00915:0000001300130000
#00918:00131313
#0091b:2300000000000013
#00910:41
#01112:0000001300000000
#01115:0000000000130000
#01118:0000000013000013
#0111b:00000013
#01116:53
#0121b:0013000013001300
#01218:00130000
#01215:13001313
#01212:00130000
#01317:13130000
#0131b:00001313
#0141b:13131300
#01418:0013000000001300
#01412:00131300
#01415:0000001300000013
#01512:13
#01518:00000013
#01515:00130000
#01615:0013
#01618:00000013
#01612:0013130000000000
#01716:00000000000000140000000000000000
#01712:14343434
#0171a:2400000000000014
#01816:00140014
#0181a:3400000034000014
#01812:0000000000140014
#0191a:0000001434000000
#01912:3400000000000014
#01916:00340034
#0201a:0000140000140000
#02012:3400001400000014
#02016:00000014
#02212:00000014
#0221a:0000001400000000
#02116:0000001400000014
#0211a:14343400
#02518:00130013000000000000000000000000
#02512:2313000000000024
#0251a:0024
#02516:00000000000000000000002400000000
#0261b:0013000000000000
#02614:00130013
#02619:0000001300000013
#02612:0013
#02617:0000000000130000
#0261a:00000053000000000000000000000053
#02615:00000000005300000000000000530000
#02618:00000000000000530000005300000000
#02613:00000000000000000053000000000000
#0271a:00140000
#02718:0000000000140000
#02716:24
#02714:0000002400000000
#02712:00000024
#02816:14
#02815:0013000000000000
#02818:00000013000000000000000000000000
#02915:0000131300000000
#02918:00000000001300130000000000000000
#0291b:13
#02910:41
#0301b:0013000000000023
#0301a:0000241400000000
#03012:0023
#03015:0000000000230000
#03018:00000023
#03112:1300001300000013
#0311b:0000130000130000
#03117:0000001300000013
#03116:0000000000130000
#03216:0013130000000000
#0321b:00130000
#03318:00000013
#0331a:2424
#03316:00000024000000000000000000000024
#03312:0000002400002400
#03418:0000000013130000
#03415:00000000000000000013000000001300
#03412:00240013
#0341a:0024000000000000
#03512:0014
#03516:00000013
#03514:00000000000000000000000000000013
#0351a:00000024
#03518:00000000000000000000000000000024
#03612:0013000024000000
#03616:0024130000000024
#03617:0013
#03619:00000000000000000000001300000000
#0361b:0000000000000013
#0361a:00240000
#03614:00000000000000000000002400000000
#03717:13000000000000001300000000000013
#03719:00000013000000000000000000000000
#0371b:0000001300000000
#03716:0000002400001300
#03712:24000000000000002400000000000024
#03714:00000024000000000000000000000000
#0371a:00000024
#03816:0013000000000000
#03817:00130000
#03818:0000000013131300
#03815:00000000000000000013001300000000
#0381a:0024000000000000
#03812:00240000
#03916:0000001300000000
#03917:0000000000130000
#03910:41
#0401b:0013
#04017:00000013
#04012:00000014
#04016:0024
#04112:00131313
#04116:0014
#0411b:13
#0421b:00131313
#04216:0014
#04212:13
#04317:13
#0431a:0014
#04312:00131313
#04415:13
#04412:0014
#0441b:00131313
#0451b:1300130013000013
#04517:00000000000000000000001300000000
#04512:00130000
#04612:1300130013000013
#04616:00000000000000000000001300000000
#0461b:00130000
#04617:13
#0471b:13000013
#04716:1400001400001400
#04712:0000001300000000
#04816:0014000000000000
#04812:0013000000000000
#04815:0000000013131300
#04818:00000000000000000013001300000000
#0491b:13000013
#04915:0013000000000000
#04917:0000000000000013
#04912:0000000000000013
#04910:41
#0501b:0000130000000013
#05012:00001313
#05016:0000000000000013
#05112:00130000000000000000000000001300
#0511b:00130000
#05117:0013
#05116:00000013
#05212:00130000
#05215:0000001300000013
#05218:00001313
#0521b:0000000000130000
#05316:0000140000141400
#05312:00000013
#0541b:0013130000000000
#05416:0013130000001300
#05417:0000000013000013
#05412:0000000000000013
#0551b:1313
#05516:13
#05512:00130000
#05514:00000013
#05519:00000013
#05612:1313
#05617:13
#0561b:00130000
#05619:00000013
#05614:00000013
#05716:13
#05717:00000000000000130000000000000000
#05712:0000000000000013
#0571f:11
#0571b:23
#05818:13
#05912:13
#05918:0013
#06017:0013
#06019:00000013
#06014:00000013
#06016:13
#0611b:13000013
#06112:0000001300000000
#06116:2400002400002400
#06212:0013000000000000
#06218:00130000
#06215:0000001300000013
#0621b:0013
#06315:13
#06312:00130013
#06318:0013
#0631b:00130013
#06415:13
#06412:00130013
#06418:0013
#0641b:00130013
#06618:0013
#06615:00000013
#0661b:00130000
#0671b:0000001313000000
#06712:2300000000000013
#06716:24
#0671f:21
#06812:1300000000000013
#0681b:0000001313000000
#06816:2424
#06810:41
#06912:13
#06916:24000000001400000000000000000000
#0691b:0000000000130000
#06918:00000013
#06915:0000000000000013
#0701b:00130013
#07012:0013
#07016:00230023
#07017:0023
#07116:00000013
#0711b:0000001300000000
#07117:00000000000000000013000000000000
#07316:1400001400000014
#0731a:2400000000001424
#07312:0000142400000000
#07416:0014000013000000
#0741b:0013
#07414:00000013
#07419:00000013
#07412:0024000000000000
#07517:13
#0751b:00000013
#07618:13
#07615:00130000
#07612:0013
#07617:0013
#07619:00000013
#07614:00000013
#07716:13
#07712:00000013
#07812:0000001300001300
#07817:00131300
#07815:13
#07916:0013000000002313
#0791b:1300000000002323
#08017:0000231300000000
#08016:00000013
#08014:0000000000000013
#08012:0000002300000000
#08112:1300131300000013
#0811b:00000013000000000000000013000000
#08117:13330000
#08116:00000000000000000013000000000000
#08316:0000001400000000
#08310:41
#0841a:14
#08414:00240000
#08416:0024
#08418:00000024
#08512:1400001313000000
#0851b:0000000000001313
#08516:0000000000001424
#0851a:24
#08612:00000000001400000000000000000000
#0861b:00000013
#08712:13
#08717:13
#08714:00130000
#08716:0013
#08719:00130000
#0871b:0013
#08718:00000013
#08715:0000000000000013
#0891a:1400001424000000
#08912:24
#09016:1413
#09015:00000013
#09018:0000000000000013
#0911b:1300000000000013
#09115:00130000
#09112:2400001300002400
#09118:0000000000130000
#0911a:0000002400000000
#09216:00000013
#09214:0000000000000013
#09318:0000132300000000
#09315:0000000000132300
#0931b:13
#09312:23
#09418:0013000013131300
#0941b:13
#09415:00000000130000000013001300001300
#09412:0000001300000000
#09512:13
#0951b:13
#0071a:0000121200000000
#00718:0000000000000012
#06515:2300003300000000
#0881a:00240000
#08816:0024
#08812:00000024
#08212:00000024
#0721b:0000002300000000
#07218:0023
#07215:0000000000230000
#07212:00000023
#0721a:0000000000000024
#02316:00343434343434343434343434343434
#00616:0052000000000000
#00615:0000000000520000000000000000000000000000000000000000000000000000
#00614:00000052000000000000000000000000
#02412:5c
#09615:53
#09618:53
#01752:54
#01756:00000000000000240000000000000000
#0175a:1400000000000054
#01856:00240000
#01852:0000000000000054
#0195a:0000005400000000
#01952:0000000000000054
#0215a:54
#02156:0000002400000054
#0225a:0000002400000000
#02252:00000014
#0275a:00440000
#02758:0000000000440000
#02856:44
#02955:0000000000130000
#02958:0000000000000013
#0295b:53
#03052:0013000000000000
#0305a:0000005400000000
#03152:5300001300000013
#0315b:0000000000130000
#03157:0000000000000053
#03256:00530000
#0365a:00140000
#03752:0014
#03852:00140000
#03858:00000053
#03956:0000005300000000
#0405b:0053
#04057:00000023
#04052:00000024
#04056:0054
#04156:1424
#0415b:53
#04256:0024
#04252:63
#04357:53
#0435a:0024
#04455:63
#04452:0024
#0475b:53000053
#04756:5400002400005400
#04752:0000002300000000
#04856:0024000000000000
#04852:0023000000000000
#04855:00000053
#04952:0000000000000053
#05056:0000000000000053
#0515b:00530000
#05157:0023
#05152:00230000000000000000000000000000
#05356:00000014
#0545b:00530000
#05457:0023
#05552:00230000
#05556:5313
#0555b:0013
#05657:6313
#0565b:00230000
#05652:0013
#05757:00000000000000230000000000000000
#0575b:53
#05952:53
#05958:0053
#06056:53
#0625b:0053
#06355:53
#06352:00530000
#06358:0063
#0635b:00000063
#06455:53
#06452:00530000
#06458:0063
#0645b:00000063
#06552:0000001c
#06752:53
#0675b:0053
#06756:4434
#06852:63
#0685b:0053
#06856:4434
#06956:44000000002400000000000000000000
#06952:53
#06955:0000000000000013
#0715b:0000005300000000
#07157:00000000000000000023000000000000
#07156:00000013
#07356:1400001400000014
#07456:0014000000000000
#07557:13
#07552:00130000
#07558:0013
#07555:00000013
#0755b:00000013
#07756:13
#07752:00000013
#0775b:00130000
#07755:0013
#07758:00000013
#07857:0053
#07852:00000053
#07956:0023000000000053
#0795b:23
#08057:0000006300000000
#08157:53
#0815b:00000023000000000000000000000000
#08156:00000000000000000023000000000000
#08152:0000005300000000
#08356:0000002400000000
#08552:0013
#0855a:64
#08556:0000000000000054
#08652:00000000002400000000000000000000
#08755:0000000000000013
#09056:24
#0915b:0000000000000053
#09152:34000034
#0915a:0000004400000000
#09552:53
#0955b:63
#0095b:0000000000000053
#0335a:0014
#03452:00140000
#06156:3400004400003400
#08252:00000054
#08952:54
#0895a:0064
#001380:12525252220000000000000000000000
#001390:0052005200520052000000000000000000000000000000000000000000000000
#002360:00000012
#003360:22
#003381:12525252320022000000000000000000
#003391:0052005200520052000000000000000000000000000000000000000000000000
#0053a1:1200322200000000
#005361:0000000000000012
#006361:0022000000000000
#006381:00000012
#007381:22
#007360:1200322200000000
#007340:0000000000000012
#008340:00220000
#008381:00122200
#009321:13230000
#0093b1:0000000000000013
#010371:0023
#0113b1:1333002300000000
#013321:1300003300000000
#013341:00000000000000330000000000000000
#013361:0033
#014361:23
#0153b1:1300332300000000
#015350:0000001300332300
#015380:0000000000000013
#016380:0033230000000000
#017320:1400340034003424
#017360:00000000000000540000000000000000
#0173a1:0000000000000014
#0183a1:3400000034240000
#018361:00340000
#018321:0000000000000014
#019321:34
#019361:0000342400000000
#0193a0:0000001434000000
#019360:0000000000003424
#019321:0000000000000014
#020321:34
#020361:00240000
#0213a1:14343424
#021361:0000005400000000
#021320:0000000000001424
#021361:0000000000000014
#0223a1:00240000
#022360:0000142400000000
#0223a1:0000001400000000
#022361:00000024
#023361:14343434343434343434343434343434
#024321:2c
#025321:00132300
#027361:14240000
#027341:0000001400240000
#027321:00000014
#028321:24
#028321:00132300
#028380:00001323
#028351:00000013
#029351:23
#0293b0:13
#029380:00230000
#029350:0000000013230000
#029381:0000000000130023
#029320:0000000000000013
#030320:0023000000000000
#0303a0:0000000000000000145434543400000000000000000000000000000000000000
#030390:00000000000000000000000000000000005400540054005400000000000000000000000000000000000000000000000000000000000000000000000000000000
#030360:0024
#031320:13
#031360:00230000
#031370:0000000000000013
#0323b0:0023000000000000
#032360:00130000
#032320:0023
#032381:00001323
#032350:00000013
#033350:23
#035380:13333333333333332300000000000000
#035370:0055005500550055005500550055005500000000000000000000000000000000
#038380:00000013
#0393b0:23
#039321:13
#039351:00000023000000000000000000000000
#039380:00000013000000000000000000000000
#0393b0:0000002300000000
#039361:0000001300000000
#039321:0000000000230000
#0393b1:00000013
#0403b1:23
#039360:00000014
#040360:24
#040320:0013002300000000
#040361:0014002400000000
#040361:0014
#040321:00000054
#041361:24
#0403b0:0013
#040370:00000053
#0413b0:33
#041360:0054
#0423b0:23
#042321:13
#042361:0054
#043321:23
#043370:13
#0433a0:0054
#044380:23
#044351:13
#044321:0054
#045361:23
#045361:0000000013000023
#045321:00000000000000000000003300000000
#046371:0000000013000023
#0463b1:00000000000000000000003300000000
#0473b1:13
#047361:00240000
#047360:14
#047320:00230000
#047360:0000001400000000
#0473b0:0000000000230000
#047321:0000001300000000
#047361:0000000000240000
#0473b1:00000013
#048361:24
#047360:00000014
#048320:23
#048360:0014000000000000
#0483b0:0000002300000000
#048321:0013000000000000
#048361:0000002400000000
#048351:00000013
#049321:23
#049381:00132300
#049350:00001323
#049320:0000000000000013
#050360:00230000
#050370:00001323
#050360:0000000000000013
#051320:00530000000000000000000000000000
#051360:00230000
#0513b1:00130023
#051371:0053
#051371:0000000000000013
#052371:00230000
#053321:13230000
#0533b1:0000001300230000
#0543b1:00130023
#054371:0053
#055361:1323
#055321:00530000
#056371:1323
#0563b1:00530000
#0573b1:1300000000000023
#057371:00000000000000530000000000000000
#058321:13230000
#058380:00132300
#058351:00001323
#0583b0:00000013
#0593b0:23
#059321:13
#059351:0023
#059380:0013
#0603b0:23
#060361:13
#060321:0023
#0623b1:0013
#062381:0000000000000033
#063381:23
#063350:1323
#063320:00530000
#063381:0013
#0633b1:00000053
#064381:23
#064350:1323
#064320:00530000
#064381:0013
#0643b1:00000053
#065381:23
#065350:1300003300000000
#065320:0000002c
#067320:13
#067360:0000003424000000
#0673b1:0013
#067361:0000000000000034
#068361:24
#068320:13
#068360:0000003424000000
#0683b1:0013
#068361:0000000000000034
#069361:24
#069320:1300000000230000
#069360:00000000005400000000000000000000
#071320:13
#071360:0000002300000000
#071371:13000000000000000053000000000000
#0713b1:0000003300002300
#075321:13230000
#075380:00132300
#075351:00001323
#0773b1:13230000
#077350:00132300
#077381:00001323
#078371:0013
#0793b1:53
#079371:0023
#078320:00000013
#079360:0053000000000000
#079320:0023
#079360:0000000000000013
#080320:00230000
#080370:0000001300000000
#0803b0:00000023
#081370:1300332300000000
#0813b0:00000053000000000000000000000000
#081321:0000001300002300
#081361:00000000000000000053000000000000
#0813b1:0000000000000013
#0823b1:00230000
#082350:00132300
#082381:00001323
#082320:00000014
#083360:0000005400000000
#084320:24
#0853a0:14
#085360:0000003424000000
#085360:0000000000000014
#086320:00000000005400000000000000000000
#086360:00000024
#089320:14
#089360:0000003424000000
#0893a1:0014
#090361:54
#0903a1:0024
#0913b1:0000000000000013
#092371:00330000
#092391:00000000003300000000000000000000
#0923b1:0000003300002300
#093321:1300332300000000
#093380:0000001300332300
#093351:00000013
#094351:23
#095321:13
#096351:23
#0953b0:13
#096380:23
#010920:00000013
#011960:23
#0269b0:0013000000000000
#0269a0:00000023000000000000000000000000
#026940:00130000
#026950:00000000002300000000000000000000
#026990:0000001300000000
#026980:00000000000000230000000000000000
#026920:0013
#026930:00000000000000000023000000000000
#026970:0000000000130000
#026980:00000000000000000000002300000000
#026940:00000013
#026950:00000000000000000000000000230000
#026990:0000000000000013
#0269a0:00000000000000000000000000000023
