This file was generated by Ched 2.7.0.0.
#TITLE ""
#ARTIST ""
#DESIGNER ""
#DIFFICULTY 0
#PLAYLEVEL
#SONGID ""
#WAVE ""
#WAVEOFFSET 0
#JACKET ""
#REQUEST "ticks_per_beat 480"
#00002: 4
#BPM01: 196
#00008: 01
#TIL00: ""
#VOLUME: ""
#HISPEED 00
#MEASUREHS 00
#0011a:14
#00112:0014
#00218:00000014
#00314:14
#0041a:00140000
#00414:0014
#00418:00000014
#00512:14
#00518:00140000
#00514:0014
#0051a:00000014
#00614:14
#00618:00140000
#00612:0014
#0061a:00000014
#00712:14
#00718:0000000000000014
#00914:14141414
#00910:41
#01018:14141414
#01112:14141414
#0121a:14141414
#01312:14
#0141a:14
#01512:14
#01518:00140000
#01514:0014
#0151a:00000014
#01612:14
#01618:00140000
#01614:0014
#0161a:00000014
#01712:14343400
#0181a:14343400
#01914:14343400
#02018:14343400
#02112:14343400
#0221a:14343400
#02519:14
#02513:14
#02614:0014
#02618:00000014
#02818:00140014
#02814:0014
#02912:14
#02918:00140000
#02914:0014
#0291a:00000014
#02910:41
#03012:14
#03118:0000000000000014
#0311a:0000003400340000
#03614:0014
#03618:00000014
#03814:0014
#03818:00000014
#03914:00000014
#03912:00000034000000000000000000000000
#03910:41
#04012:0014000000000000
#04014:0014
#04112:14343434
#04115:0000000000000014
#0431a:14343434
#04317:0000000000000014
#04512:14
#04518:00140000
#04514:0014
#0451a:00000014
#04612:14
#04618:00140000
#04614:0014
#0461a:00000014
#04912:00141414
#04910:41
#05018:14141414
#05114:14141414
#0521a:14141414
#0551a:14
#05612:14
#05718:14
#0571a:0000000000000014
#0571f:11
#05914:14
#05912:0000000000000014
#06118:14
#06312:14140000
#06318:00001414
#06414:14140000
#0641a:00001414
#06512:14
#06714:0014
#0671a:24
#0671f:21
#06818:14
#06812:0014
#06810:41
#0691a:14
#07014:00140014
#07018:0014
#0711a:14
#07118:0000001400000000
#07214:0014
#07218:00000014
#07312:14
#07318:00140000
#07314:0014
#0731a:00000014
#07418:0014
#07414:00000014
#0751a:14
#07518:00343400
#07614:0014
#07618:00000014
#07712:14
#07714:00343400
#07818:0014
#07814:00000014
#0791a:14
#07914:00000014
#08018:14
#08012:00140000
#0801a:0014
#08014:00000014
#08118:14141414
#08214:14141414
#08318:14
#0831a:00343434
#08310:41
#08412:00140000
#08418:0014
#08414:00000014
#0851a:14
#08514:00140000
#08518:0014
#08512:00000014
#0861a:14
#08614:00140000
#08618:0014
#08612:00000014
#0871a:14343434
#08717:0000000000000014
#08912:14343434
#08915:0000000000000014
#09118:0000000000000014
#09314:00000014
#02314:0034343434343434
#04212:34343400
#0441a:34343400
#0881a:34343400
#09012:34343400
#00152:0054
#00354:54
#00752:54
#00758:0000000000000054
#01352:54
#0145a:64
#01752:54
#0185a:64
#01954:64
#02058:54
#02152:54
#0225a:64
#03052:54
#03158:0000000000000024
#03352:0014
#03458:00140000
#03554:0014
#0365a:00140000
#03752:0014
#03858:00140000
#03954:00000054
#04052:0054000000000000
#04054:0054
#04152:54
#04155:0000000000000024
#0435a:64
#04357:0000000000000024
#0555a:54
#05652:64
#05758:54
#0575a:0000000000000024
#05954:64
#05952:0000000000000024
#06158:54
#06552:54
#0675a:14
#0695a:54
#0715a:54
#07158:0000005400000000
#0755a:54
#07752:64
#07754:00000014
#0795a:54
#08358:54
#0875a:54
#08757:0000000000000024
#08952:64
#08955:0000000000000024
#09158:0000000000000054
#09354:00000054
#001320:0014
#001340:0000000000000034
#002340:0024000000000000
#003340:14
#003320:0000003400340024
#007320:14
#007340:0000002400000000
#007380:0000000000000014
#0083a0:00340000
#008390:0034
#008380:00000024
#013320:14
#013340:00000024
#0143a0:14
#014380:00000024
#017320:14343400
#017340:00000024
#0183a0:14343400
#018380:00000024
#019340:14343400
#019320:00000024
#020380:14343400
#0203a0:00000024
#021320:14343400
#021340:00000024
#0223a0:14343400
#022380:00000024
#023340:1434343434343434
#024320:28
#0253a0:0014
#025390:00000000000000000000003400000000
#025380:0000000000000024
#027320:1400000000343400
#027340:0000343400000000
#028340:24
#030320:14
#030340:00000024
#0313a0:1400003400340000
#031380:0000000000000034
#0323a0:00343424
#033320:14000034000034002400000000000000
#033380:00000000000000000000000014000034
#034380:0034240000000000
#035340:14000034000034002400000000000000
#0353a0:00000000000000000000000014000034
#0363a0:0034240000000000
#037320:14000034000034002400000000000000
#037380:00000000000000000000000014000034
#038380:0034240000000000
#039320:14000034000000000000000000000000
#039340:0000003400003400
#040320:0034000000000000
#040340:0034
#041320:34343434
#041350:0000000000000054
#042320:34343424
#0433a0:14343434
#043370:0000000000000054
#0443a0:34343424
#047320:14000034
#047340:0000003400000000
#048340:0034000000000000
#048320:0034
#049320:24
#053320:14000034
#053340:0000003400000000
#054340:0034340000002400
#0553a0:14
#055380:0024
#056320:14
#056340:0024
#057380:14
#0573a0:0000000000000054
#058380:00000024
#059340:14
#059320:0000000000000054
#060340:00000024
#061380:14
#0613a0:00000024
#065320:14
#066340:24
#0693a0:14
#069380:0000000000343424
#0713a0:14000024
#071380:0000003400000000
#074320:14240000
#0753a0:14
#075380:00343424
#077320:14
#077340:00343424
#0793a0:14
#079380:0024
#083380:14
#0833a0:00343434
#0843a0:24
#0873a0:14343434
#087370:0000000000000054
#0883a0:34343424
#089320:14343434
#089350:0000000000000054
#090320:34343424
#091380:1400343400003434
#0923a0:00000024
#093340:1400343400003400
#094320:00000024
#095380:16
#096390:24
