This file was generated by Ched 2.7.0.0.
#TITLE ""
#ARTIST ""
#DESIGNER ""
#DIFFICULTY 0
#PLAYLEVEL
#SONGID ""
#WAVE ""
#WAVEOFFSET 0
#JACKET ""
#REQUEST "ticks_per_beat 480"
#00002: 4
#BPM01: 180
#00008: 01
#TIL00: ""
#VOLUME: ""
#HISPEED 00
#MEASUREHS 00
#0051a:14
#00510:41
#0061a:14
#00714:14
#00814:14
#00918:14
#01018:14
#01112:14
#01212:14
#0131a:14
#01314:0014
#01310:41
#0141a:14
#01512:14
#01518:0014
#01612:14
#0171a:14
#01714:0014
#0181a:14
#02418:0016
#02214:0000000000000016
#02616:0000000000000016
#02918:0016
#0291f:11
#02912:26
#03012:1616
#03118:16
#03112:0016
#03218:1616
#03318:0016
#03312:26
#03412:16
#03418:0016
#03512:16
#03918:0016
#03912:26
#0391f:21
#03910:0041
#04018:0016
#04012:16
#04112:1616
#04218:1616
#04518:1616
#04612:1616
#04314:00000016
#04312:16
#04712:0016
#04718:26
#04812:0016
#04818:16
#04918:1616
#05012:1616
#05312:1616
#05418:1616
#05410:41
#05116:00000016
#05118:16
#05514:24000014
#05718:00000014
#05914:00000014
#06118:14
#06214:14
#06416:18
#02118:26
#02112:00000026
#02110:41
#02512:26
#02518:00000026
#06318:24
#02810:0041
#06912:58
#02152:00000056
#02254:0000000000000026
#02656:0000000000000026
#02558:00000066
#04354:00000026
#04352:56
#05156:00000026
#05158:66
#05554:00000054
#05758:00000064
#05954:00000054
#06456:58
#06358:24
#000320:0014
#004320:0027
#019340:14
#020320:24
#021320:00000016
#022340:0000000000000056
#024320:26
#025380:00000016
#026360:0000000000000056
#028380:26
#035320:16
#036320:26
#037380:16
#038380:26
#043320:16
#043340:00000056
#044320:0026
#051380:16
#051360:00000056
#052380:0026
#055340:1400003400003400
#056320:0024
#057380:1400003400003400
#0583a0:0024
#059340:1400003400003400
#060320:0024
#063380:14
#064360:38
#065380:24
#065340:0014
#069320:28
