This file was generated by Ched 2.7.0.0.
#TITLE ""
#ARTIST ""
#DESIGNER ""
#DIFFICULTY 0
#PLAYLEVEL
#SONGID ""
#WAVE ""
#WAVEOFFSET 0
#JACKET ""
#REQUEST "ticks_per_beat 480"
#00002: 4
#BPM01: 180
#00008: 01
#TIL00: ""
#VOLUME: ""
#HISPEED 00
#MEASUREHS 00
#0001a:00000000000000000000001200000000
#00018:0012
#00016:0000000000000012
#00114:00120000000000000000000000000000
#00118:00120000
#00415:0000000000000013
#00518:1300001300001300
#00515:0000130000130013
#00510:41
#00618:1300000000130000
#00612:0013000000000013
#0061b:00130000
#0071a:0000001300000000
#00718:1300000000000013
#0071b:00130000
#00712:0000000000130000
#00715:00000013
#00818:0000000000000013
#00816:53
#00815:0053000000000053
#00814:00530053
#00813:0000005300530000
#00812:0053
#00915:1300001300001300
#00918:0000130000130013
#01015:1300000000130000
#0101b:0013000000000013
#01012:00130000
#01318:00131313
#01315:0000000000000013
#01310:41
#01415:00131313
#01418:0000000000000013
#0151b:23131300
#01518:00000013
#01515:0013000000000013
#01512:13
#01612:23131300
#01615:00000013
#01618:0013000000000013
#0161b:13
#01712:0013000000130000
#01715:0000001300000013
#0171b:2323
#01718:00230023
#0181b:0013000000130000
#01818:0000001300000013
#01812:2323
#01815:00230023
#0191b:0013
#01918:13
#01913:23
#01912:0063000000000000000000000000000000000000000000000000000000000000
#02015:13
#02012:0000000000590000
#02018:63
#02019:0063000000000000000000000000000000000000000000000000000000000000
#02116:00000015000000000000000000000000
#02115:00000000000000000015000000000000
#02112:2500002500000000
#02119:25000025
#02110:41
#02215:00160000
#02217:0000000000150000
#02216:0035
#02219:0000000000000035
#02218:00000035
#02316:13
#02315:0000001400000000
#02314:00000015
#0231a:14
#02413:0016000000000000
#02412:0017
#02419:0015
#02415:00000015
#02515:00000015000000000000000000000000
#02516:00000000000000000015000000000000
#02519:2500002500000000
#02512:25000025
#02615:00163500
#02614:0000000000150000
#02612:0000000000000035
#02613:00000035
#02717:1300001400001500
#02712:14
#02817:0016000017000000
#02816:00000014
#0281a:0000000000000014
#02812:0000000000140000
#02810:0041
#02918:00130000
#02912:00000013
#02915:0000001300000000
#0291b:00000013
#0291f:11
#02914:25
#03017:15
#03015:00130000
#0301b:00000013
#03018:0000001300000000
#03012:00000013
#0311a:00140000
#03112:00140000
#03115:0000000000001313
#03118:24
#03114:24
#03517:14
#0351b:00130000
#03515:0013
#03512:00000013
#03915:00001300000000000000000023000013
#03918:0000130000130024
#0391b:0000001300000000
#03912:2300000000000023
#0391f:21
#03910:0041
#0391a:64
#04012:0000002300141414
#04017:0000000000141414
#04018:00000013000000000000000000000000
#0401b:0023000000000000
#0411a:0014141400000000
#04115:0014141400001300
#04112:0000000000130000
#04118:0000000000000013
#04212:0000002300130000
#04215:23130023
#0421b:23000023
#04218:0000002300000000
#0451a:00140014
#04518:1313
#04618:1313
#0461a:00140014
#04612:2323
#04615:00230023
#04718:00001300000000000000000013000013
#04715:0000130000130000
#04712:2400001300000000
#0471b:1300000000000013
#04714:0000000000000014
#0491b:0000000000130000
#04918:00000013
#04915:0000000000000013
#04917:0024242400000000
#04912:0024242400000000
#0501b:0000002300130000
#05018:23130023
#05012:23000023
#05015:0000002300000000
#05117:14
#0511b:0000000000000013
#05114:00230063
#05116:0000000000230000
#05112:0000006300000000
#0481b:0000001300000000
#04815:00000013000000000000240024002400
#04812:0013000000000000
#0481a:0000000000242424
#05712:00140000
#05716:1400001500000000
#0571a:0000000000140000
#05714:00000016
#05612:00140000
#0621a:00000014
#06212:00000024
#06117:14
#06112:24
#06114:00000024
#0601a:00140000
#06019:0014
#06018:00000014
#06015:00240000
#06014:0024
#06013:00000024
#06516:0013000000000000
#0651a:0024
#06616:00140000
#01113:0000001300000000
#01115:1300000000000013
#01112:00130000
#0111b:0000000000130000
#01118:00000013
#01218:0053000000000013
#01215:00000013
#01217:53
#01219:00530053
#0121a:0000005300530000
#0121b:0053
#03616:0000000000000012
#03614:00000000000000000000000000000014
#03618:23000000000000000000000000001214
#0361b:0013
#03612:0023
#05312:00140014
#05315:1313
#05415:1414
#05412:00140014
#0541a:2424
#05417:00240024
#05410:41
#03218:23000013
#03215:0000000000130013
#03212:00130000
#0321b:0000002300000000
#0331a:24141414
#03313:00240000
#03314:0024
#03315:00000024
#03312:24
#0341a:14000000000024000000002400000000
#03417:00240000
#03412:24000000000000002400000000343434
#03415:0024000000000000
#03414:0000000000240000
#03418:00000000000000000024000000000000
#03416:00000024
#04315:14
#04312:0000000000000013
#04319:00230063
#04317:0000000000230000
#0431b:0000006300000000
#04418:00000026
#04417:23
#04419:0063002300000000
#0441b:0063
#05212:00006326
#05216:23
#05214:0063002300000000
#0551a:24
#05515:24
#05517:0000002400000000
#05512:00000024
#0581a:00240000
#05814:00240000
#05818:0024
#05812:00000024
#0591a:00240000
#05912:0000000000240000
#05916:24000026
#05915:0000002500000000
#06318:24
#06312:0000000000230000
#06313:00000023
#06314:0000000000000023
#0631b:0000000000230000
#0631a:00000023
#06319:0000000000000023
#06418:2300232300230023
#06415:23
#06419:00000000000000000000000000000000000000000000000000000000000000000000000000000000000000000000000000000000000000000063000000000000
#0641a:0000000000000000000000000000000000000000000000000000000000630000
#0681c:000000000000000000000000000000000000000000000052
#06812:000000000000000000000000000000000000000000000052
#03819:00000000000000000000006400000064
#03818:0000000000006464
#03817:00000000000000000000000000640000
#0381a:0000000000640000
#00058:0052
#0005a:00000000000000000000002200000000
#00056:0000000000000052
#00154:00220000000000000000000000000000
#00158:00220000
#00156:00120000
#00558:5300005300000000
#0075a:0000005300000000
#00758:5300000000000063
#0075b:00230000
#00955:6300006300000000
#0145b:00130000
#0195b:0023
#01958:63
#02152:3500006500003500
#02159:5500004500005500
#02156:00000025000000000000000000000000
#02155:00000000000000000025000000000000
#02255:00260000
#02257:0000000000550000
#02356:33
#02355:0000003400000000
#02354:00000035
#0235a:24
#02453:0036000000000000
#02452:0037
#02459:0055
#02455:00000025
#02555:00000025000000000000000000000000
#02556:00000000000000000025000000000000
#02559:4500005500004500
#02552:6500003500006500
#02655:00260000
#02654:0000000000650000
#02757:4300004400004500
#02752:24
#02857:0046000047000000
#02954:15
#02955:0000006300000000
#03057:15
#03058:0000005300000000
#0315a:00540000
#03152:00640000
#03158:44
#03154:34
#03552:14000023
#03557:54
#0355b:00230000
#03555:0063
#0335a:14
#03456:00000054
#03658:53000000000000000000000000002254
#03652:0053
#03656:0000000000000022
#03654:00000000000000000000000000000054
#0365b:0053
#0395a:44
#03958:0000000000000014
#03952:0000000000000053
#03955:00000000000000000000000000000023
#04054:0014000000000000
#04058:00000023000014000000000000000000
#04052:0000000000000014
#04057:0000000000000014
#0405b:0053000000000000
#0415a:0000001400000000
#04155:0000001400000000
#04458:00000016
#04452:00000016
#0455a:00140014
#0465a:00140014
#05157:64
#0515b:0000000000000023
#05152:33
#05252:00000016
#05258:00000016
#04858:0014000000000000
#04854:0000001400000000
#04855:00000023000000000000000000001400
#0485a:0000000000000014
#04852:0053000000000000
#04752:14
#04754:0000000000000014
#04758:00000000000000000000000000000023
#0475b:0000000000000053
#04957:0000001400000000
#04952:0000001400000000
#0435b:43
#04355:54
#04352:0000000000000023
#05555:54
#0555a:14000014
#05552:0000001400001400
#05557:0000006400000000
#05756:3400004500000000
#05754:00000036
#06152:0014
#06157:14
#06258:14
#06254:0014
#0625a:00000054
#06252:00000064
#06358:44
#06354:34
#06555:0015
#06556:0023000000000000
#0655a:0054
#06656:00240000
#05956:44000046
#05955:0000003500000000
#01352:00130000
#01153:0000006300000000
#01155:6300000000000053
#01152:00230000
#01552:53330000
#01555:0023000000000000
#0165b:63430000
#01658:0023000000000000
#02055:23
#03756:12
#03758:12
#05352:00140014
#05452:00140014
#00452:001c
#000380:0000000012000022
#0003a0:00000000000000000000005200000000
#000361:0000000000000012
#001341:00520000000000000000000000000000
#001361:00220000
#001380:00120000
#004320:002c
#005380:13
#0053b0:00230000
#005380:0000001300000000
#0053b0:0000000000230000
#006350:0000001300230000
#007380:1300000000230000
#0073b0:00330000
#0073a0:0000003300000000
#007380:0000000000000013
#0083b0:0023
#009350:13
#009320:00230000
#009350:0000001300000000
#009320:0000000000230000
#010380:0000001300230000
#011350:1300000000230000
#011320:00330000
#011330:0000003300000000
#011350:0000000000000013
#012320:0023
#013320:13230000
#0143b0:13230000
#015320:13230000
#015350:0053000000000000
#0163b0:13230000
#016380:0053000000000000
#019380:13
#0193b0:0053
#020380:23
#020351:13
#020321:0000000000290000
#021391:1500002500000000
#021361:00000055000000000000000000000000
#021320:0000001500002500
#021350:00000000000000000055000000000000
#021391:00000015
#022351:00560000
#022361:0035
#022371:0000000000350000
#022381:00000035
#022391:0000000000000035
#0233a1:34
#024391:0035
#024351:00000055
#025391:25
#025320:1500002500000000
#025350:00000055000000000000000000000000
#025391:0000001500002500
#025361:00000000000000000055000000000000
#025320:00000015
#026350:00563500
#026340:0000000000350000
#026330:00000035
#026320:0000000000000035
#027320:34
#028320:0025
#029350:0000001300000000
#029320:0000000000230000
#030380:0000001300000000
#0303b0:0000000000230000
#031320:00140000
#031350:00000000005300002300000000000000
#0313a1:00140000
#031381:00000000005300002300000000000000
#032381:13230000
#0323b1:0000001300230000
#034361:00000014
#034321:00000000000000000000000000343434
#035321:24
#035370:14
#0353b0:00530000
#035380:0023
#035351:0013
#035321:00000053
#036351:23
#036380:13000000000000000000520000005254
#0363b0:00533300
#037380:22
#036321:0013
#036361:0000000000520052
#036341:00000000000000000000000000000054
#037361:22
#039351:0000001300230000
#039321:0000000000000013
#039351:00000000000000000000000000000053
#040341:0024000000000000
#0403b0:0013000000000000
#040380:00000053000024000000000000000000
#0423b0:13230000
#042380:0000001300230000
#0423b0:00000013
#042380:0000000000000033
#0433b0:23
#043351:14
#043321:0000000000000053
#044321:00000026
#045321:13
#045351:0053230000000000
#045321:0013
#045351:0000000000332300
#047381:0000001300230000
#0473b1:0000000000000013
#047381:00000000000000000000000000000053
#048381:0024000000000000
#048320:0013000000000000
#048350:00000053000000000000000000000000
#048340:0000002400000000
#050320:13230000
#050350:0000001300230000
#050320:00000013
#050350:0000000000000033
#051320:23
#051371:14
#0513b1:0000000000000053
#052381:00000026
#0533b1:13
#053381:0053230000000000
#0533b1:0013
#053381:0000000000332300
#055351:14
#055321:0054002400000000
#055370:0000001400000000
#0553a0:00005424
#056380:00142400
#056341:00001424
#0563a0:00000014
#0573a0:24
#058340:00142400
#058381:00001424
#058320:00000014
#059320:24
#061320:1424
#061381:00140000
#062381:24
#061340:00000014
#062340:0024
#0623a1:00140034
#063381:24
#062320:00000014
#063340:24
#064350:1300000000000053
#064360:0000000000000000000000000000000000000000000000000000000000530000
#065360:0053000000000000
#065350:0025
#0653a1:0014
#066361:00540000
#0673c1:32
#067381:000000000000000000000052005200000000000000000000
#0673b1:000000000000000000000000000000000000000000000053
#0683b1:005300000000000000000000000000000000000000000000
#068371:000000000000000000000000000000000000000000000000000000000000000000000000000000000000000000000000000000000000000000000000000000000000000000000000000000000000000000000000000000000000000000000000000000000000000000000000000000000000000000000000000000000000000000000000000000000000000000000000000000000000000000000000000000000000000000000000000000000000000000000000000000000000000000000000000000000000000000000000000000000000000000000000000000000000000000000000000000000000000000000000000000000000000000000000000000000000000000000000000000000000000000000000000000000000000000000000000000000000000000000000000000000000000000000000000000000000000000000000000000000000000000000000000000000000000000000000000000000000000000000000000000000000000000000000000000000000000000000000000000000000000000000000000000000000000000000000000000000000000000000000000000000000000000000000000000000000000000530000000000000000000000000000000000000000000000000000000000000000000000000000000000000000000000000000000000000000000000000000000000000000000000000000000000000053000000000000000000000000000000000000000000000000000000000000000000000000000000000000000000000000000000000000000000000000000000000000000000000000000000000000000000000000000000000000000000000000000000000000000000000000000000000000000000000000000000000000000000000000000000000000000000000000000000000000000000000000000000000000000000000000000000000000000000000000000000000000000000000000000000000000000000000000000000000000000000000000000000000000000000000000000000000000000000000000000000000000000000000000000000000000000000000000000000000000000000000000000000000000000000000000000000000000000000000000000000000000000000000000000000000000000000000000000000000000000000000000000000000000000000000000000000000000000000000000000000000000000000000000000000000000000000000000000000000000000000000000000000000000000000000000000000000000000000000000000000000000000000000000000000000000
#0683c1:000000000000000000000000000000000000000000000022
#067320:120000000000000000000000000000000000000000000053
#067360:000000000000000000000052005200000000000000000000
#068320:005300000000000000000000000000000000000000000022
#068360:000000000000000000000053005300000000000000000000
#008960:13
#008920:0053
#008950:0000000000000023
#012970:13
#0129b0:0053
#012990:00000023
#019930:13
#019920:000000000000000000000000000000000000000000000000000000000000000000000000000000000000000000000000000000000000000000000053230000000000000000000000000000000000000000000000000000000000000000000000000000000000000000000000000000000000000000000000000000000000000000000000000000000000000000000000000000000000000000000000000000000000000000000000000000000000000000000000000000000000000000000000000000000000000000000000000000000000000000000000000000000000000000000000000000000000000000000000000000000000000000000000000000000000000000000000000000000000000000000000000000000000000000000000000000000000000000000000000000000000000000000000000000000000000000000000000000000000000000000000000000000000000000000000000000000000000000000000000000000000000000000000000000000000000000000000000000000000000000000000000000000000000000000000000000000000000000000000000000000000000000000000000000000000000000000000000000000000000000000000000000000000000000000000000000000000000000000000000000000000000000000000000000000000000000000000000000000000000000000000000000000000000000000000000000000000000000000000000000000000000000000000000000000000000000000000000000000000000000000000000000000000000000000000000000000000000000000000000000000000000000000000000000000000000000000000000000000000000000000000000000000000000000000000000000000000000000000000000000000000000000000000000000000000000000000000000000000000000000000000000000000000000000000000000000000000000000000000000000000000000000000000000000000000000000000000000000000000000000000000000000000000000000000000000000000000000000000000000000000000000000000000000000000000000000000000000000000000000000000000000000000000000000000000000000000000000000000000000000000000000000000000000000000000000000000000000000000000000000000000000000000000000000000000000000000000000000000000000000000000000000000000000000000000000000000000000000000000000000000000000000000000000000000000000000000000000000000000000000000000000000000000000000000000000000000000000000000000000000000000000000000000000000000000000000000000000000000000000000000000000000000000000000000000000000000000000000000000000000000000000000000000000000000000000000000000000000000000000000000000000000000000000000000000000000000000000000000000000000000000000000000000000000000000000000000000000000000000000000000000000000000000000000000000000000000000000000000000000000000000000000000000000000000000000000000000000000000000000000000000000000000000000000000000000000000000000000000000000000000000000000000000000000000000000000000000000000000000000000000000000000000000000000000000000000000000000000000000000000000000000000000000000000000000000000000000000000000000000000000000000000000000000000000000000000000000000000000000000000000000000000000000000000000000000000000000000000000000000000000000000000000000000000000000000000000000000000000000000000000000000000000000000000000000000000000000000000000000000000000000000000000000000000000000000000000000000000000000000000000000000000000000000000000000000000000000000000000000000000000000000000000000000000000000000000000000000000000000000000000000000000000000000000000000000000000000000000000000000000000000000000000000000000000000000000000000000000000000000000000000000000000000000000000000000000000000000000000000000000000000000000000000000000000000000000000000000000000000000000000000000000000000000000000000000000000000000000000000000000000000000000000000000000000000000000000000000000000000000000000000000000000000000000000000000000000000000000000000000000000000000000000000000000000000000000000000000000000000000000000000000000000000000000000000000000000000000000000000000000000000000000000000000000000000000000000000000000000000000000000000000000000000000000000000000000000000000000000000000000000000000000000000000000000000000000000000000000000000000000000000000000000000000000000000000000000000000000000000
#020980:13
#020990:000000000000000000000000000000000000000000000000000000000000000000000000000000000000000000000000000000000000000000000053230000000000000000000000000000000000000000000000000000000000000000000000000000000000000000000000000000000000000000000000000000000000000000000000000000000000000000000000000000000000000000000000000000000000000000000000000000000000000000000000000000000000000000000000000000000000000000000000000000000000000000000000000000000000000000000000000000000000000000000000000000000000000000000000000000000000000000000000000000000000000000000000000000000000000000000000000000000000000000000000000000000000000000000000000000000000000000000000000000000000000000000000000000000000000000000000000000000000000000000000000000000000000000000000000000000000000000000000000000000000000000000000000000000000000000000000000000000000000000000000000000000000000000000000000000000000000000000000000000000000000000000000000000000000000000000000000000000000000000000000000000000000000000000000000000000000000000000000000000000000000000000000000000000000000000000000000000000000000000000000000000000000000000000000000000000000000000000000000000000000000000000000000000000000000000000000000000000000000000000000000000000000000000000000000000000000000000000000000000000000000000000000000000000000000000000000000000000000000000000000000000000000000000000000000000000000000000000000000000000000000000000000000000000000000000000000000000000000000000000000000000000000000000000000000000000000000000000000000000000000000000000000000000000000000000000000000000000000000000000000000000000000000000000000000000000000000000000000000000000000000000000000000000000000000000000000000000000000000000000000000000000000000000000000000000000000000000000000000000000000000000000000000000000000000000000000000000000000000000000000000000000000000000000000000000000000000000000000000000000000000000000000000000000000000000000000000000000000000000000000000000000000000000000000000000000000000000000000000000000000000000000000000000000000000000000000000000000000000000000000000000000000000000000000000000000000000000000000000000000000000000000000000000000000000000000000000000000000000000000000000000000000000000000000000000000000000000000000000000000000000000000000000000000000000000000000000000000000000000000000000000000000000000000000000000000000000000000000000000000000000000000000000000000000000000000000000000000000000000000000000000000000000000000000000000000000000000000000000000000000000000000000000000000000000000000000000000000000000000000000000000000000000000000000000000000000000000000000000000000000000000000000000000000000000000000000000000000000000000000000000000000000000000000000000000000000000000000000000000000000000000000000000000000000000000000000000000000000000000000000000000000000000000000000000000000000000000000000000000000000000000000000000000000000000000000000000000000000000000000000000000000000000000000000000000000000000000000000000000000000000000000000000000000000000000000000000000000000000000000000000000000000000000000000000000000000000000000000000000000000000000000000000000000000000000000000000000000000000000000000000000000000000000000000000000000000000000000000000000000000000000000000000000000000000000000000000000000000000000000000000000000000000000000000000000000000000000000000000000000000000000000000000000000000000000000000000000000000000000000000000000000000000000000000000000000000000000000000000000000000000000000000000000000000000000000000000000000000000000000000000000000000000000000000000000000000000000000000000000000000000000000000000000000000000000000000000000000000000000000000000000000000000000000000000000000000000000000000000000000000000000000000000000000000000000000000000000000000000000000000000000000000000000000000000000000000000000000000000000000000000000000000000000000000000000000000000000000000000000000000
#0389a0:0000000000140000
#038970:00000000000000000000000000540000
#0399a0:24
#043990:00130000
#0439b0:000000000000000000000000000000000000000000000000000000000000000000000000000000000000000000000000000000000000000000000000000000000000000000000000000000000000000000000000000000000000000000000000000000000000000000000000000000000000000000000000000000000000000000000000000000000000000000000000000000000000000000000000000000000000000000000000000000000000000000000053230000000000000000000000000000000000000000000000000000000000000000000000000000000000000000000000000000000000000000000000000000000000000000000000000000000000000000000000000000000000000000000000000000000000000000000000000000000000000000000000000000000000000000000000000000000000000000000000000000000000000000000000000000000000000000000000000000000000000000000000000000000000000000000000000000000000000000000000000000000000000000000000000000000000000000000000000000000000000000000000000000000000000000000000000000000000000000000000000000000000000000000000000000000000000000000000000000000000000000000000
#043970:0000000000130000
#043990:000000000000000000000000000000000000000000000000000000000000000000000000000000000000000000000000000000000000000000000000000000000000000000000000000000000000000000000000000000000000000000000000000000000000000000000000000000000000000000000000000000000000000000000000000000000000000000000000000000000000000000000000000000000000000000000000000000000000000000000000000000000000000000000000000000000000000000000000000000000000000000000000000000000000000000000000000000000000000000000000000000000000000000000000000000000000000000000000000000000000000000000000000000000000000000000000000000000000000000000000000000000000000000000000000000000000000000000000000000000000000000000000000000000000000000000000000000000000000000000053230000000000000000000000000000000000000000000000000000000000000000000000000000000000000000000000000000000000000000000000000000000000000000000000000000000000000000000000000000000000000000000000000000000000000000000000000000000000000000000000
#044970:13
#044990:000000000000000000000000000000000000000000000000000000000000000000000000000000000000000000000000000000000000000000000053230000000000000000000000000000000000000000000000000000000000000000000000000000000000000000000000000000000000000000000000000000000000000000000000000000000000000000000000000000000000000000000000000000000000000000000000000000000000000000000000000000000000000000000000000000000000000000000000000000000000000000000000000000000000000000000000000000000000000000000000000000000000000000000000000000000000000000000000000000000000000000000000000000000000000000000000000000000000000000000000000000000000000000000000000000000000000000000000000000000000000000000000000000000000000000000000000000000000000000000000000000000000000000000000000000000000000000000000000000000000000000000000000000000000000000000000000000000000000000000000000000000000000000000000000000000000000000000000000000000000000000000000000000000000000000000000000000000000000000000000
#044990:0000001300000000
#0449b0:000000000000000000000000000000000000000000000000000000000000000000000000000000000000000000000000000000000000000000000000000000000000000000000000000000000000000000000000000000000000000000000000000000000000000000000000000000000000000000000000000000000000000000000000000000000000000000000000000000000000000000000000000000000000000000000000000000000000000000000000000000000000000000000000000000000000000000000000000000000000000000000000000000000000000000000000000000000000000000000053230000000000000000000000000000000000000000000000000000000000000000000000000000000000000000000000000000000000000000000000000000000000000000000000000000000000000000000000000000000000000000000000000000000000000000000000000000000000000000000000000000000000000000000000000000000000000000000000000000000000000000000000000000000000000000000000000000000000000000000000000000000000000000000000000000000000000000000000000000000000000000000000000000000000000000000000000000000000000000000000
#051940:00130000
#051920:000000000000000000000000000000000000000000000000000000000000000000000000000000000000000000000000000000000000000000000000000000000000000000000000000000000000000000000000000000000000000000000000000000000000000000000000000000000000000000000000000000000000000000000000000000000000000000000000000000000000000000000000000000000000000000000000000000000000000000000053230000000000000000000000000000000000000000000000000000000000000000000000000000000000000000000000000000000000000000000000000000000000000000000000000000000000000000000000000000000000000000000000000000000000000000000000000000000000000000000000000000000000000000000000000000000000000000000000000000000000000000000000000000000000000000000000000000000000000000000000000000000000000000000000000000000000000000000000000000000000000000000000000000000000000000000000000000000000000000000000000000000000000000000000000000000000000000000000000000000000000000000000000000000000000000000000000000000000000000000000
#051960:0000000000130000
#051940:000000000000000000000000000000000000000000000000000000000000000000000000000000000000000000000000000000000000000000000000000000000000000000000000000000000000000000000000000000000000000000000000000000000000000000000000000000000000000000000000000000000000000000000000000000000000000000000000000000000000000000000000000000000000000000000000000000000000000000000000000000000000000000000000000000000000000000000000000000000000000000000000000000000000000000000000000000000000000000000000000000000000000000000000000000000000000000000000000000000000000000000000000000000000000000000000000000000000000000000000000000000000000000000000000000000000000000000000000000000000000000000000000000000000000000000000000000000000000000000053230000000000000000000000000000000000000000000000000000000000000000000000000000000000000000000000000000000000000000000000000000000000000000000000000000000000000000000000000000000000000000000000000000000000000000000000000000000000000000000000
#052960:13
#052940:000000000000000000000000000000000000000000000000000000000000000000000000000000000000000000000000000000000000000000000053230000000000000000000000000000000000000000000000000000000000000000000000000000000000000000000000000000000000000000000000000000000000000000000000000000000000000000000000000000000000000000000000000000000000000000000000000000000000000000000000000000000000000000000000000000000000000000000000000000000000000000000000000000000000000000000000000000000000000000000000000000000000000000000000000000000000000000000000000000000000000000000000000000000000000000000000000000000000000000000000000000000000000000000000000000000000000000000000000000000000000000000000000000000000000000000000000000000000000000000000000000000000000000000000000000000000000000000000000000000000000000000000000000000000000000000000000000000000000000000000000000000000000000000000000000000000000000000000000000000000000000000000000000000000000000000000000000000000000000000000
#052940:0000001300000000
#052920:000000000000000000000000000000000000000000000000000000000000000000000000000000000000000000000000000000000000000000000000000000000000000000000000000000000000000000000000000000000000000000000000000000000000000000000000000000000000000000000000000000000000000000000000000000000000000000000000000000000000000000000000000000000000000000000000000000000000000000000000000000000000000000000000000000000000000000000000000000000000000000000000000000000000000000000000000000000000000000000053230000000000000000000000000000000000000000000000000000000000000000000000000000000000000000000000000000000000000000000000000000000000000000000000000000000000000000000000000000000000000000000000000000000000000000000000000000000000000000000000000000000000000000000000000000000000000000000000000000000000000000000000000000000000000000000000000000000000000000000000000000000000000000000000000000000000000000000000000000000000000000000000000000000000000000000000000000000000000000000000
#064980:0000000000000013
#0649a0:0000000000000000000000000000000000000000000000000000000000230000
