This file was generated by Ched 2.7.0.0.
#TITLE ""
#ARTIST ""
#DESIGNER ""
#DIFFICULTY 0
#PLAYLEVEL
#SONGID ""
#WAVE ""
#WAVEOFFSET 0
#JACKET ""
#REQUEST "ticks_per_beat 480"
#00002: 4
#BPM01: 180
#00008: 01
#TIL00: ""
#VOLUME: ""
#HISPEED 00
#MEASUREHS 00
#0051a:14
#00514:0014
#00510:41
#0061a:14
#00712:14
#00718:0014
#00812:14
#0091a:14
#00912:0014
#01018:14
#01112:14
#0111a:0014
#01214:14
#01912:16
#02215:0000001600000000
#02615:0000001600000000
#02914:00140000
#02918:0014
#02912:00000014
#0291f:11
#0291a:24
#03018:14
#03014:00140000
#0301a:0014
#03118:00140000
#03114:0014
#0311a:00000014
#03112:24
#03214:14
#03218:00140000
#03212:0014
#03314:14
#03318:0014
#0331a:24
#03312:0024
#03414:1414
#03418:00140014
#0341a:2424
#03412:00240024
#03614:14
#0361a:14
#03915:00140000
#03919:0014
#03914:00000014
#0391a:24
#0391f:21
#03910:0041
#04018:14
#04013:00140000
#04017:0014
#04012:00000015
#04112:00150014
#04119:2525
#04216:14000014
#0421a:00140000
#04212:0014
#04512:1414
#0451a:00140014
#04717:00140000
#04713:0014
#04718:00000014
#04712:24
#04814:14
#04819:00140015
#04815:0014
#04919:00150000
#0491a:00000014
#04912:2525
#05016:14000014
#05012:00140000
#0501a:0014
#0531a:1414
#05312:00140014
#05516:0000001500000000
#05519:25
#05715:0000001500000000
#05712:25
#05916:0000001500000000
#05919:25
#05612:00150000
#05619:0015
#05819:00150000
#05812:0015
#06012:00140000
#06018:0014
#06014:00000014
#0611a:14
#06117:0014
#0621a:14
#06414:2400000000140000
#06518:0016
#06616:16
#06617:0016
#06718:16
#06717:0016
#06816:16
#06817:0016
#02118:26000026
#02112:0000002600000000
#02110:41
#02512:26000026
#02518:0000002600000000
#0351a:24
#04618:00240024
#04614:2424
#05414:00240024
#05418:2424
#05410:41
#06312:24
#0631a:24
#06318:00000024
#05212:00000024
#0441a:00000024
#01319:0034
#01310:41
#0141a:34
#01513:0034
#01612:34
#01719:0034
#0181a:34
#02810:0041
#06918:56
#02053:14
#01952:56
#02458:0016
#02255:0000002600000000
#02158:00000056
#02655:0000002600000000
#02552:00000066
#02852:0016
#03654:54
#0365a:54
#03755:14
#03759:14
#0395a:14
#04052:00000015
#04152:00150000
#0445a:00000014
#04859:00000015
#04959:00150000
#04752:14
#05252:00000014
#05559:55000015
#05556:0000005500000000
#05755:0000006500000000
#05752:65000015
#05956:0000005500000000
#05959:55000015
#06257:0014
#0625a:54
#0615a:54
#06157:0054
#06454:0000000000240000
#06453:0000000000000016
#06656:26
#06657:0066
#06758:26
#06757:0066
#06856:26
#06857:0066
#06558:0066
#000340:0000000014000034
#001340:00340000
#004320:0028
#013380:14
#013390:0034
#0143a0:3424
#015340:14
#015330:0034
#016320:3424
#017380:14
#017390:0034
#0183a0:3424
#019320:16
#020330:24
#021380:00000016
#022350:0000005600000000
#023380:36000036
#023360:0000003600000000
#024360:0036000000000000
#024380:0026
#025320:00000016
#026350:0000005600000000
#027320:36000036
#027340:0000003600000000
#028340:0036000000000000
#028320:0026
#0353a0:14
#0363a0:34
#037390:24
#035341:14
#036341:34
#037351:24
#0433a1:14340000
#043381:0000000000340000
#0443a1:34000024
#044381:0000003400000000
#051321:14340000
#051341:0000000000340000
#052321:34000024
#052341:0000003400000000
#055391:15000000000000000055000025000000
#055361:00000055000035000000000000000000
#057321:15000000000000000055000025000000
#057351:00000055000035000000000000000000
#059391:15000000000000000055000025000000
#059361:00000055000035000000000000000000
#0613a1:14
#061371:0034
#0623a1:34
#062371:0024
#0633a1:1424
#063320:1424
#064340:1400343400340000
#064330:0000000000000026
#065380:0016
#066360:56
#066370:0056
#067380:56
#067370:0056
#068360:56
#068370:0056
#069380:26
