This file was generated by Ched 2.7.0.0.
#TITLE ""
#ARTIST ""
#DESIGNER ""
#DIFFICULTY 0
#PLAYLEVEL
#SONGID ""
#WAVE ""
#WAVEOFFSET 0
#JACKET ""
#REQUEST "ticks_per_beat 480"
#00002: 4
#BPM01: 167
#00008: 01
#TIL00: ""
#VOLUME: ""
#HISPEED 00
#MEASUREHS 00
#00118:16
#00212:16
#00512:16
#00612:16
#00918:16
#01012:16
#01714:14
#02118:14
#02214:14
#0251a:14
#02612:14
#03214:14
#03318:14
#0361a:14
#03712:14
#0381a:14
#03912:14
#04018:2616
#04112:2616
#04218:16
#04212:0016
#04412:2616
#04410:41
#04518:2616
#04612:16
#04618:0016
#04818:2616
#04912:2616
#05018:16
#05012:0016
#05212:16
#05218:0016
#05312:16
#05318:0016
#05714:14
#05818:14
#05912:14
#0601a:14
#06114:14
#06218:14
#06312:14
#06310:41
#07219:0000001400000000
#07218:26
#0721f:00000021
#07312:2616
#07310:00410000
#07418:16
#07412:0016
#07612:16
#07618:0016
#07712:16
#07718:0016
#0641f:11
#00318:26
#00418:26
#00718:26
#00812:26
#02014:24
#02412:24
#03414:24
#0561a:24
#05610:41
#08312:00000025
#08319:00000025
#08018:26
#07812:26
#05412:26
#02318:24
#02914:34
#02814:0034
#02810:41
#03118:34
#03018:0034
#01110:41
#07258:56
#07259:0000002400000000
#0113a0:14
#0123a0:24
#013320:14
#014320:24
#0153a0:14
#0163a0:24
#018380:14
#019380:0024
#023380:14342400
#0273a0:14342400
#028340:1434
#029340:34
#029320:0024
#030380:1434
#031380:34
#0313a0:0024
#034340:14
#035340:34
#035330:0026
#043380:1626
#047320:1626
#051380:1626
#054320:16
#054330:0036
#055320:26
#0643a0:14000054
#065380:34000054
#0663a0:34000054
#067380:3424
#068320:14000054
#069340:34000054
#070320:34000054
#071340:3424
#072380:16000026
#072390:0000005400000000
#075380:1626
#078320:16
#078340:0036
#079320:26
#080380:16
#080360:0036
#081380:36
#081360:0036
#082380:26
