This file was generated by Ched 2.7.0.0.
#TITLE ""
#ARTIST ""
#DESIGNER ""
#DIFFICULTY 0
#PLAYLEVEL
#SONGID ""
#WAVE ""
#WAVEOFFSET 0
#JACKET ""
#REQUEST "ticks_per_beat 480"
#00002: 4
#BPM01: 167
#00008: 01
#TIL00: ""
#VOLUME: ""
#HISPEED 00
#MEASUREHS 00
#00118:000000000014000000000000
#00214:000000000014000000000000
#00314:0014
#0031a:24
#00418:14
#00412:0014
#0051a:14
#00514:0014
#00618:14
#00718:0014
#00712:24
#00814:14
#0081a:0014
#0101a:14
#01012:0014
#0111a:14
#01114:0014
#01110:41
#0121a:14
#01214:0014
#01318:14
#01312:0014
#01418:14
#01512:14
#01518:0014
#01612:14
#01618:0014
#02014:0014
#0201a:24
#0211a:1414
#02212:14
#02218:0014
#02418:0014
#02412:14
#02512:1414
#0261a:14
#02614:0014
#0281a:14
#02818:0014
#02810:41
#0291a:14
#03012:14
#03014:0014
#03112:14
#0361a:1414
#03712:1414
#03818:1414
#03814:00140014
#03918:14
#03914:00140000
#04018:2616
#04012:00160000
#04118:00160000
#04112:2616
#04218:14
#04214:0014
#04318:14
#04412:2616
#04418:00160000
#04410:41
#04512:00160000
#04518:2616
#04612:14
#04614:0014
#04618:00140000
#0461a:00000014
#04714:14
#04818:2616
#04812:00160000
#04918:00160000
#04912:2616
#05018:14
#05014:0014
#05118:14
#05214:14
#05218:0014
#05314:14
#05312:000000340014000000000000
#05614:0014
#0561a:24
#05610:41
#0571a:1414
#05812:14
#05818:0014
#05912:1414
#06012:0014
#0601a:14
#0611a:1414
#06114:00140000
#06212:14
#0621a:0014
#07312:00160000
#07318:2616
#07310:00410000
#07414:14
#07418:0014
#07514:0014
#07513:00000026
#07618:14
#07614:0014
#07718:14
#0771a:000000340014000000000000
#07912:0014
#0791a:0014
#07914:64
#08318:240014
#0641f:11
#01714:24
#0171a:0024
#02312:26
#02315:00260000
#02318:0026
#02718:26
#02715:00260000
#02712:0026
#0321a:24
#03216:0024
#03312:24
#03316:0024
#0341a:24
#03512:24
#06312:2424
#06318:00240000
#06310:41
#07014:2424
#07018:00240024
#07112:2424
#0711a:00240024
#07214:26
#0721f:00000021
#07814:246464646464
#08018:246464646464
#08214:0024
#08218:64
#05418:246464646464
#01814:54545454
#01914:54545400
#05514:000000000000000054540000
#05518:64
#08118:646464
#08119:006400640064
#00158:000000000054000000000000
#00254:000000000064000000000000
#0035a:14
#00658:54
#0065a:0014
#0115a:14
#01458:54
#0145a:0014
#01552:14
#0205a:14
#02452:14
#0285a:64
#02858:0064
#0295a:64
#02958:0014
#03052:54
#03054:0054
#03152:54
#03154:0014
#03458:000000000014000000000000
#0345a:54
#03552:64
#03554:000000000014000000000000
#03954:00140000
#04058:16
#04258:14
#04254:0014
#0435a:0014
#04358:54
#04754:54
#04752:0014
#05058:14
#05054:0014
#05158:54
#0515a:0014
#04858:16
#05254:64
#05258:0054
#05354:64
#05352:000000000054000000000000
#0565a:14
#0605a:14
#07254:56
#07252:00000014
#07554:0054
#07553:00000016
#07658:54
#07654:0064
#07758:54
#0775a:000000000064000000000000
#07954:14
#08258:14
#08358:000024
#08356:00000018
#05558:14
#07454:14
#07458:0014
#001380:140000000034000000000000
#0013a0:00000024
#002340:140000000034000000000000
#002320:00000024
#006380:14
#0063a0:0024
#009320:14
#009330:00340000
#009340:0034
#009350:00000024
#014380:14
#0143a0:0024
#0283a0:14
#028380:0034
#0293a0:34
#029380:0024
#030320:14
#030340:0034
#031320:34
#031340:0024
#0343a0:14
#034380:000000000024000000000000
#035320:14
#035340:000000000024000000000000
#043380:14
#0433a0:0024
#047340:14
#047320:0024
#051380:14
#0513a0:0024
#052340:14
#052320:00240000
#052380:0014
#0523a0:00000024
#053340:14000024
#053320:000000340034000000000000
#0643a0:14
#064380:00340034
#065380:54
#0653a0:00340024
#066320:14
#066340:00340034
#067320:54345424
#0683a0:14000034
#068380:00345400
#0693a0:54000024
#069380:00345400
#072340:16
#072320:00000024
#075340:1434
#075330:00000026
#076380:14
#0763a0:00240000
#076340:0014
#076320:00000024
#077380:14000024
#0773a0:000000340034000000000000
#083380:140000000000000000540054000000005400000000000000
#083370:000000000036000000000000
#083360:00000028
#018940:14
#019940:000000000000000000000000000000000000000000000000000000000000000000000000000000000000000000000000000000000000000000000000000000000000000000000000000000000000000000000000000000000000000000000000000000000000000000000000000000000000000000000000000000000000000000000000000000000000000000000000000000000000000000000000000000000000000000000000000000000000000000000000000000000000000000000000000000000000000000000000000000000000000000000000000000000000000000000000000000000000000000000000000000000000000000000000000000000000000000000000000000000000000000000000000000000000000000000000000000000000000000000000000000000000000000000000000000000000000000000000000000000000000000000000000000000000000000000000000000000000000000000000000000000000000000000000000000000000000000000000000000000000000000000000000000000000000000000000000000000000000000000000000000000000000000000000000000000000000000000000000000000000000000000000000000000000000000000000000000000000000000000000000000000000000000000000000000000000000000000000000000000000000000000000000000000000000000000000000000000000000000000000000000000000000000000000000000000000000000000000000000000000000000000000000000000000000000000000000000000000000000000000000000000000000000000000000000000000000000000000000000000000000000000000000000000000000000000000000000000000000000000000000000000000000000000000000000000000000000000000000000000000000000000000000000000000000000000000000000000000000000000000000000000000000000000000000000000000000000000000000000000000000000000000000000000000000000000000000000000000000000000000000000000000000000000000000000000000000000000000000000000000000000000000000000000000000000000000000000000000000000000000000000000000000000000000000000000000000000000000000000000000000000000000000000000000000000000000000000000000000000000000000000000000000000000000000000000000000000000000000000000000000000000000000000000000000000000000000000000000000000005454240000000000000000000000000000000000000000000000000000000000000000000000000000000000000000000000000000000000000000000000000000000000000000000000000000000000000000000000000000000000000000000000000000000000000000000000000000000000000000000000000000000000000000000000000000000000000000000000000000000000000000000000000000000000000000000000000000000000000000000000000000000000000000000000000000000000000000000000000000000000000000000000000000000000000000000000000000000000000000000000000000000000000000000000000000000000000000000000000000000000000000000000000000000000000000000000000000000000000000000000000000000000000000000000000000000000000000000000000000000000000000000000000000000000000000000000000000000000000000000000000000000000000000000000000000000000000000000000000000000000000000000000000000000000000000000000000000000000000000000000000000000000000000000000000000000000000000000000000000000000000000000000000000000000000000000000000000000000000000000000000000000000000000000000000000000000000000000000000000000000000000000000000000000000000000000000000000000000000000000000000000000000000000000000000000000000000000000000000000000000000000000000000000000000000000000000000000000000000000000000000000000000000000000000000000000000000000000000000000000000000000000000000000000000000000000000000000000000000000000000000000000000000000000000000000000000000000000000000000000000000000000000000000000000000000000000000000000000000000000000000000000000000000000000000000000000000000000000000000000000000000000000000000000000000000000000000000000000000000000000000000000000000000000000000000000000000000000000000000000000000000000000000000000000000000000000000000000000000000000000000000000000000000000000000000000000000000000000000000000000000000000000000000000000000000000000000000000000000000000000000000000000000000000000000000000000000000000000000000000000000000000000000000000000000000000000000000000000000000000000
#054980:140000000000000000000000000000000000000000000000000000000000000000000000000000000000000000000000000000000000000000000000000000000000000000000000000000000000000000000000000000000000000000000000000000000000000000000000000000000000000000000000000000000000000000000000000000000000000000000000000000000000000000000000000000000000000000000000000000000000000000000000000000000000000000000000000000000000000000000000000000000000000000000000000000000000000000000000000000000000000000000000000000000000000000000000000000000000000000000000000000000000000000000000000000000000000000000000000000000000000000000000000000000000000000000000000000000000000000000000000000000000000000000000000000000000000000000000000000000000000000000000000000000000000000000000000000000000000000000000000000000000000000000000000000000000000000000000000000000000000000000000000000000000000000000000000000000000000000000000000000000000000000000000000000000000000000000000000000000000000000000000000000000000000000000000000000000000000000000000000000000000000000000000000000000000000000000000000000000000000000000000000000000000000000000000000000000000000000000000000000000000000000000000000000000000000000000000000000000000000000000000000000000000000000000000000000000000000000000000000000000000000000000000000000000000000000000000000000000000000000000000000000000000000000000000000000000000000000000000000000000000000000000000000000000000000000000000000000000000000000000000000000000000000000000000000000000000000000000000000000000000000000000000000000000000000000000000000000000000000000000000000000000000000000000000000000000000000000000000000000000000000000000000000000000000000000000000000000000000000000000000000000000000000000000000000000000000000000000000000000000000000000000000000000000000000000000000000000000000000000000000000000000000000000000000000000000000000000000000000000000000000000000000000000000000000000000000000000000000000000005454
#055980:24
#055940:000000000000000014240000
#078940:140000000000000000000000000000000000000000000000000000000000000000000000000000000000000000000000000000000000000000000000000000000000000000000000000000000000000000000000000000000000000000000000000000000000000000000000000000000000000000000000000000000000000000000000000000000000000000000000000000000000000000000000000000000000000000000000000000000000000000000000000000000000000000000000000000000000000000000000000000000000000000000000000000000000000000000000000000000000000000000000000000000000000000000000000000000000000000000000000000000000000000000000000000000000000000000000000000000000000000000000000000000000000000000000000000000000000000000000000000000000000000000000000000000000000000000000000000000000000000000000000000000000000000000000000000000000000000000000000000000000000000000000000000000000000000000000000000000000000000000000000000000000000000000000000000000000000000000000000000000000000000000000000000000000000000000000000000000000000000000000000000000000000000000000000000000000000000000000000000000000000000000000000000000000000000000000000000000000000000000000000000000000000000000000000000000000000000000000000000000000000000000000000000000000000000000000000000000000000000000000000000000000000000000000000000000000000000000000000000000000000000000000000000000000000000000000000000000000000000000000000000000000000000000000000000000000000000000000000000000000000000000000000000000000000000000000000000000000000000000000000000000000000000000000000000000000000000000000000000000000000000000000000000000000000000000000000000000000000000000000000000000000000000000000000000000000000000000000000000000000000000000000000000000000000000000000000000000000000000000000000000000000000000000000000000000000000000000000000000000000000000000000000000000000000000000000000000000000000000000000000000000000000000000000000000000000000000000000000000000000000000000000000000000000000000000000000000000000000000005454
#079940:24
#080980:14
#081980:540000000000000000000000000000000000000000000000000000000000000000000000000000000000000000000000000000000000000000000000000000000000000000000000000000000000000000000000000000000000000000000000000000000000000000000000000000000000000000000000000000000000000000000000000000000000000000000000000000000000000000000000000000000000000000000000000000000000000000000000000000000000000000000000000000000000000000000000000000000000000000000000000000000000000000000000000000000000000000000000000000000000000000000000000000000000000000000000000000000000000000000000000000000000000000000000000000000000000000000000000000000000000000000000000000000000000000000000000000000000000000000000000000000000000000000000000000000000000000000000000000000000000000000000000000000000000000000000000000000000000000000000000000000000000000000000000000000000000000000000000000000000000000000000000000000000000000000000000000000000000000000000000000000000000000000000000000000000000000000000000000000000000000000000000000000000000000000000000000000000000000000000000000000000000000000000000000000000000000000000000000000000000000000000000000000000000000000000000000000000000000000000000000000000000000000000000000000000000000000000000000000000000000000000000000000000000000000000000000000000000000000000000000005400000000000000000000000000000000000000000000000000000000000000000000000000000000000000000000000000000000000000000000000000000000000000000000000000000000000000000000000000000000000000000000000000000000000000000000000000000000000000000000000000000000000000000000000000000000000000000000000000000000000000000000000000000000000000000000000000000000000000000000000000000000000000000000000000000000000000000000000000000000000000000000000000000000000000000000000000000000000000000000000000000000000000000000000000000000000000000000000000000000000000000000000000000000000000000000000000000000000000000000000000000000000000000000000000000000000000000000000000000000000000000000000000000000000000000000000000000000000000000000000000000000000000000000000000000000000000000000000000000000000000000000000000000000000000000000000000000000000000000000000000000000000000000000000000000000000000000000000000000000000000000000000000000000000000000000000000000000000000000000000000000000000000000000000000000000000000000000000000000000000000000000000000000000000000000000000000000000000000000000000000000000000000000000000000000000000000000000000000000000000000000000000000000000000000000000000000000000000000000000000000000000000000000000000000000000000000000000000000000000000000000000000000000054000000000000000000000000000000000000000000000000000000000000000000000000000000000000000000000000000000000000000000000000000000000000000000000000000000000000000000000000000000000000000000000000000000000000000000000000000000000000000000000000000000000000000000000000000000000000000000000000000000000000000000000000000000000000000000000000000000000000000000000000000000000000000000000000000000000000000000000000000000000000000000000000000000000000000000000000000000000000000000000000000000000000000000000000000000000000000000000000000000000000000000000000000000000000000000000000000000000000000000000000000000000000000000000000000000000000000000000000000000000000000000000000000000000000000000000000000000000000000000000000000000000000000000000000000000000000000000000000000000000000000000000000000000000000000000000000000000000000000000000000000000000000000000000000000000000000000000000000000000000000000000000000000000000000000000000000000000000000000000000000000000000000000000000000000000000000000000000000000000000000000000000000000000000000000000000000000000000000000000000000000000000000000000000000000000000000000000000000000000000000000000000000000000000000000000000000000000000000000000000000000000000000000000000000000000000000000000000000000000540054540054540054540054
#081990:005400540054
#082980:24
