This file was generated by Ched 2.7.0.0.
#TITLE ""
#ARTIST ""
#DESIGNER ""
#DIFFICULTY 0
#PLAYLEVEL
#SONGID ""
#WAVE ""
#WAVEOFFSET 0
#JACKET ""
#REQUEST "ticks_per_beat 480"
#00002: 4
#BPM01: 128
#00008: 01
#TIL00: ""
#VOLUME: ""
#HISPEED 00
#MEASUREHS 00
#0511a:00140000
#05114:0000001300000000
#05116:00131400
#05112:00000000000000001300001400000000
#05118:0000001400000000
#00014:0000000000120000
#0001a:00000012
#00018:0000000000000012
#0011a:0000000000120000
#00114:00000012
#00116:1200001200000012
#00118:00000012000000000000000000000000
#00214:0000000000120000
#00216:00000012000000000000000012000000
#00218:1200001200000012
#00518:0000001200000000
#00513:00000000120000000000001200000000
#0051b:0000120012000012
#00516:00000000000000120000000000000000
#02818:13000013000000000000000000001300
#0281b:0000001300001300
#02812:0013000000130000
#02815:00000000001300000000000013000000
#02418:13
#02412:00000013000000000000000000000000
#0241b:00000013000000000000000000000000
#02419:0000001300000000
#02416:0000001300000013
#02417:0000000000130000
#0251b:13000000001300130000000000000000
#02515:0013000000000013
#02512:13000000001300000000000000000000
#02518:00000013000000000000000000000013
#02516:00000000000000140000000000000000
#02510:41
#0141b:1200001200000000
#01413:00000012000000000000120000000000
#01416:1200001200000000
#01418:0000000000120000
#01415:00000032
#0141a:00000032
#01513:1200001200000000
#0151a:00000012000000000000000000000000
#01518:12000000000012000000000000000012
#01515:00000012000000000000000000000000
#01516:0000000000000012
#01918:00000000000012000000000000000012
#01916:00000012000000000000000000001200
#01919:12
#01914:12
#01913:0000001200000000
#0191b:00000012000000000000000000000000
#02019:0012000000120000
#02015:12000012
#02018:0000000000000012
#02016:00000012000000000000000000000012
#0201a:00000000001200000000000000000000
#02017:0000001200000000
#02918:13000013000000000000000000002300
#02915:0013000000002300
#02912:1300000000230000
#03012:1300000000000013
#03016:00000013000000000000130000000000
#03017:0000001300000013
#03014:00000013
#03019:00000013
#0301f:11
#0301b:23
#03119:0000001300000000
#03116:13000000000000130000000000000000
#03114:0000000000000013
#03112:0000000000000000000000000000000000000013000000000000000000000000
#0311b:13000013
#03117:00130000
#04312:00130000
#0431b:0000130013000013
#04318:0000001300000000
#04315:00000000000000130000001300000000
#05014:00000015000000000000000000000000
#05017:150000000000000000000000000000000000000000000000000000000000000000000000000000000000000000000000000000000000000000000000000000000000000000000000000000000000000000000000000000000000000000000000000000000000000000000000000000000000000000000000000000000000000000000000000000000000000000000000000000000000000000000000000000000000000000000000000000000000000000000000000000000000000000000000000000000000000000000000000000000000000000000000000000000000000000000000000000000000000000000000000000000000000000000000000000000000000000000000000000000000000000000000000000000000000000000000000000000000000000000000000000000000000000000000000000000000000000000000000000000000000000000000000000000000000000000000000000000000000000000000000000000000000000000000000000000000000000000000000000000000000000000000000000000000000000000000000000000000000000000000000000000000000000000000000000000000000000000000000000000000000000000000000000000000000000000000000000000000000000000000000000000000000000000000000000000000000000000000000000000000000000000000000000000000000000000000000000000000000000000000000000000000000000000000000000000000000000000000000000000000000000000000000000000000000000000000000000000000000000000000000000000000000000000000000000000000000000000000000000000000000000000000000000000000000000000000000000000000000000000000000000000000000000000000000000000000000000000000000000000000000000000000000000000000000000000000000000000000000000000000150000000000000000000000000000000000000000000000000000000000000000000000000000000000000000000000000000000000000000000000000000000000000000000000000000000000000000000000000000000000000000000000000000000000000000000000000000000000000000000000000000000000000000000000000000000000000000000000000000000000000000000000000000000000000000000000000000000000000000000000000000000000000000000000000000000000000000000000000000000000000000000000000000000000000000000000000000000000000000000000000000000000000000000000000000000000000000000000000000000000000000000000000000000000000000000000000000000000000000000000000000000000000000000000000000000000000000000000000000000000000000000000000000000000000000000000000000000000000000000000000000000000000000000000000000000000000000000000000000000000000000000000000000000000000000000000000000000000000000000000000000000000000000000000000000000000000000000000000000000000000000000000000000000000000000000000000000000000000000000000000000000000000000000000000000000000000000000000000000000000000000000000000000000000000000000000000000000000000000000000000000000000000000000000000000000000000000000000000000000000000000000000000000000000000000000000000000000000000000000000000000000000000000000000000000000000000000000000000000000000000000000000000000000000000000000000000000000000000000000000000000000000000000000000000000000000000000000000000000000000000000000000000000000000000000000000000000000000000000000000000000000000000000000000000000000000000000000000000000000000000000000000000000000000000000000000000000000000000000000000000000000000000000000000000000000000000000000000000000000000000000000000000000000000000000000000000000000000000000000000000000000000000000000000000000000000000000000000000000000000000000000000000000000000000000000000000000000000000000000000000000000000000000000000000000000000000000000000000000000000000000000000000000000000000000000000000000000000000000000024000000000000000000000000000000000000000000000000000000000000000000000000000000000000000000000000000000000000000000000000000000000000000000000000000000000000000000000000000000000000000000000000000000000000000000000000000000000000000000000000000000000000000000000000000000000000000000000000000000000000000000000000000000000000000000000000000000000000000000000000000000000000000000000000000000000000000000000000000000000000000000000000000000000000000000000000000000000000000000000000
#05018:0026
#05012:2500002526002400
#0501a:00000024
#05015:0000000000000024
#05019:00000025000000000000000000000000
#05010:41
#05812:1424
#05816:00000014000000001400000000002400
#0581a:0000001400000014
#05818:00000000000000000000001400000000
#05814:00000000000000000000002400000000
#05810:41
#06018:0000000000000013
#06015:00000000000000000000000000000013
#06118:1300000000000013
#06112:00000013
#06115:00000000000000000000000000000013
#0031a:12
#00316:12
#00314:0012
#00318:0012
#0041a:12
#00418:00000012000000000000000022000000
#00416:00000012000000000000000022000000
#00414:12
#00616:12
#00618:00000012000000000000000000000000
#0061b:1200000000120000
#00613:0000001200000012
#00718:0000000000000013
#00715:00000000000000000000000000000013
#00717:00000000000000120000000000000000
#00713:00000012
#0071b:0022000000000000
#01018:0000000000000013
#01015:00000000000000000000000000000013
#0111b:1300000000130000
#01115:00000013000000000000000000001300
#01116:0000001400000000
#01118:00000000000000000000000000000013
#01112:0000000000130000
#0121a:00140014
#01212:13
#01316:14000014000000000000000000000000
#0131a:00000024000024000000000000000000
#01312:2400002400000000
#01315:00000000000000000024000000000000
#01317:000000000000000000000000000000000000000000000000000000000000000000000000000000000000000000000000000000000000000000000000000000000000000000000000000000000000000000000000000000000000000000000000000000000000000000000000000000000000000000000000000000000000000000000000000000000000000000000000000000000000000000000000000000000000000000000000000000000000000000000000000000000000000000000000000000000000000000000000000000000000000000000000000000000000000000000000000000000000000000000000000000000000000000000000000000000000000000000000000000000000000000000000000000000000000000000000000000000000000000000000000000000000000000000000000000000000000000000000000000000000000000000000000000000000000000000000000000000000000000000000000000000000000000000000000000000000000000000000000000000000000000000000000000000000000000000000000000000000000000000000000000000000000000000000000000000000000000000000000000000000000000000000000000000000000000000000000000000000000000000000000000000000000000000000000000000000000000000000000000000000000000000000000000000000000000000000000000000000000000000000000000000000000000000000000000000000000000000000000000000000000000000000000000000000000000000000000000000000000000000000000000000000000000000000000000000000000000000000000000000000000000000000000000000000000000000000000000000000000000000000000000000000000000000000000000000000000000000000000000000000000000000000000000000000000000000000000000000000000000000000000000000000000000000000000000000000000000000000000000000000000000000000000000000000000000000000000000000000000000000000000000000000000000000000000000000000000000000000000000000000000000000000000000000000000000000000000000000000000000000000000000000000000000000000000000000000000000000000000000000000000000000000000000000000000000000000000000000000000000000000000000000000000000000000000000000000000000000000000000000000000000000000000000000000000000000000000000000000000000000000000000000000000000000000000000000000000000000000000000000000000000000000000000000000000000000000000000000000000000000000000000000000000000000000000000000000000000000000000000000000000000000000000000000000000000000000000000000000000000000000002400000000000000000000000000000000000000000000000000000000000000000000000000000000000000000000000000000000000000000000000000000000000000000000000000000000000000000000000000000000000000000000000000000000000000000000000000000000000000000000000000000000000000000000000000000000000000000000000000000000000000000000000000000000000000000000000000000000000000000000000000000000000000000000000000000000000000000000000000000000000000000000000000000000000000000000000000000000000000000000000000000000000000000000000000000000000000000000000000000000000000000000000000000000000000000000000000000000000000000000000000000000000000000000000000000000000000000000000000000000000000000000000000000000000000000000000000000000000000000000000000000000000000000000000000000000000000000000000000000000000000000000000000000000000000000000000000000000000000000000000000000000000000000000000000000000000000000000000000000000000000000000000000000000000000000000000000000000000000000000000000000000000000000000000000000000000000000000000000000000000000000000000000000000000000000000000000000000000000000000000000000000000000000000000000000000000000000000000000000000000000000000000000000000000000000000000000000000000000000000000000000000000000000000000000000000000000000000000000000000000000000000000000000000000000000000000000000000000000000000000000000000000000000000000000000000000000000000000000000000000000000000000000000000000000000000000000000000000000000000000000000000000000000000000000000000000000000000000000000000000000000000000000000000000000000000000000000000000000000000000000000000000000000000000000000000000000000000000000000000000000000000000000000000000000000000000000000000000000000000
#0161b:00000012000000000000120000000000
#01613:1200001200000000
#01618:0000001200000000
#01616:0000000000120000
#01718:00001200001200000000000000001200
#01716:12000012000000000000000000000012
#01713:00000000000000120000000000000000
#0171b:12000000000000120000000000000000
#01710:41
#01818:1200000000120000
#01816:00000012000012000000000000000000
#0181b:0000001200000000
#01813:0000000000120000
#01815:00000032
#0181a:00000032
#02118:0000000000000013
#02115:00000000000000000000000000000013
#0211b:0000002300006300
#02112:00000054
#02119:00000000000000630000630000000000
#02117:0063
#0221b:00000013000000000000130000000000
#02212:00000013000013000000000000000000
#02218:0000001300000000
#02219:00000013
#02217:0000000000000013
#02216:0000000000130000
#0221a:24
#02213:00000033
#02312:1300001400000000
#0231b:13000013000000000013000000001300
#02317:0000001300000000
#02315:00000000000000000000000000000013
#02316:00000000000000000014000000000000
#03212:1300000000000013
#03217:13000000000000130000000000001300
#03214:0000001300001300
#03216:0000130000130000
#03219:00000013
#0331a:1400001400000000
#03316:00000014000000000014000000000000
#03312:1400001400001400
#03315:0000000000000013
#03318:00000000000000000000000000000013
#03418:00130000
#03412:0013001300000000
#0341b:0000001300000000
#03415:13
#03516:00000014000000000014000000001400
#03512:1400001400000000
#0351a:0000001400001400
#0361a:14000014000014000000000000000000
#03612:13000000000000001400001400001400
#0361b:0013
#04116:00000014000000001300001400000000
#0411a:0014
#0411b:00000013000000000000000000000000
#04112:00000000000000000000001300000000
#04117:13
#04212:14000024
#04216:14000024000000000000000000000000
#0421a:0000002424002400
#04215:0000000000000024
#04217:000000000000000000000000000000000000000000000000000000000000000000000000000000000000000000000000000000000000000000000000000000000000000000000000000000000000000000000000000000000000000000000000000000000000000000000000000000000000000000000000000000000000000000000000000000000000000000000000000000000000000000000000000000000000000000000000000000000000000000000000000000000000000000000000000000000000000000000000000000000000000000000000000000000000000000000000000000000000000000000000000000000000000000000000000000000000000000000000000000000000000000000000000000000000000000000000000000000000000000000000000000000000000000000000000000000000000000000000000000000000000000000000000000000000000000000000000000000000000000000000000000000000000000000000000000000000000000000000000000000000000000000000000000000000000000000000000000000000000000000000000000000000000000000000000000000000000000000000000000000000000000000000000000000000000000000000000000000000000000000000000000000000000000000000000000000000000000000000000000000000000000000000000000000000000000000000000000000000000000000000000000000000000000000000000000000000000000000000000000000000000000000000000000000000000000000000000000000000000000000000000000000000000000000000000000000000000000000000000000000000000000000000000000000000000000000000000000000000000000000000000000000000000000000000000000000000000000000000000000000000000000000000000000000000000000000000000000000000000000000000000000000000000000000000000000000000000000000000000000000000000000000000000000000000000000000000000000000000000000000000000000000000000000000000000000000000000000000000000000000000000000000000000000000000000000000000000000000000000000000000000000000000000000000000000000000000000000000000000000000000000000000000000000000000000000000000000000000000000000000000000000000000000000000000000000000000000000000000000000000000000000000000000000000000000000000000000000000000000000000000000000000000000000000000000000000000000000000000000000000000000000000000000000000000000000000000000000000000000000000000000000000000000000000000000000000000000000000000000000000000000000000000000000000000000000000000000000000000000000000000000000000000000000000000000000000000000000000000000000000000000000000000000000000000000000000000000000000000000000000000000000000000000000000000000000000000000000000000000000000000000000000000000000000000000000000000000000000000000000000000000000000000000000000000000000000000000000000000000000000000000000000000000000000000000000000000000000000000000000000000000000000000000000000000000000000000000000000000000000000000000000000000000000000000000000000000000000000000000000000000000000000000000000000000000000000000000000000000000000000000000000000000000000000000000000000000000000000000000000000000000000000000000000000000000000000000000000000000000000000000000000000000000000000000000000000000000000000000000000000000000000000000000000000000000000000000000000000000000000000000000000000000000000000000000000000000000000000000000000000000000000000000000000000000000000000000000000000000000000000000000000000000000000000000000000000000000000000000000000000000000000000000000000000000000000000000000000000000000000000000000000000000000000000000000000000000000000000000000000000000000000000000000000000000000000000000000000000000000000000000000000000000000000000000000000000000000000000000000000000000002400000000000000000000000000000000000000000000000000000000000000000000000000000000000000000000000000000000000000000000000000000000000000000000000000000000000000000000000000000000000000000000000000000000000000000000000000000000000000000000000000000000000000000000000000000000000000000000000000000000000000000000000000000000000000000000000000000000000000000000000000000000000000000000000000000000000000000000000000000000000000000000000000000000000000000000000000000000000000000000
#04412:13
#04418:13000013000000000000000000000000
#04416:0000001300000013
#0441b:0000000000130000
#04417:00000013
#04515:0000001300000000
#04518:00000000000000130000000000000000
#04512:1300000013000013
#0451b:00002300000000000000001300000000
#04516:0023000000000000
#04612:0000002400130000
#04618:00000024000000000000000013000000
#04615:0000000000000013
#0461b:0000000000130000
#04616:24
#04614:00000024000000000000000000000000
#0461a:0000002400000000
#0471b:0000000000130000
#04715:00000013
#04718:0000000000000013
#04712:00000024000000000000130000000000
#0471a:2400002400000000
#04716:0000002400000000002400000000000000000000000000000000000000000000
#04812:2400002400130000
#04818:00000013
#04815:0000000000000013
#0481b:0000000000130000
#04816:0000002400000000002400000000000000000000000000000000000000000000
#0481a:00000024000000000000000000000000
#04916:14000014000014001400001400001400
#04912:24000000000024000000002400000000
#0491a:00000024000000002400000000002400
#05216:1400000000000000000000000000000000000014000000000014000000000000
#0521a:14000014000000001400000000001400
#05212:00000000000000001400001400000000
#05318:00530000000000000000000000000000000000000000000000000000000000000000000000000000000000000000000000000000000000001300000000000000
#05315:00000000000054000000000000000013
#05312:14000000000000000014000000000000
#05317:13000000000000000013000000000000
#05313:00540000000000000000000000000000000000000000000000000000000000000000000000000000000000000000000000000000000000000000000000000000
#05314:00005400000000000000000000000000000000000000000000540000000000000000000000000000000000000000000000000000000000000000000000000000
#05316:00000000000000000000000000000000000000000000005400000000000000000000000000000000000000000000000000000000000000000000000000000000
#0531b:00000000000000000000000000000000000000000000005300000000000000000000000000000000000000000000000000000000000000000000000000000000
#05319:00005300000000000000000000000000000000000000000000530000000000000000000000000000000000000000000000000000000000000000000000000000
#0531a:0000005300000000
#0541a:1424
#05416:00000014000000000000002400000000
#05412:0000001400000024
#05516:24000000140000001400001400000000
#05512:14000000000014001400001400000000
#0551a:0000000000000000000000001400000000000014000000000000000000000000
#05616:1400000000001400000000000000000000000024000000000024000000000000
#0561a:14000014000000002400002400000000
#05612:0000001400000000000000000000000024000000000000000000000024000000
#05715:0000000000000013
#05718:00000000000000000000000000000013
#05717:2300000000000000000000000063000000001300000000000000000000000000
#05712:2400000000000000000000000064000000001400000000000000000000000000
#05716:0000002400000000
#0571b:0063000000000000000000006300000000000000000000000000000000000000
#05719:00630000000000000000000000000000000000000000000000630000000000000000000000000000000000000000000000000000000000000000000000000000
#05714:00000000000000000000000000000000000000000000000000640000000000000000000000000000000000000000000000000000000000000000000000000000
#06215:00000013000000000000000000001300
#06218:26000000000013000000001300000000
#06212:1326
#0621b:0013
#03915:0000000000130000
#03916:23
#0391b:2300002300000000
#03912:00000023000000000000000000000000
#0391f:21
#02612:24000013000000000000130000000000
#0261b:00000013000013000000000000000000
#02615:0000001300000000
#02614:00000013
#02616:0000000000000013
#02617:0000000000130000
#0261a:00000033
#0271b:1300000000000013
#02712:13000013000000000013000000000000
#0271a:0000001400000000
#02716:00000000000013000014000000000000
#02715:00000000000000000000000000000013
#03718:0000130000000024
#03715:00130000
#0371b:23
#03712:23
#03714:0000000000240000
#03716:00000024
#04018:0000000000130000
#04012:2300002300000000
#0401b:00000023000000000000000000000000
#04010:41
#0591a:24000000000000000000000000000014
#05916:00000000000014000000000000000014
#05912:2400001400000000
#06318:2600001600000000
#06312:2600002600000000
#0091b:23
#00912:23
#00910:41
#03812:24260000
#0381a:24
#03818:00260000
#0081b:23
#00812:23000023000000002400000000000000
#0081a:00000000000000002400002400000000
#00817:0000002300000000
#00816:0000000000000024
#0661c:0062
#06612:0062
#0095b:53
#00952:63
#0375b:53
#03752:63
#03758:00230000
#03755:00230000
#06258:16
#06252:0016
#0255b:00000000000000530000000000000000
#02556:00000000000000540000000000000000
#0285b:0000006300000000
#01558:0000005200000000
#01553:0000005200000000
#02056:00000000000000000000000000000062
#02057:0000005200000000
#02958:00000053000000000000000000000000
#03052:53
#03056:00000023000000000000000000000000
#03057:0000005300000000
#03156:53000000000000530000000000000000
#03152:0000000000000000000000000000000000000023000000000000000000000000
#03852:14560014
#0385a:14000014
#03858:00660000
#05058:0016
#05052:15001664
#0505a:00000054
#05055:0000000000000024
#05057:150000000000000000000000000000000000000000000000000000000000000000000000000000000000000000000000000000000000000000000000000000000000000000000000000000000000000000000000000000000000000000000000000000000000000000000000000000000000000000000000000000000000000000000000000000000000000000000000000000000000000000000000000000000000000000000000000000000000000000000000000000000000000000000000000000000000000000000000000000000000000000000000000000000000000000000000000000000000000000000000000000000000000000000000000000000000000000000000000000000000000000000000000000000000000000000000000000000000000000000000000000000000000000000000000000000000000000000000000000000000000000000000000000000000000000000000000000000000000000000000000000000000000000000000000000000000000000000000000000000000000000000000000000000000000000000000000000000000000000000000000000000000000000000000000000000000000000000000000000000000000000000000000000000000000000000000000000000000000000000000000000000000000000000000000000000000000000000000000000000000000000000000000000000000000000000000000000000000000000000000000000000000000000000000000000000000000000000000000000000000000000000000000000000000000000000000000000000000000000000000000000000000000000000000000000000000000000000000000000000000000000000000000000000000000000000000000000000000000000000000000000000000000000000000000000000000000000000000000000000000000000000000000000000000000000000000000000000000000000000000000000000000000000000000000000000000000000000000000000000000000000000000000000000000000000000000000000000000000000000000000000000000000000000000000000000000000000000000000000000000000000000000000000000000000000000000000000000000000000000000000000000000000000000000000000000000000000000000000000000000000000000000000000000000000000000000000000000000000000000000000000000000000000000000000000000000000000000000000000000000000000000000000000000000000000000000000000000000000000000000000000000000000000000000000000000000000000000000000000000000000000000000000000000000000000000000000000000000000000000000000000000000000000000000000000000000000000000000000000000000000000000000000000000000000000000000000000000000000000000000000000000000000000000000000000000000000000000000000000000000000000000000000000000000000000000000000000000000000000000000000000000000000000000000000000000000000000000000000000000000000000000000000000000000000000000000000000000000000000000000000000000000000000000000000000000000000000000000000000000000000000000000000000000000000000000000000000000000000000000000000000000000000000000000000000000000000000000000000000000000000000000000000000000000000000000000000000000000000000000000000000000000000000000000000000000000000000000000000000000000000000000000000000000000000000000000000000000000000000000000000000000000000000000000000000000000000000000000000000000000000000000000000000000000000000000000000000000000000000000000000000000000000000000000000000000000000000000000000000000000000000000000000000000000000000000000000000000000000000000000000000000000000000000000000000000000000000000000000000000000000000000000000000000000000000000000000000000000000000000000000000000000000000000000000000000000000000000000000000000000000000000000000000000000000000000000000000000000000000000000000000000000000000000000000000000000000000000000000000000000000000000000000000000000000000000000000000000000000000000024000000000000000000000000000000000000000000000000000000000000000000000000000000000000000000000000000000000000000000000000000000000000000000000000000000000000000000000000000000000000000000000000000000000000000000000000000000000000000000000000000000000000000000000000000000000000000000000000000000000000000000000000000000000000000000000000000000000000000000000000000000000000000000000000000000000000000000000000000000000000000000000000000000000000000000000000000000000000000000000000
#05852:1414
#05856:00000014000000001400000000001400
#0585a:0000001400000014
#05854:00000000000000000000001400000000
#05858:00000000000000000000001400000000
#0595a:54000000000000000000000000000024
#05956:00000000000054000000000000000024
#05952:0000005400000000
#06158:63
#00156:52
#00158:00000062000000000000000000000000
#00258:62
#00256:00000052000000000000000000000000
#0035a:52
#00354:0062
#0045a:5212
#00458:00000052000000000000000052000000
#00456:00000062000000000000000052000000
#00454:0012
#00552:13
#0055b:1362
#00553:00000000000000000000006200000000
#00656:52
#00658:00000062000000000000000000000000
#00653:0000005200000052
#0065b:0000000000520000
#0075b:0052000000000000
#00757:00000000000000220000000000000000
#0085b:53
#00852:0064
#0115b:5300000000530000
#01155:00000053000000000000000000000000
#01152:0000001400000000
#01156:0000001400000000
#01252:63
#0125a:00140014
#01256:00000014
#01352:1400005400003400
#01356:14000014000000000000000000000000
#0135a:00000014000054000000000044000000
#01355:00000000000000000024000000000000
#01357:000000000000000000000000000000000000000000000000000000000000000000000000000000000000000000000000000000000000000000000000000000000000000000000000000000000000000000000000000000000000000000000000000000000000000000000000000000000000000000000000000000000000000000000000000000000000000000000000000000000000000000000000000000000000000000000000000000000000000000000000000000000000000000000000000000000000000000000000000000000000000000000000000000000000000000000000000000000000000000000000000000000000000000000000000000000000000000000000000000000000000000000000000000000000000000000000000000000000000000000000000000000000000000000000000000000000000000000000000000000000000000000000000000000000000000000000000000000000000000000000000000000000000000000000000000000000000000000000000000000000000000000000000000000000000000000000000000000000000000000000000000000000000000000000000000000000000000000000000000000000000000000000000000000000000000000000000000000000000000000000000000000000000000000000000000000000000000000000000000000000000000000000000000000000000000000000000000000000000000000000000000000000000000000000000000000000000000000000000000000000000000000000000000000000000000000000000000000000000000000000000000000000000000000000000000000000000000000000000000000000000000000000000000000000000000000000000000000000000000000000000000000000000000000000000000000000000000000000000000000000000000000000000000000000000000000000000000000000000000000000000000000000000000000000000000000000000000000000000000000000000000000000000000000000000000000000000000000000000000000000000000000000000000000000000000000000000000000000000000000000000000000000000000000000000000000000000000000000000000000000000000000000000000000000000000000000000000000000000000000000000000000000000000000000000000000000000000000000000000000000000000000000000000000000000000000000000000000000000000000000000000000000000000000000000000000000000000000000000000000000000000000000000000000000000000000000000000000000000000000000000000000000000000000000000000000000000000000000000000000000000000000000000000000000000000000000000000000000000000000000000000000000000000000000000000000000000000000000000000000000002400000000000000000000000000000000000000000000000000000000000000000000000000000000000000000000000000000000000000000000000000000000000000000000000000000000000000000000000000000000000000000000000000000000000000000000000000000000000000000000000000000000000000000000000000000000000000000000000000000000000000000000000000000000000000000000000000000000000000000000000000000000000000000000000000000000000000000000000000000000000000000000000000000000000000000000000000000000000000000000000000000000000000000000000000000000000000000000000000000000000000000000000000000000000000000000000000000000000000000000000000000000000000000000000000000000000000000000000000000000000000000000000000000000000000000000000000000000000000000000000000000000000000000000000000000000000000000000000000000000000000000000000000000000000000000000000000000000000000000000000000000000000000000000000000000000000000000000000000000000000000000000000000000000000000000000000000000000000000000000000000000000000000000000000000000000000000000000000000000000000000000000000000000000000000000000000000000000000000000000000000000000000000000000000000000000000000000000000000000000000000000000000000000000000000000000000000000000000000000000000000000000000000000000000000000000000000000000000000000000000000000000000000000000000000000000000000000000000000000000000000000000000000000000000000000000000000000000000000000000000000000000000000000000000000000000000000000000000000000000000000000000000000000000000000000000000000000000000000000000000000000000000000000000000000000000000000000000000000000000000000000000000000000000000000000000000000000000000000000000000000000000000000000000000000000000000000000000000000000000
#0145b:5200005200000000
#01456:0000005200000000
#01458:0000000000220000
#01453:0000000000220000
#01753:00000000000000620000000000000000
#0175b:00000000000000520000000000000000
#01858:5200000000220000
#01856:0000005200000000
#0185b:0000005200000000
#01853:0000000000220000
#01958:0000005200000000
#01953:0000005200000000
#02252:0000006300000000
#02256:0000000000230000
#02352:6300006400000000
#0235b:00000053000000000023000000000000
#02357:0000005300000000
#02356:00000000000000000024000000000000
#02456:0000005300000000
#02457:0000000000630000
#03257:53000000000000530000000000000000
#0335a:1400005400004400
#03356:00000014000000000024000000000000
#03352:0000001400000000
#03452:0023005300000000
#03455:63
#03652:6300000000000014
#0365b:0053
#03657:0000000000000013
#03656:0000001300000000
#0365a:0000001400000000
#04156:00000064000000006300005400001300
#04152:00000000000014000000006300000000
#04157:5300001300000000
#0415a:0000000000000014
#0415b:00000053000000000000000000000000
#04252:00001464
#04256:54000054000000000000000000000000
#0425a:00001454
#04255:0000000000000024
#04257:000000000000000000000000000000000000000000000000000000000000000000000000000000000000000000000000000000000000000000000000000000000000000000000000000000000000000000000000000000000000000000000000000000000000000000000000000000000000000000000000000000000000000000000000000000000000000000000000000000000000000000000000000000000000000000000000000000000000000000000000000000000000000000000000000000000000000000000000000000000000000000000000000000000000000000000000000000000000000000000000000000000000000000000000000000000000000000000000000000000000000000000000000000000000000000000000000000000000000000000000000000000000000000000000000000000000000000000000000000000000000000000000000000000000000000000000000000000000000000000000000000000000000000000000000000000000000000000000000000000000000000000000000000000000000000000000000000000000000000000000000000000000000000000000000000000000000000000000000000000000000000000000000000000000000000000000000000000000000000000000000000000000000000000000000000000000000000000000000000000000000000000000000000000000000000000000000000000000000000000000000000000000000000000000000000000000000000000000000000000000000000000000000000000000000000000000000000000000000000000000000000000000000000000000000000000000000000000000000000000000000000000000000000000000000000000000000000000000000000000000000000000000000000000000000000000000000000000000000000000000000000000000000000000000000000000000000000000000000000000000000000000000000000000000000000000000000000000000000000000000000000000000000000000000000000000000000000000000000000000000000000000000000000000000000000000000000000000000000000000000000000000000000000000000000000000000000000000000000000000000000000000000000000000000000000000000000000000000000000000000000000000000000000000000000000000000000000000000000000000000000000000000000000000000000000000000000000000000000000000000000000000000000000000000000000000000000000000000000000000000000000000000000000000000000000000000000000000000000000000000000000000000000000000000000000000000000000000000000000000000000000000000000000000000000000000000000000000000000000000000000000000000000000000000000000000000000000000000000000000000000000000000000000000000000000000000000000000000000000000000000000000000000000000000000000000000000000000000000000000000000000000000000000000000000000000000000000000000000000000000000000000000000000000000000000000000000000000000000000000000000000000000000000000000000000000000000000000000000000000000000000000000000000000000000000000000000000000000000000000000000000000000000000000000000000000000000000000000000000000000000000000000000000000000000000000000000000000000000000000000000000000000000000000000000000000000000000000000000000000000000000000000000000000000000000000000000000000000000000000000000000000000000000000000000000000000000000000000000000000000000000000000000000000000000000000000000000000000000000000000000000000000000000000000000000000000000000000000000000000000000000000000000000000000000000000000000000000000000000000000000000000000000000000000000000000000000000000000000000000000000000000000000000000000000000000000000000000000000000000000000000000000000000000000000000000000000000000000000000000000000000000000000000000000000000000000000000000000000000000000000000000000000000000000000000000000000000000000000000000000000000000000000000000000000000000000000000000000000000000000002400000000000000000000000000000000000000000000000000000000000000000000000000000000000000000000000000000000000000000000000000000000000000000000000000000000000000000000000000000000000000000000000000000000000000000000000000000000000000000000000000000000000000000000000000000000000000000000000000000000000000000000000000000000000000000000000000000000000000000000000000000000000000000000000000000000000000000000000000000000000000000000000000000000000000000000000000000000000000000000
#0435a:44
#04352:34
#0435b:0053
#04355:00000000000000000000005300000000
#04452:63
#04458:00000063000000000000000000000000
#04456:0000005300000053
#0445b:0000000000530000
#04457:00000023
#0455b:00001300000000000000006300000000
#04552:2353
#04556:0013000000000000
#04654:00000014000000000000000000000000
#04656:14
#04652:0000001400530000
#0465a:0000001400000000
#04658:00000014000000000000000053000000
#04655:0000000000000053
#0475a:5400004400000000
#04756:0000002400000000002400000000000000000000000000000000000000000000
#04752:00000064000034000000000000000000
#0475b:0000000000630000
#04755:00000063
#04758:0000000000000063
#04852:6400003400530000
#04858:00000053
#04855:0000000000000053
#04856:0000002400000000002400000000000000000000000000000000000000000000
#0485a:00000054000044000000000000000000
#0515a:4400000000000014
#05152:34000000000000000000006400000000
#05156:0000000054000014
#05256:6400000000000000000000001400000000000024000000000024000000000000
#0525a:00000054000000006400000000000000
#05252:00000000000014000000006400000000
#0545a:1414
#05456:00000014000000000000001400000000
#05452:0000001400000014
#0555a:0000000000000000140000000000000000000024000000000000000014000000
#05556:00000000140000005400005400001400
#05552:00000000000000000000006400000000
#05656:6400000000006400000000001400000000000024000000000024000000000000
#0565a:00000054000000000000005400000000
#05652:0000002400000000000000001400000064000000000000000000000000000000
#05752:14000000000000000024000000000000
#05757:00000000000000000023000000000000
#06352:0000006600000000
#06358:0000005600000000
#04956:1414
#04952:14
#0495a:0014
#0265b:0000005300000000
#02657:0000000000230000
#0275b:53
#02752:00000063000000000023000000000000
#0275a:0000005400000000
#02756:00000000000063000024000000000000
#03552:1400006400000000
#03556:00000014000000000024000000000000
#0355a:0000001400000000
#01653:6200006200000000
#01658:0000006200000000
#01656:0000000000520000
#0165b:0000000000520000
#0395b:5300001300000000
#03952:00000053000000000000000000000000
#03956:0000001300000000
#04052:6300001300000000
#0405b:00000063000000000000000000000000
#04057:0000001300000000
#05354:00005400000000000000000000000000000000000000000000640000000000000000000000000000000000000000000000000000000000000000000000000000
#05359:00005300000000000000000000000000000000000000000000630000000000000000000000000000000000000000000000000000000000000000000000000000
#05357:00000000000000000023000000000000
#05352:00000000000000000024000000000000
#001360:12
#001340:00000022000000000000000000000000
#001381:00000012000000000000000000000000
#0013a1:0000002200000000
#002381:12
#0023a1:00000022000000000000000000000000
#002360:00000012000000000000000000000000
#002340:0000002200000000
#0033a0:12
#003380:00000032000022000000000000000000
#003341:00000012000022000000000000000000
#003341:0012
#003361:00000000000000000000003200002200
#0033a0:00000000000000000000001200002200
#0043a0:1200003222000000
#004380:00000032000000000000000000000000
#004361:00000012000000000000000000000000
#004341:0000003222000000
#004381:00000012
#0053b1:23
#004360:00000012
#005320:23
#0053b0:0012
#005380:00000000000000000000002200000000
#005331:00000000000000000000001200000000
#005361:0000000000000022
#006361:12
#006331:00000022000000000000000000000000
#006380:00000012000000000000000000000000
#0063b0:0000002200000000
#006331:0000001200000000
#006371:0000000000220000
#0063b0:0000000000120000
#006370:0000000000000022
#006331:0000000000000012
#007371:0022000000000000
#0073b0:0012000000002200
#007370:00000000000000520000000000000000
#0083b0:13
#008370:00000023000000000000000000000000
#008321:00000013000023000000000000000000
#008321:0014
#008361:00000000000000000000002400000000
#0083a0:00000000000000000000001400002400
#0093b0:13
#010380:0026
#009321:13
#010321:0026
#0113b1:13
#011381:00000023000000000000000000000000
#011350:00000013000000000000000000000000
#011320:0000002400000000
#0113b0:0000000000130000
#011380:0000000000000023
#012320:13
#012360:00000024
#013320:0000001400002400
#013350:00000000000000000054000000000000
#0133a1:0000001400002400
#013371:000000000000000000000000000000000000000000000000000000000000000000000000000000000000000000000000000000000000000000000000000000000000000000000000000000000000000000000000000000000000000000000000000000000000000000000000000000000000000000000000000000000000000000000000000000000000000000000000000000000000000000000000000000000000000000000000000000000000000000000000000000000000000000000000000000000000000000000000000000000000000000000000000000000000000000000000000000000000000000000000000000000000000000000000000000000000000000000000000000000000000000000000000000000000000000000000000000000000000000000000000000000000000000000000000000000000000000000000000000000000000000000000000000000000000000000000000000000000000000000000000000000000000000000000000000000000000000000000000000000000000000000000000000000000000000000000000000000000000000000000000000000000000000000000000000000000000000000000000000000000000000000000000000000000000000000000000000000000000000000000000000000000000000000000000000000000000000000000000000000000000000000000000000000000000000000000000000000000000000000000000000000000000000000000000000000000000000000000000000000000000000000000000000000000000000000000000000000000000000000000000000000000000000000000000000000000000000000000000000000000000000000000000000000000000000000000000000000000000000000000000000000000000000000000000000000000000000000000000000000000000000000000000000000000000000000000000000000000000000000000000000000000000000000000000000000000000000000000000000000000000000000000000000000000000000000000000000000000000000000000000000000000000000000000000000000000000000000000000000000000000000000000000000000000000000000000000000000000000000000000000000000000000000000000000000000000000000000000000000000000000000000000000000000000000000000000000000000000000000000000000000000000000000000000000000000000000000000000000000000000000000000000000000000000000000000000000000000000000000000000000000000000000000000000000000000000000000000000000000000000000000000000000000000000000000000000000000000000000000000000000000000000000000000000000000000000000000000000000000000000000000000000000000000000000000000000000000000000000000000000005400000000000000000000000000000000000000000000000000000000000000000000000000000000000000000000000000000000000000000000000000000000000000000000000000000000000000000000000000000000000000000000000000000000000000000000000000000000000000000000000000000000000000000000000000000000000000000000000000000000000000000000000000000000000000000000000000000000000000000000000000000000000000000000000000000000000000000000000000000000000000000000000000000000000000000000000000000000000000000000000000000000000000000000000000000000000000000000000000000000000000000000000000000000000000000000000000000000000000000000000000000000000000000000000000000000000000000000000000000000000000000000000000000000000000000000000000000000000000000000000000000000000000000000000000000000000000000000000000000000000000000000000000000000000000000000000000000000000000000000000000000000000000000000000000000000000000000000000000000000000000000000000000000000000000000000000000000000000000000000000000000000000000000000000000000000000000000000000000000000000000000000000000000000000000000000000000000000000000000000000000000000000000000000000000000000000000000000000000000000000000000000000000000000000000000000000000000000000000000000000000000000000000000000000000000000000000000000000000000000000000000000000000000000000000000000000000000000000000000000000000000000000000000000000000000000000000000000000000000000000000000000000000000000000000000000000000000000000000000000000000000000000000000000000000000000000000000000000000000000000000000000000000000000000000000000000000000000000000000000000000000000000000000000000000000000000000000000000000000000000000000000000000000000000000000000000000000000000000000000
#0143b1:12
#014381:00000022000000000000000000000000
#0143b1:0000001200000022
#014381:0000000000320000
#0143a1:00000032
#014360:0000001200000022
#014330:0000000000320000
#014350:00000032
#015380:0000001200000000
#0153b0:00000022
#015331:0000001200000000
#015361:00000022
#016331:12
#016361:00000022000000000000000000000000
#016331:0000001200000022
#016361:0000000000320000
#016380:0000001200000022
#0163b0:0000000000320000
#017330:00000000000000120000000000000000
#017360:00000022
#0173b1:00000000000000120000000000000000
#017381:00000022
#018381:12
#0183b1:00000022000000000000000000000000
#0183b1:0000001200000022
#018381:0000000000320000
#0183a1:00000032
#018360:0000001200000022
#018330:0000000000320000
#018350:00000032
#019380:0000001200000000
#0193b0:00000022
#019331:0000001200000000
#019361:00000022
#020371:0000001200000000
#020341:0000000000220000
#020361:00000000000000000000000000000012
#021321:00000024
#022321:0000001300000023
#022361:0000000000330000
#022331:00000033
#023321:13
#023361:00000023000000000000000000000000
#0233b0:00000013000000000053000000000000
#023370:0000003300002300
#023321:0000001400002400
#023361:00000000000000000054000000000000
#024361:0000001300000000
#024321:0000000000230000
#024370:0000000000130000
#0243b0:0000000000000023
#0253b0:00000000000000130000000000000000
#025370:00000023
#025361:00000000000000140000000000000000
#025321:00000024
#0263b1:0000001300000023
#026371:0000000000330000
#0263a1:00000033
#0273b1:13
#027371:00000023000000000000000000000000
#027320:00000013000000000053000000000000
#027360:0000003300002300
#0273a1:0000001400002400
#027361:00000000000000000054000000000000
#0283b1:0000001300000000
#028371:0000000000230000
#029381:00000013000000000000000000000000
#0293b1:0000000000230000
#030321:1300002300000000
#030361:00000053000000000000000000000000
#030370:0000001300000000
#0303b0:0000000000230000
#031360:13
#031320:00230000
#031360:00000000000000130000000023000000
#031320:0000000000000000000000000000000000000053000000000000000000000000
#032370:13
#0323b0:00230000
#032370:00000000000000130000000000000000
#0323b0:0000000000230000
#0333a0:0000001400002400
#033360:00000000000000000054000000000000
#034350:13230000
#034320:0053000000000000
#034320:0000001300000000
#034360:0000000000230000
#0343b1:0000000000132300
#034350:0000000000001323
#034381:0000000000000013
#035381:23
#035321:0000001400002400
#035361:00000000000000000054000000000000
#036321:13
#036361:00000033000023000000000000000000
#0363b1:0013
#036371:00000000000000000000003300002300
#0373b1:1323
#037381:00530000
#037320:1323
#037350:00530000
#038320:00160024
#038381:00160000
#0383a1:00000024
#0393b1:13
#039371:00000023000000000000000000000000
#039320:00000013000000000000000000000000
#039360:0000002300000000
#039380:0000000000132300
#039321:0000000000001323
#0393b0:0000000000000013
#0403b0:23
#040321:13
#040361:00000023000000000000000000000000
#0403b0:00000013000000000000000000000000
#040370:0000002300000000
#040350:0000000000132300
#0403b1:0000000000001323
#040320:0000000000000013
#041320:23
#041371:1300002300000000
#0413b1:00000033000000000000000000000000
#041360:00000014000000000000000000000000
#041320:0000002400000000
#041360:0000000013000023
#041320:00000000000000000000003300000000
#041361:00000000000000000000001400000000
#0413a1:0000000000000024
#042361:14
#0423a1:00540024000000000000000000000000
#042360:00000014000000000000000000000000
#042320:0000543424000000
#0423a0:00000014
#042370:000000000000000000000000000000000000000000000000000000000000000000000000000000000000000000000000000000000000000000000000000000000000000000000000000000000000000000000000000000000000000000000000000000000000000000000000000000000000000000000000000000000000000000000000000000000000000000000000000000000000000000000000000000000000000000000000000000000000000000000000000000000000000000000000000000000000000000000000000000000000000000000000000000000000000000000000000000000000000000000000000000000000000000000000000000000000000000000000000000000000000000000000000000000000000000000000000000000000000000000000000000000000000000000000000000000000000000000000000000000000000000000000000000000000000000000000000000000000000000000000000000000000000000000000000000000000000000000000000000000000000000000000000000000000000000000000000000000000000000000000000000000000000000000000000000000000000000000000000000000000000000000000000000000000000000000000000000000000000000000000000000000000000000000000000000000000000000000000000000000000000000000000000000000000000000000000000000000000000000000000000000000000000000000000000000000000000000000000000000000000000000000000000000000000000000000000000000000000000000000000000000000000000000000000000000000000000000000000000000000000000000000000000000000000000000000000000000000000000000000000000000000000000000000000000000000000000000000000000000000000000000000000000000000000000000000000000000000000000000000000000000000000000000000000000000000000000000000000000000000000000000000000000000000000000000000000000000000000000000000000000000000000000000000000000000000000000000000000000000000000000000000000000000000000000000000000000000000000000000000000000000000000000000000000000000000000000000000000000000000000000000000000000000000000000000000000000000000000000000000000000000000000000000000000000000000000000000000000000000000000000000000000000000000000000000000000000000000000000000000000000000000000000000000000000000000000000000000000000000000000000000000000000000000000000000000000000000000000000000000000000000000000000000000000000000000000000000000000000000000000000000000000000000000000000000000000000000000000000000000000000000000000000000000000000000000000000000000000000000000000000000000000000000000000000000000000000000000000000000000000000000000000000000000000000000000000000000000000000000000000000000000000000000000000000000000000000000000000000000000000000000000000000000000000000000000000000000000000000000000000000000000000000000000000000000000000000000000000000000000000000000000000000000000000000000000000000000000000000000000000000000000000000000000000000000000000000000000000000000000000000000000000000000000000000000000000000000000000000000000000000000000000000000000000000000000000000000000000000000000000000000000000000000000000000000000000000000000000000000000000000000000000000000000000000000000000000000000000000000000000000000000000000000000000000000000000000000000000000000000000000000000000000000000000000000000000000000000000000000000000000000000000000000000000000000000000000000000000000000000000000000000000000000000000000000000000000000000000000000000000000000000000000000000000000000000000000000000000000000000000000000000000000000000000000000000000000000000000000000000000000000000000000000000000000000000000000000000000000000000000000000000000000000000000000000000000000000000000000000000000005400000000000000000000000000000000000000000000000000000000000000000000000000000000000000000000000000000000000000000000000000000000000000000000000000000000000000000000000000000000000000000000000000000000000000000000000000000000000000000000000000000000000000000000000000000000000000000000000000000000000000000000000000000000000000000000000000000000000000000000000000000000000000000000000000000000000000000000000000000000000000000000000000000000000000000000000000000000000000000000
#0433a0:24
#042321:00000014
#042351:0000000000000054
#043321:24
#0433b1:0013
#043381:00000000000000000000002300000000
#043350:00000000000000000000001300000000
#043320:0000000000000023
#044320:13
#044350:00000023000000000000000000000000
#044381:00000013000000000000000000000000
#0443b1:0000002300000000
#044360:0000001300000000
#044320:0000000000230000
#0443b1:0000000000130023
#044371:00000053
#044360:0000000000000013
#045320:53
#045360:0023000000000000
#045320:0013
#045360:00000000000000000000002300000000
#0453b1:00000000000000000000001300000000
#045371:0000000000000023
#046321:0000000000130000
#046351:00000023
#046380:00000013
#0463b0:0000000000000023
#046351:0000000000000013
#047321:23
#0473a0:14000024000000000000000000000000
#047360:0000005400000000000000000000000000000000000000000000000000000000
#047321:00000014000024000000000000000000
#047361:0000000000000000005400000000000000000000000000000000000000000000
#0473b1:0000000000130000
#047381:00000023
#047350:00000013
#047320:0000000000000023
#047381:0000000000000013
#0483b1:23
#048320:14000024000000000000000000000000
#048360:0000005400000000000000000000000000000000000000000000000000000000
#0483a1:00000014000024000000000000000000
#048361:0000000000000000005400000000000000000000000000000000000000000000
#048321:0000000000130000
#048351:00000023
#048380:00000013
#0483b0:0000000000000023
#048351:0000000000000013
#049321:24
#0503a1:00000014
#050371:000000000000000000000000000000000000000000000000000000000000000000000000000000000000000000000000000000000000000000000000000000000000000000000000000000000000000000000000000000000000000000000000000000000000000000000000000000000000000000000000000000000000000000000000000000000000000000000000000000000000000000000000000000000000000000000000000000000000000000000000000000000000000000000000000000000000000000000000000000000000000000000000000000000000000000000000000000000000000000000000000000000000000000000000000000000000000000000000000000000000000000000000000000000000000000000000000000000000000000000000000000000000000000000000000000000000000000000000000000000000000000000000000000000000000000000000000000000000000000000000000000000000000000000000000000000000000000000000000000000000000000000000000000000000000000000000000000000000000000000000000000000000000000000000000000000000000000000000000000000000000000000000000000000000000000000000000000000000000000000000000000000000000000000000000000000000000000000000000000000000000000000000000000000000000000000000000000000000000000000000000000000000000000000000000000000000000000000000000000000000000000000000000000000000000000000000000000000000000000000000000000000000000000000000000000000000000000000000000000000000000000000000000000000000000000000000000000000000000000000000000000000000000000000000000000000000000000000000000000000000000000000000000000000000000000000000000000000000000000000000000000000000000000000000000000000000000000000000000000000000000000000000000000000000000000000000000000000000000000000000000000000000000000000000000000000000000000000000000000000000000000000000000000000000000000000000000000000000000000000000000000000000000000000000000000000000000000000000000000000000000000000000000000000000000000000000000000000000000000000000000000000000000000000000000000000000000000000000000000000000000000000000000000000000000000000000000000000000000000000000000000000000000000000000000000000000000000000000000000000000000000000000000000000000000000000000000000000000000000000000000000000000000000000000000000000000000000000000000000000000000000000000000000000000000000000000000000000000000000000000000000000000000000000000000000000000000000000000000000000000000000000000000000000000000000000000000000000000000000000000000000000000000000000000000000000000000000000000000000000000000000000000000000000000000000000000000000000000000000000000000000000000000000000000000000000000000000000000000000000000000000000000000000000000000000000000000000000000000000000000000000000000000000000000000000000000000000000000000000000000000000000000000000000000000000000000000000000000000000000000000000000000000000000000000000000000000000000000000000000000000000000000000000000000000000000000000000000000000000000000000000000000000000000000000000000000000000000000000000000000000000000000000000000000000000000000000000000000000000000000000000000000000000000000000000000000000000000000000000000000000000000000000000000000000000000000000000000000000000000000000000000000000000000000000000000000000000000000000000000000000000000000000000000000000000000000000000000000000000000000000000000000000000000000000000000000000000000000000000000000000000000000000000000000000000000000000000000000000000000000000000000000000000000000000000000000000000000000000000000000000000000000000000000000000000000000000000000000000000000054000000000000000000000000000000000000000000000000000000000000000000000000000000000000000000000000000000000000000000000000000000000000000000000000000000000000000000000000000000000000000000000000000000000000000000000000000000000000000000000000000000000000000000000000000000000000000000000000000000000000000000000000000000000000000000000000000000000000000000000000000000000000000000000000000000000000000000000000000000000000000000000000000000000000000000000000000000000000000000000000
#0513a1:24
#050320:00000014
#050350:0000000000000054
#051320:24
#051360:0014
#0513a0:00000000000000000054003400002400
#051321:00000000000000000000001400000000
#051361:0000000000005424
#052361:14
#052321:00540034000024000000000000000000
#0523a0:00000014000000000000000000000000
#052360:0000542400000000
#0523a0:00000000000000001400002400000000
#052360:0000000000000000000000000000000000000054000000000000000000000000
#052321:00000000000000000000001400002400
#052361:0000000000000000000000000000000000000000000000000054000000000000
#053341:0014000000000000000000000000000000000000000000000000000000000000
#053361:00000000000000000000000000000000000000000000002400000000000000000000000000000000000000000000000000000000000000000000000000000000
#053390:0013000000000000000000000000000000000000000000000000000000000000
#0533b0:00000000000000000000000000000000000000000000002300000000000000000000000000000000000000000000000000000000000000000000000000000000
#053390:00000000000000000000000000000000000000000000000000130000000000000000000000000000000000000000000000000000000000000000000000000000
#053370:00000000000000000053000000000000
#0533b0:00000023
#053341:00000000000000000000000000000000000000000000000000140000000000000000000000000000000000000000000000000000000000000000000000000000
#053321:00000000000000000054000000000000
#053361:00000024
#055361:14
#0553a1:00240000
#055361:00000000000000001400003400000000
#0553a1:0000000000000000000000000000000000000054000000000000000024000000
#055320:00000000000000000000001400000000
#055360:0000000000000024
#056360:14000034000000000000000000000000
#056320:0000005400000000000000002400000000000000000000000000000000000000
#0563a1:00000014000000000000000000000000
#056361:0000002400000000
#056321:00000000000000001400002400000000
#056361:0000000000000000000000000000000000000054000000000000000000000000
#0563a0:00000000000000000000001400002400
#056360:0000000000000000000000000000000000000000000000000054000000000000
#0573b0:0013000000000000000000002300000000000000000000000000000000000000
#057320:0000000000000000000000000014000000005400000000000000000000000000
#057360:00000024
#057371:0000000000000000000000000013000000005300000000000000000000000000
#0573b1:00000023
#0593a1:14000000000000000000000000000054
#059361:0000003400000000
#060361:0024
#059320:1400003400000000
#059360:00000000000000000000000000000054
#060320:0024
#061380:13
#0613b0:00000023
#063380:1600003600000000
#0663c0:0022
#063321:0000001600000000
#066321:0022
#0219b0:0000001300002300
#021970:0053
#053970:13
#053990:0023000000000000000000000000000000000000000000000000000000000000
#053921:14
#053941:0024000000000000000000000000000000000000000000000000000000000000
#053961:00000000000000000000000000000000000000000000001400000000000000000000000000000000000000000000000000000000000000000000000000000000
#053941:00000000000000000000000000000000000000000000000000240000000000000000000000000000000000000000000000000000000000000000000000000000
#0539b0:00000000000000000000000000000000000000000000001300000000000000000000000000000000000000000000000000000000000000000000000000000000
#053990:00000000000000000000000000000000000000000000000000230000000000000000000000000000000000000000000000000000000000000000000000000000
#057970:13
#0579b0:0023000000000000000000000000000000000000000000000000000000000000
#057960:0000001400000000
#057920:0000000000000000000000000024000000000000000000000000000000000000
#0579b1:0000001300000000
#057971:0000000000000000000000000023000000000000000000000000000000000000
