This file was generated by Ched 2.7.0.0.
#TITLE ""
#ARTIST ""
#DESIGNER ""
#DIFFICULTY 0
#PLAYLEVEL
#SONGID ""
#WAVE ""
#WAVEOFFSET 0
#JACKET ""
#REQUEST "ticks_per_beat 480"
#00002: 4
#BPM01: 128
#00008: 01
#TIL00: ""
#VOLUME: ""
#HISPEED 00
#MEASUREHS 00
#04212:14
#0421a:14
#04214:0000003400002400
#04218:0000003400002400
#04213:00000034000000000000000000000000
#04219:00000034000000000000000000000000
#05317:14
#0531a:0000001400000000
#05312:14
#05315:0000001400000000
#00015:0000000000130000
#0001b:00000013
#00012:0000000000000013
#00118:1300000000130000
#00112:00000013
#0011b:0000000000000013
#0011a:00000033000000000000000000000000
#00215:13000013
#00218:0000000000130000
#0021b:0000000000000013
#00213:00000033000000000000000000000000
#00315:1300000000000033
#00312:0000003313000000
#00313:00000033000000000000000000000000
#00314:00000000000000000000003300000000
#00415:13
#00418:00000014
#00414:00000014
#00412:00000033000033000000000000000000
#00515:00000000000000130000000000000000
#0051b:0013
#00518:0000001300000000
#00519:00000000000000000000003300000000
#00612:1300000000000024
#0061a:0000000000240000
#00614:00000033000000000000000000000000
#0111a:14
#01114:0000000000140000
#01118:00000034000000000000000000001300
#01115:00000000000000000000000000000013
#01218:14
#02215:00000013000000000000000000000000
#0221b:0000001300000000
#02218:2300000000130000
#0221a:00000033
#02312:13
#02318:00000013000000000000000000000013
#02315:0000001300000013
#02412:1300001300000000
#02418:00000013000000000000000000000000
#02415:0000000000130000
#02518:00000013000000130000000000000000
#0251b:13
#02515:0013000000000000
#02512:00000000001300000000000000000000
#02510:41
#02818:00000013000000000000000000001300
#0281b:1300001300000000
#02812:0013000000001300
#02815:00000000001300000000000000000000
#01518:1300001300000000
#01512:00000013000000000000000000000000
#01915:13000000000000000000000000000013
#01918:00000013000000000000000000000000
#01912:0000001300000000
#0191b:0000000000000013
#02018:13000013000013000000000000001300
#02015:00000000001300000000000013000013
#02012:0013000000000000
#02915:13000013000000000000000000000000
#02918:0013000000000000
#03018:13000013
#03015:0000000000130000
#0301b:0000000000000013
#0301f:11
#03112:13
#03118:0000001300000000
#03115:00000000000000130000000000001300
#03218:13000000000000130000000000001300
#03215:0000001300001300
#03212:0000000000130000
#0331b:13
#03315:00000013000000000000000000001300
#03318:00000000000013000000000000000013
#0341b:0000001300000000
#03415:13000013
#03418:0000000000000013
#03512:13
#03518:00000013000000000000000000001300
#03515:0000001300000000
#03915:2400000000130013
#03918:00000013
#0391a:24
#0391f:21
#03912:00000034000000000000000000000000
#03917:00000034000000000000000000000000
#04018:0000000000130000
#04015:00000034000000000000000013000000
#0401b:0000000000000013
#04017:24
#04012:24
#0401a:00000034000000000000000000000000
#04010:41
#04115:14
#04117:0014
#04112:00000034000000000000000000000000
#0411a:00000000000000000000003400000000
#0431a:0014
#04318:0000001300000014
#04314:00000000000000000000001400000000
#04315:00000000000000130000000000000000
#04515:00000000000013000000001400000000
#04512:0014
#04518:00000000000000130000000000001400
#04615:0000000000130013
#04618:00000013
#0461a:24
#04612:24
#04718:0000000000130013
#04715:24000013
#0471a:24
#04712:00000034000000000000000000000000
#04717:00000034000000000000000000000000
#04815:00000034000000000000130000000000
#04818:00000013
#0481b:0000000000000013
#04817:24
#04812:24
#0481a:00000034000000000000000000000000
#04918:00000014000000000000000000001500
#04914:0000001400000000
#04913:00000000000000000000001500000000
#04912:24
#0491a:0024
#05115:0000001300000000
#0511a:0014
#05117:00000000000000000000001400000000
#05818:00000014000000000000000000001400
#05814:00000000000014000000001400000000
#05812:14
#0581a:0014
#05810:41
#06015:0000000000000013
#06018:00000000000000000000000000000013
#06115:13000000000000000000000000000013
#06118:0000000000000013
#01415:1300000000333300
#01418:00000013000000000000000000000000
#01412:0000001300000000
#01715:00000013000000130000000000000000
#01718:00001300001300000000000000000000
#01712:13
#01710:41
#01818:1300001300000000
#01815:00000013000000000000000000000000
#0181b:0000000000333300
#0441a:0000000000140000
#04416:0000000000000014
#04412:14
#04418:00000014000000000000000000000000
#04414:0000001400000000
#05512:1614
#05518:0000001300000000
#05515:00000000000000000000001400000000
#05212:14
#05215:00000014000000000000000000000000
#05217:0014
#0521a:00000000000000000000001400000000
#00715:0000000000000013
#00718:00002400000000000000000000000013
#01618:1300000000130000
#01615:00000013000000000000000000000000
#0161b:0000001300000000
#02615:1300000000130000
#02618:00000013000000000000000000000000
#02612:0000001300000000
#02613:00000033
#0271b:13
#02715:00000013000000000000000000000013
#02718:0000001300000013
#03614:14
#03617:00000014000000000000000000000000
#0361a:0000001400000000
#03612:0014
#03615:00000000000000000000001400000000
#03618:0000000000000014
#05412:14
#05414:00000014000000000000000000000000
#05416:0000001400000014
#0541a:0014
#05418:00000000000000000000001400000000
#05715:14
#05712:0000001400000000
#0571a:14
#05717:0000001400000000
#0561a:14
#05617:00000014000000000000000000000000
#05615:0014
#05612:00000000000000000000001400000000
#05912:0000001400000000
#05917:0000001400000000
#0591a:24
#05915:24
#06318:2600001600000000
#00912:24
#00910:41
#0371a:24
#03712:24
#03812:24240000
#0381a:24240000
#06218:26
#06212:0026
#00812:2400002400000000
#00818:00000024000000000000000000000000
#0081a:0000000024000024
#00814:00000000000000000000002400000000
#0131a:24000024000024000000000000000000
#01312:24000024000024000000000000000000
#02112:00000024
#0211a:00000024
#05012:2500002600002400
#05018:00000026000000002600000000000000
#0501a:00000024
#05010:41
#0661c:0062
#00952:64
#0375a:54
#03752:64
#04252:54
#0425a:64
#04258:00000054
#04254:00000054
#04658:0000001400000000
#0465a:64
#04652:54
#04654:0000001400000000
#05357:54
#0535a:0000005400000000
#05352:54
#05355:0000005400000000
#06258:16
#06252:0016
#00158:53
#00255:63
#00355:63
#00352:0053
#00455:63
#00458:00000054
#00454:00000064
#00452:0014
#0055b:0063
#00652:53
#0115a:64
#01258:54
#0225b:0000005300000000
#02258:0000000000230000
#02355:0000005300000000
#02452:0000006300000000
#02455:0000000000630000
#02558:00000000000000530000000000000000
#0285b:0000006300000000
#01558:0000005300000000
#01952:0000005300000000
#02055:00000000000000000000000000000063
#02058:0000005300000000
#02955:00000063000000000000000000000000
#03058:63
#0305b:0000001300000000
#03152:63
#03155:00000000000000530000000000000000
#03258:63
#03358:0000006300000000
#03555:0000005300000000
#03552:00000013
#03852:14540000
#0385a:14540000
#03854:00000014
#03858:00000014
#03955:54
#0395a:54
#03952:0000001400000000
#03957:0000001400000000
#04057:64
#04052:64
#0405a:0000001400000000
#04055:0000001400000000
#04155:54
#04157:0054
#0435a:14
#04352:14
#04755:54
#0475a:54
#04752:0000001400000000
#04757:0000001400000000
#04857:64
#04852:64
#0485a:0000001400000000
#04855:0000001400000000
#04952:14
#0495a:0014
#05052:15000054
#05058:0016
#0505a:00000054
#05154:14
#05158:14
#0515a:0064
#05157:00000000000000000000005400000000
#05852:14
#0585a:0014
#05955:54
#0595a:54
#05952:0000005400000000
#05957:0000005400000000
#06155:53
#00758:0054000000000000
#01352:00000014
#0135a:00000014
#01452:0000005300000000
#01755:00000000000000630000000000000000
#01858:0000005300000000
#0445a:0000000000640000
#04456:0000000000000064
#05552:1654
#05555:00000000000000000000006400000000
#05252:54
#05255:00000064000000000000000000000000
#05257:0054
#0525a:00000000000000000000006400000000
#02652:0000006300000000
#02655:0000000000230000
#02758:0000006300000000
#03455:53
#0345b:0000005300000000
#05755:64
#05752:0000006400000000
#0575a:64
#05757:0000006400000000
#0565a:64
#05657:00000054000000000000000000000000
#05652:00000000000000000000005400000000
#05655:0064
#06358:0000005600000000
#0165b:0000005300000000
#01658:0000000000530000
#001380:13
#0013a0:00000033000000000000000000000000
#0013b0:0000002300000000
#002350:13
#002330:00000033000000000000000000000000
#002320:0000002300000000
#003350:1300000000000033
#003330:00000033000000000000000000000000
#003320:0000003333000000
#003340:00000000000000000000003300000000
#004350:33
#004320:00000033000033002400000000000000
#004380:00000014
#0053a0:24
#004341:00000014
#005321:24
#0053b1:0013
#005391:00000000000000000000003300000000
#005381:0000000000000023
#006321:13
#006341:00000033000000000000000000000000
#006351:0000002300000000
#007381:0014000000000000
#0073a1:00000024
#009321:14
#010361:0024
#0113a1:14
#011381:00000034000024000000000000000000
#012381:14
#0123a1:00000024
#013321:0000001400002400
#0133a0:0000001400002400
#014320:0000001300000000
#014350:0000000000333323
#015380:0000001300000000
#0153b0:00000023
#0163b0:0000001300000023
#016380:0000000000330000
#017350:00000000000000130000000000000000
#017320:00000023
#018380:0000001300000000
#0183b0:0000000000333323
#019320:0000001300000000
#019350:00000023
#020380:0000001300000000
#0203b0:0000000000230000
#020350:00000000000000000000000000000013
#021320:0023
#0223b0:0000001300000023
#022380:0000000000330000
#0223a0:00000033
#023350:0000001300000000
#023320:00000023
#024320:0000001300000023
#024350:0000000000330000
#025380:00000000000000130000000000000000
#0253b0:00000023
#026320:0000001300000023
#026350:0000000000330000
#026330:00000033
#027380:0000001300000000
#0273b0:00000023
#0283b0:0000001300000000
#028380:0000000000230000
#029350:00000013000000000000000000000000
#029320:00000023
#030380:13
#0303b0:0000002300000000
#031320:13
#031350:00230000
#031350:00000000000000130000000000000000
#031320:00000023
#032380:13
#0323b0:00230000
#033380:0000001300000000
#0333b0:00000023
#034350:13
#034320:00230000
#0343b0:0000001300000000
#034380:0000000000230000
#035350:0000001300000000
#035320:00000023
#0373a0:14
#037380:00000024
#037321:14
#037341:00000024
#038321:00140000
#038341:00005424
#0383a0:00140000
#038380:00005424
#039350:14
#039320:00000034000024000000000000000000
#0393a1:14
#039371:00000034000024000000000000000000
#040371:14
#0403a1:00000034000024000000000000000000
#040320:14
#040350:00000034000024000000000000000000
#041350:14
#041320:00000034000024000000000000000000
#041370:0014
#0413a0:00000000000000000000003400002400
#042320:14
#042330:00000034000000000000000000000000
#042340:0000003424000000
#0423a1:14
#042391:00000034000000000000000000000000
#042381:0000003424000000
#042341:00000014
#043321:24
#042380:00000014
#0433a0:24
#0443a0:0000000000140000
#044360:0000000000000034
#0453a0:0024000000000000
#0463a0:14
#046380:00000034000024000000000000000000
#046321:14
#046341:00000034000024000000000000000000
#047351:14
#047321:00000034000024000000000000000000
#0473a0:14
#047370:00000034000024000000000000000000
#048370:14
#0483a0:00000034000024000000000000000000
#048321:14
#048351:00000034000024000000000000000000
#050321:00000014
#051341:24
#0503a0:00000014
#051380:24
#0513a0:0000000014000024
#051370:00000000000000000000003400000000
#052320:1400002400000000
#052350:00000034000000000000000000000000
#052370:0000000014000024
#0523a0:00000000000000000000003400000000
#053370:14000024
#0533a0:0000003400000000
#053321:14000024
#053351:0000003400000000
#055321:0000000014000024
#055351:00000000000000000000003400000000
#0563a1:1400002400000000
#056371:00000034000000000000000000000000
#056351:0000000014000024
#056321:00000000000000000000003400000000
#057351:14000024
#057321:0000003400000000
#0573a0:14000024
#057370:0000003400000000
#059350:14
#059320:0000003400000000
#060350:0024
#0593a1:14
#059371:0000003400000000
#0603a1:0024
#061351:13
#061321:00000023
#063381:1600003600000000
#0663c1:0022
