This file was generated by Ched 2.7.0.0.
#TITLE ""
#ARTIST ""
#DESIGNER ""
#DIFFICULTY 0
#PLAYLEVEL
#SONGID ""
#WAVE ""
#WAVEOFFSET 0
#JACKET ""
#REQUEST "ticks_per_beat 480"
#00002: 4
#BPM01: 167
#00008: 01
#TIL00: ""
#VOLUME: ""
#HISPEED 00
#MEASUREHS 00
#00118:14
#0011a:0014
#00218:14
#00314:14
#00312:0014
#00310:41
#00414:14
#00514:0014
#00518:24
#00618:14
#00614:0014
#0071a:14
#00712:0014
#00818:14
#00814:0014
#01014:00000014
#01112:0014
#01118:24
#01110:41
#01218:14
#01212:0014
#0131a:14
#01314:0014
#0141a:14
#01414:0014
#01518:14
#01512:0014
#0161a:14
#01614:0014
#01718:14
#01712:0014
#01912:14
#01914:0014
#01910:41
#02012:14
#0211a:14
#02118:0014
#0221a:14
#02312:14
#0241a:14
#0261a:14
#02618:0014
#02512:14
#02714:0014
#0271a:24
#02710:41
#02814:14
#02818:0014
#02918:14
#02914:0014
#03014:14
#0311a:1414
#03114:00140000
#03212:1414
#03218:00140000
#0331a:1414
#03314:00140000
#03414:14
#03410:41
#03614:14
#0361a:24
#03718:14
#03712:24
#03814:14
#0381a:24
#03918:14
#03914:0014
#0391a:0014
#03912:24
#04012:14
#04018:14
#04112:14
#04118:00140000
#04114:0014
#0411a:00000014
#04212:14
#04218:00140000
#04214:0014
#0421a:00000014
#04312:14
#04315:00000026
#04512:00140014
#04518:2424
#0451f:21
#04510:0041
#04814:14
#0471a:00140014
#04714:1414
#04918:14
#04914:00140000
#05014:14
#05018:00140000
#05118:14
#05114:00140000
#0511a:0014
#05112:00000014
#05218:14
#05618:14
#05512:00000014
#05519:0014
#05513:00140000
#0551a:14
#05712:15
#05717:00140000
#05819:15
#05815:00140000
#05914:14
#05918:00140000
#05912:0014
#0591a:00000014
#06014:1414
#06012:00140000
#0351f:11
#0181a:2424
#01814:00240000
#04618:24
#05312:24
#05313:0024
#05319:00240000
#0531a:00000024
#05414:24
#0621a:00000054
#0015a:0024
#00158:54
#00258:54
#00354:64
#00352:0024
#00454:64
#01158:14
#01952:54
#01954:0024
#02052:54
#0215a:64
#02158:0024
#0225a:64
#02352:54
#0245a:64
#0265a:64
#02658:0024
#0275a:14
#02552:54
#03052:0014
#03054:64
#03454:64
#03552:14
#03952:54
#03954:0054
#0395a:0054
#03958:54
#04052:54
#04058:54
#04352:64
#04355:00000016
#0465a:0014
#04658:54
#04852:0014
#04854:64
#05258:54
#0525a:0014
#05658:54
#0565a:0014
#05454:64
#05452:0014
#06054:6464
#06052:00640014
#001380:14
#0013a0:0054
#002380:34
#0023a0:0024
#003340:14
#003320:0054
#004340:34
#004320:0024
#0093a0:14
#0103a0:24
#019320:14
#019340:0054
#020320:34
#020340:0024
#0213a0:14
#021380:0054
#0223a0:34
#022380:0024
#023320:14
#023340:0024
#0243a0:14
#024380:0024
#025320:14
#025340:0024
#0263a0:14
#026380:0054
#0273a0:24
#030340:14
#030320:0024
#034340:14
#035320:24
#039320:14
#039340:0034
#040320:34
#040340:0024
#039381:14
#0393a1:0034
#040381:34
#0403a1:0024
#043321:14
#043351:00000026
#046381:14
#0463a1:0024
#048341:14
#048321:0024
#0493a1:00001424
#050321:00001424
#052381:14
#0523a1:0024
#054341:14
#054321:0024
#056381:14
#0563a1:0024
#057321:00001525
#058391:00001525
#060341:1434
#060321:00340024
#061381:14
#0623a1:00000024
