This file was generated by Ched 2.7.0.0.
#TITLE ""
#ARTIST ""
#DESIGNER ""
#DIFFICULTY 0
#PLAYLEVEL
#SONGID ""
#WAVE ""
#WAVEOFFSET 0
#JACKET ""
#REQUEST "ticks_per_beat 480"
#00002: 4
#BPM01: 180
#00008: 01
#TIL00: "87'960:1, 87'959:10000"
#VOLUME: ""
#HISPEED 00
#MEASUREHS 00
#00518:16
#00612:16
#00712:16
#00818:16
#00918:16
#01012:16
#01112:16
#01812:14
#0191a:14
#02118:14
#02212:14
#0231a:14
#02414:14
#02518:14
#0321a:14
#03312:14
#03912:16
#03918:0016
#03910:41
#04312:16
#04318:0016
#04118:16
#04112:0016
#04412:1616
#04518:1616
#04718:16
#04712:0016
#04912:16
#04918:0016
#05118:16
#05112:0016
#05218:1616
#05714:14
#05718:0014
#06114:14
#06118:0014
#0591a:14
#05912:0014
#06212:14
#06214:0014
#0631a:0014
#06318:14
#0651a:14
#06514:0014
#06712:14
#06718:0014
#06918:14
#06912:0014
#0701a:14
#07018:0014
#07114:14
#07112:0014
#0761a:14
#07714:14
#07818:14
#07912:14
#07217:0016
#07218:26
#07413:0016
#07412:26
#0281a:0014
#02818:14
#0281f:11
#03012:0014
#03014:14
#0121a:24
#01210:41
#02014:24
#03418:24
#03614:24
#03818:26
#0381f:21
#04012:26
#04218:26
#04612:26
#04818:26
#05012:26
#05618:26
#05610:41
#05812:26
#06018:26
#06412:26
#06618:26
#06812:26
#08018:26
#08010:41
#00418:26
#00410:41
#05412:26
#05418:0026
#05512:26
#07310:41
#03458:54
#03654:64
#07257:0026
#07258:66
#07453:0026
#07452:56
#0285a:0024
#02858:64
#03052:0024
#03054:54
#000380:16
#001380:26
#002320:16
#003320:26
#0123a0:14
#0133a0:24
#014340:14
#015340:24
#016380:14
#017380:24
#026340:14
#027340:24
#028380:14
#0283a0:0054
#029380:24
#030340:14
#030320:0054
#031340:24
#034380:14
#0353a0:24
#036340:14
#037320:24
#038380:1626
#040320:1626
#042380:1626
#046320:1626
#048380:1626
#050320:1626
#053380:1626
#056380:1626
#058320:1626
#060380:1626
#064320:1626
#066380:1626
#068320:1626
#072380:16
#072370:0056
#073380:26
#074320:16
#074330:0056
#075320:26
#0879d0:000000000000000000000000000000000000000000000000000000000000000000000000000000000000000000000000000000000000000000000000000000000000000000000000000000000000000000000000000000000000000000000000000000000000000000000000000000000000000000000000000000000000000000000000000000000000000000000000000000000000000000000000000000000000000000000000000000000000000000000000000000000000000000000000000000000000000000000000000000000000000000000000000000000000000000000000000000000000000000000000000000000000000000000000000000000000000000000000000000000000000000000000000000000000000000000000000000000000000000000000000000000000000000000000000000000000000000000000000000000000000000000000000000000000000000000000000000000000000000000000000000000000000000000000000000000000000000000000000000000000000000000000000000000000000000000000000000000000000000000000000000000000000000000000000000000000000000000000000000000000000000000000000000000000000000000000000000000000000000000000000000000000000000000000000000000000000000000000000000000000000000000000000000000000000000000000000000000000000000000000000000000000000000000000000000000000000000000000000000000000000000000000000000000000000000000000000000000000000000000000000000000000000000000000000000000000000000000000000000000000000000000000000000000000000000000000000000000000000000000000000000000000000000000000000000000000000000000000000000000000000000000000000000000000000000000000000000000000000000000000000000000000000000000000000000000000000000000000000000000000000000000000000000000000000000000000000000000000000000000000000000000000000000000000000000000000000000000000000000000000000000000000000000000000000000000000000000000000000000000000000000000000000000000000000000000000000000000000000000000000000000000000000000000000000000000000000000000000000000000000000000000000000000000000000000000000000000000000000000000000000000000000000000000000000000000000000000000000000000000000112100000000000000000000000000000000000000000000000000000000000000000000000000000000000000000000000000000000000000000000000000000000000000000000000000000000000000000000000000000000000000000000000000000000000000000000000000000000000000000000000000000000000000000000000000000000000000000000000000000000000000000000000000000000000000000000000000000000000000000000000000000000000000000000000000000000000000000000000000000000000000000000000000000000000000000000000000000000000000000000000000000000000000000000000000000000000000000000000000000000000000000000000000000000000000000000000000000000000000000000000000000000000000000000000000000000000000000000000000000000000000000000000000000000000000000000000000000000000000000000000000000000000000000000000000000000000000000000000000000000000000000000000000000000000000000000000000000000000000000000000000000000000000000000000000000000000000000000000000000000000000000000000000000000000000000000000000000000000000000000000000000000000000000000000000000000000000000000000000000000000000000000000000000000000000000000000000000000000000000000000000000000000000000000000000000000000000000000000000000000000000000000000000000000000000000000000000000000000000000000000000000000000000000000000000000000000000000000000000000000000000000000000000000000000000000000000000000000000000000000000000000000000000000000000000000000000000000000000000000000000000000000000000000000000000000000000000000000000000000000000000000000000000000000000000000000000000000000000000000000000000000000000000000000000000000000000000000000000000000000000000000000000000000000000000000000000000000000000000000000000000000000000000000000000000000000000000000000000000000000000000000000000000000000000000000000000000000000000000000000000000000000000000000000000000000000000000000000000000000000000000000000000000000000000000000000000000000000000000000000000000000000000000000000000000000000000000000000000000000000
