This file was generated by Ched 2.7.0.0.
#TITLE ""
#ARTIST ""
#DESIGNER ""
#DIFFICULTY 0
#PLAYLEVEL
#SONGID ""
#WAVE ""
#WAVEOFFSET 0
#JACKET ""
#REQUEST "ticks_per_beat 480"
#00002: 4
#BPM01: 180
#00008: 01
#TIL00: ""
#VOLUME: ""
#HISPEED 00
#MEASUREHS 00
#01818:00000013
#01815:0013
#0181b:1313
#01812:13000013
#02118:131300130000
#02115:000013
#02112:00240000
#0211a:00000024
#04512:140000000000000000130013
#0451a:14
#04518:001300000000
#04515:000000130013000000000000
#0451b:000000131300
#0021b:13130013
#00215:13130013
#00218:0013
#00212:0013
#00016:15
#00019:000035350035000000000000
#00115:15
#00118:00000013
#00112:000035350035000000000000
#01712:13
#01715:0013
#01718:00000013
#01912:0013
#0191b:00130000
#01917:0013
#01916:00000013
#02716:000000000000000000120012
#02715:26
#03012:130013
#03018:000000000013000000130000
#03015:000000000013000000000013
#03312:000000130000000000000014
#0331a:14
#0331b:00131300
#03316:000000000000130000000024
#0391b:000013
#03914:000000130000000000000013
#03917:000000000013000000000000
#03919:001300000000
#03916:13
#03912:000013
#03910:41
#0411b:000000000000000000000013
#0411a:000000000014000000000000
#04112:001400001400
#04117:001400001400
#04115:140000000014000000000000
#0431b:000013
#04315:000000000000000000000013
#04316:000000000013000000000000
#04319:00130000
#04314:001300000000
#04317:13
#04312:000013
#04715:13
#04718:001300000000
#04712:000000130000000013000000
#0471b:000000000013000000000013
#04717:000013
#0761a:00000014
#07616:14140000
#07612:005400000000000000000000140000000000000000000000
#07618:000000000000001400000000
#07614:005400000000000000000000000000000000000000000000000000000000000014000000000000000000000000000000
#07712:1414
#07718:001400000014000000000000
#07714:000014001400000000000014
#0771a:00140014
#00415:001300000000
#00419:00130000
#00414:000000000013000000000000
#00413:000013
#00417:00000013
#00412:000000000000000000000013
#00418:0013
#0041a:24
#00410:41
#00516:140000000000000000000013
#00513:001300000000
#00517:00130000
#00514:000000000013000000000000
#00515:000013
#00519:00000013
#00518:0013
#00615:001300000000
#00619:00130000
#0061a:14
#00614:000000000013000000000000
#00618:0013
#00613:000013
#00612:000000000000000000000013
#00617:00000013
#00716:14
#00715:000000000000001300230000
#0071b:000013
#00718:000000230013
#00712:000000000000000000000013
#00713:001300000000
#00717:00130000
#00714:000000000013000000000000
#00816:001300000000
#00819:00130000
#00815:000000000013000000000000
#00814:000013
#00817:00000013
#00813:000000000000000000000013
#00818:0013
#0081a:24
#0091a:14
#00913:001300000000
#00917:00130000
#00914:000000000013000000000000
#00915:000013
#00919:00000013
#00916:000000000000000000000013
#00918:0013
#01116:14
#01118:000000000000001300000013
#01115:000000001313
#01114:00130000
#01119:00130000
#01112:0024
#0111a:00000024
#01418:00000013
#0151b:13
#0151a:00130000
#01519:0013
#01518:00000013
#01617:13
#01612:13
#0161b:0013
#02015:000000131300
#02014:13
#02019:13
#02012:000000140000000000000024
#02018:00000013
#0201a:00240000
#02414:13
#02419:13
#02415:000000131300
#02418:00000013
#02412:000000140000000000000024
#0241a:00240000
#0261a:140000240000000000000024
#02612:00140000
#02615:00001313
#02618:000013
#0281b:13
#02812:000000000013000000000000
#02817:000000000013000000000000
#0281f:11
#02912:13
#0291b:000000000013000000000000
#02916:000000000013000000000000
#02917:130000000000000000000013
#0311a:14
#0311b:000013
#03115:000000000013000000130000
#03118:000000000013000000000013
#03212:140013
#03218:000000000013000000130000
#03215:000000000013000000000013
#03414:0013
#03412:00240024
#03515:13
#03517:0013
#03512:00241300
#0351a:000000000000000000000014
#03516:000000000000000000000024
#03619:0013
#0361a:00240024
#03718:13142600
#03714:001400000000
#03713:000000000015000000000000
#0381b:000000000000000000000013
#0381a:24
#03812:2624
#0381f:21
#0401a:240000000000000000000014
#04012:0024
#04212:240000000000000000000013
#0421a:0024
#0441a:141400000000
#04412:000000140014000000140000
#04416:0014
#0461b:000000000000000000000013
#0461a:24
#04612:0024
#0531a:14
#05312:140000131300
#05315:001300000000
#05318:000000130013000000000000
#0531b:000000000000000000130013
#04912:000000000014000000000013
#0491a:000000140000000014000000
#04915:001400001400
#04917:140000000014000000000000
#05112:000013
#05118:000000000000000000000013
#05117:000000000013000000000000
#05114:00130000
#05119:001300000000
#05116:13
#0511b:000013
#04812:240000000000000000000014
#0481a:0024
#0501b:000000000000000000000013
#0501a:24
#05012:0024
#05212:141400000000
#0521a:000000140014000000140000
#05216:0014
#05412:00140000
#0541a:00000014
#05416:24242424
#05515:000013
#0551a:24
#05512:24250000
#05519:00250000
#05518:00000023
#0631a:140000240014000000240014
#06312:241400241400
#06316:000000000000001400001400
#06517:140013
#06514:001400000000
#06516:000000000014000000000000
#06512:000013
#06515:000000000000000000000013
#05719:00140000
#05714:001400000000
#05717:14
#05715:000000000000000000000013
#05716:000000000014000000000000
#0571a:000014
#05712:000014
#0591a:000000000014000000000000
#05917:001400001400
#05915:000000000014000000000013
#05912:000014
#05916:14
#06212:141400000000
#0621a:000000140014000000140000
#06216:0014
#06412:240000000000000000140014
#0641a:00142400
#06416:00140000
#07112:140000240014000000240014
#0711a:241400241400
#07116:000000000000001400001400
#06718:000014000000000000000013
#06712:000014
#06716:000000000014000014000000
#06715:14
#0691b:000013
#06915:000000000000000000000013
#06912:000013
#06917:14
#06914:001400000000
#06916:000000000014000000000000
#0701a:141400000000
#07012:000000140014000000140000
#07016:0014
#05612:240000000000000000140014
#05616:00140000
#0561a:00142400
#05618:26
#05610:41
#0721a:14001414
#07212:00141400
#07218:005400000000000000000000000000000000000000000000000000000000000000000000000000000000000000000000
#07216:005400000000000000000000005400000000000000000000
#07214:000000000000000000000000000000000000000000000000005400000000000000000000000000000000000000000000
#07312:14000026
#0731a:141400000000
#07316:00140000
#07319:000000000014000000000000
#07315:0014
#07318:000014
#07310:41
#0741a:140000141400
#07412:140000140014000000140014
#07416:005400000000000014000000000014000000000014000000
#07418:005400000000000000000000000000000000000000000000000000000000000000000000000000000000000000000000
#0751a:140000000000000000000000140000000000005400000000
#07512:000000000000140000000000005400000000000000000000
#07516:005400000000000000000000140000000000140000000000
#07518:005400000000000000000000000000000000000000000000000000000000000000000000005400000000000000000000
#07514:000000000000000000000000000000000000000000000000005400000000000000000000000000000000000000000000
#07818:140000000000000000000000005400000000000000000000000000000000000000000000000000000000000000000000
#07812:000000001400000000000000140000000000000000000064
#07816:000000140000000014000024
#0781a:000000000000005400000000000000000000140000000000
#07814:00000000000000000000000000000064
#07916:000000001400001400001400
#0791a:000000240014000000240014
#07912:000000241400
#0101a:140000000054000000140000
#01012:000000140000140000000054
#01016:00540054
#01018:005400
#01014:000000000054
#02315:131300130000
#02318:000013
#0231a:00240000
#02312:00000024
#02218:000000131300
#02219:13
#02214:13
#0221a:000000140000000000000024
#02215:00000013
#02212:00240000
#0581a:240000000000000000140014
#05816:00140000
#05812:00142400
#06113:00140000
#06118:000014000000000000000013
#06115:14
#0611a:000014
#06116:000000000014000000000000
#06112:000014
#0601a:240000000000000000140014
#06016:00140000
#06012:00142400
#0661a:240000000000000000140014
#06612:00142400
#06616:00140000
#06812:240000000000000000140014
#0681a:00142400
#06816:00140000
#08012:2815
#08010:41
#08116:14
#08113:0013
#08217:12
#08216:0012
#08214:00120000
#08213:00000012
#08315:12
#08312:0012
#0841b:0012
#08418:22
#08519:12
#0851c:0012
#08718:12
#08712:0062
#0871c:0062
#0861c:00120000
#0861b:00000012
#08619:0012
#0861a:12
#0031a:22
#00318:00220000
#00316:0022
#00314:00000022
#01212:26
#01210:41
#02516:00240024
#03356:000000000000630000000054
#0335a:14
#03352:000000000000000000000014
#0335b:0063
#00056:55
#00155:65
#03758:0016
#0445a:00000014
#04456:0054
#04452:00000014
#0765a:14000014
#07752:0014
#0045a:14
#00556:14
#00756:14
#0065a:14
#0095a:14
#01156:14
#0085a:14
#01852:00000053
#01957:0053
#0285b:53
#02852:000000000053000000000000
#02857:000000000063000000000000
#02952:63
#0295b:000000000063000000000000
#02956:000000000053000000000000
#03058:000000000053000000000000
#03155:000000000063000000000000
#0315a:14
#03252:14
#03258:000000000053000000000000
#03556:000000000000000000000064
#03557:0053
#03552:0053
#0355a:000000000000000000000014
#03852:3654
#03856:0044
#0385a:54
#04056:0044
#04052:0054
#0405a:54
#04252:64
#0425a:0064
#04256:0034
#0465a:54
#04652:0054
#04656:0044
#04852:64
#0485a:0064
#04856:0034
#0505a:54
#05052:0054
#05056:0044
#05252:00000014
#0525a:00000014
#05256:0054
#05452:00140000
#0545a:00000014
#05658:46
#05652:6434
#0565a:0064
#05656:00240000
#06452:6434
#0645a:0064
#06456:00240000
#06252:00000014
#06256:0054
#0625a:00000014
#0595a:000000000014000000000000
#05952:001400001400
#05956:64
#06756:000000000014000014000000
#06752:000000000014000014000000
#07252:00140000
#07256:00140014
#0725a:00000014
#07352:00000016
#01252:56
#04155:000000000014000000000000
#0415a:000000000014000000000000
#04157:000014
#04152:000014
#04952:000000000014000000000000
#04957:000000000014000000000000
#04955:000014
#0495a:000014
#07056:0064
#07052:00000014
#0705a:00000014
#0165b:0023
#01657:63
#0105a:64
#01052:0054
#01358:13
#0145b:13
#02652:14
#0265a:14
#02755:16
#05852:0054
#0585a:5444
#05856:00240000
#0605a:5444
#06052:0054
#06056:00240000
#05756:000000000014000000000000
#06156:000000000014000000000000
#06556:000000000014000000000000
#0655a:000000000014000000000000
#06656:00240000
#0665a:5444
#06652:0054
#06856:00240000
#06852:6434
#0685a:0064
#06956:000000000014000000000000
#0695a:000000000014000000000000
#08052:6865
#08156:64
#08153:0063
#08257:62
#08256:0062
#08254:00220000
#08253:00000022
#08355:62
#08352:0062
#08458:62
#0845b:0062
#08559:62
#0855c:0062
#08758:62
#0865c:00220000
#0865b:00000022
#08659:0062
#0865a:62
#000360:15
#000390:000035350035000000000000
#0013b0:23
#001351:15
#001321:000035350035000000230000
#0103a1:14
#010361:00240000
#010321:0014
#010361:00000024
#012321:16
#015321:00000023
#012380:00000013
#013380:23
#0133b0:00000013
#0143b0:23
#016371:13
#0163b1:0053
#017371:23
#018321:00000013
#019361:00230000
#019371:0013
#0193b1:00000023
#0253a1:14545454545454542400000000000000
#025391:0054005400540054005400540054005400000000000000000000000000000000
#025320:00000000000000001454545454545454
#025330:0000000000000000000000000000000000540054005400540054005400540054
#026320:24
#0283b0:13000023
#028370:000000000033000000000000
#028321:000000000013000000000000
#028361:00000023
#029321:13000023
#029361:000000000033000000000000
#0293b0:000000000013000000000000
#029370:00000023
#030380:000000000013000000000000
#0303b0:000023
#031350:000000000013000000000000
#031320:000023
#032380:000000000013000000000000
#0323b0:000023
#0333b0:0013
#033370:000023
#033361:0013
#033321:000023
#033361:000000000000000000000014
#0353a1:00240000
#035321:0013
#035361:000023
#035370:0013
#0353b0:000023
#035360:000000000000000000000014
#037320:24
#0383a0:14
#038360:0024
#038321:0014
#038361:000000000000000000000024
#0403a1:14
#040361:0024
#040320:0014
#040360:000000000000000000000024
#042320:14
#042360:0024
#0423a1:0014
#042361:000000000000000000000024
#044361:0014
#0443a1:00000024
#0463a1:14
#046361:0024
#046320:0014
#046360:000000000000000000000024
#048320:14
#048360:0024
#0483a1:0014
#048361:000000000000000000000024
#0503a1:14
#050361:0024
#050320:0014
#050360:000000000000000000000024
#052360:0014
#052320:00000024
#055320:00152500
#055391:00152500
#056321:1424
#056361:00540000
#0563a0:0014
#056360:00000024
#0583a0:1424
#058360:00540000
#058321:0014
#058361:00000024
#059361:14
#059321:002400000000
#0603a1:1424
#060361:00540000
#060320:0014
#060360:00000024
#062360:0014
#062320:00000024
#064320:1424
#064360:00540000
#0643a1:0014
#064361:00000024
#065391:00140000
#0653a1:000000000000000000000000000000000000000000000000000000540000000000000000000000002400000000000000000000000000000000000000000000000000000000000000000000000000000000000000000000000000000000000000
#0663a1:1424
#066361:00540000
#066320:0014
#066360:00000024
#067330:00140000
#067320:000000000000000000000000000000000000000000000000000000540000000000000000000000002400000000000000000000000000000000000000000000000000000000000000000000000000000000000000000000000000000000000000
#068320:1424
#068360:00540000
#0683a1:0014
#068361:00000024
#069391:00140000
#0693a1:000000000000000000000000000000000000000000000000000000540000000000000000000000002400000000000000000000000000000000000000000000000000000000000000000000000000000000000000000000000000000000000000
#070361:0014
#0703a1:00000024
#072361:001400000000240000000000000000000000000000000000
#072361:000000000000000000000000001400000000240000000000
#074361:001400000000240000000000000000000000000000000000
#075361:001400000000240000000000000000000000000000000000
#075321:000000000000000000000000001400000000240000000000
#0753a1:000000000000000000000000000000000000001400000000
#0763a1:24
#076321:001400000000240000000000000000000000000000000000
#0783a1:000000000000001400000000000000002400000000000000
#078321:000000000000000000000000000000000000000000000014
#079321:00240000
#080321:1835
#081361:34
#081331:0033
#082371:32
#082341:00520000
#082361:0032
#082331:00000052
#083351:32
#083321:0032
#084361:32
#087321:0022
#084380:12
#0843b0:0032
#085390:32
#0853c0:0032
#0863a0:32
#0863c0:00520000
#086390:0032
#0863b0:00000052
#087380:32
#0873c0:0022
#010960:00140000
#0109a0:000000000000000000000000000000000000000000000000000000000000000000000000000000000000000000000000000000000000000000000000000000000000000000000000000000000000000000000000000000000000000000000000000000000000000000000000000000000000000000000000000000000000000000000000000000000000000000000000000000000000000000000000000000000000000000000000000000000000000000000000000000000000000000000000000000000000000000000000000000000000000000000000000000000000000000000000000000000000000000000000000000000000000000000000000000000000000000000000000000000000000000000000000000000000000000000000000000000000000000000000000000000000000000000000000000000000000000000000000000000000000000000000000000000000000000000000000000000000000000000000000000000000000000000000000000000000000000000000000000000000000000000000000000542400000000000000000000000000000000000000000000000000000000000000000000000000000000000000000000000000000000000000000000000000000000000000000000000000000000000000000000000000000000000000000000000000000000000000000000000000000000000000000000000000000000000000000000000000000000000000000000000000000000000000000000000000000000000000000000000000000000000000000000000000000000000000000000000000000000000000000000000000000000000000000000000000000000000000000000000000000000000000000000000000000000000000000000000000000000000000000000000000000000000000000000000000000000000000000000000000000000000000000000000000000000000000000000000000000000000000000000000000000000000000000000000000000000000000000000000000000000000000000000000000000000000000000000000000000000000000000000000000000000000000000000000000000000000000000000000000000000000000000000000000000000000000000000000000000000000000000000000000000000000000000000000000000000000000000000000000000000000000000000000000000000000000000000000000000000000000000000000000000000000000000000000000000000000000000000000000000000000000000000000000000000000000000000000000000000000000
#010960:00000014
#010920:000000000000000000000000000000000000000000000000000000000000000000000000000000000000000000000000000000000000000000000000000000000000000000000000000000000000000000000000000000000000000000000000000000000000000000000000000000000000000000000000000000000000000000000000000000000000000000000000000000000000000000000000000000000000000000000000000000000000000000000000000000000000000000000000000000000000000000000000000000000000000000000000000000000000000000000000000000000000000000000000000000000000000000000000000000000000000000000000000000000000000000000000000000000000000000000000000000000000000000000000000000000000000000000000000000000000000000000000000000000000000000000000000000000000000000000000000000000000000000000000000000000000000000000000000000000000000000000000000000000000000000000000000000000000000000000000000000000000000000000000000000000000000000000000000000000000000000000000000000000000000000000000000000000000000000000000000000000000000000000000000000000000000000000000000000000000000000000000000000000000000000000000000000000000000000000000000000000000000000000000000000000000000000000000000000000000000000000000000000000000000000000000000000000000000000000000000000000000000000000000000000000000000000000000000000000000000000000000000000000000000000000000000000000000000000000000000000000000000000000000000000000000000000000000000000000000000000000000000000000000000000000000000000000000000000000000000000000000000000000000000000000000000000000000000000000000000000000000000000000000000000000000000000000000000000000000000000000000000000000000000000000000000000000000000000000000000000000000000000000000000000000000000000000000000000000000000000000000000000000000000000000000000000000000000000000000000000000000000000000000000000000000000000542400000000000000000000000000000000000000000000000000000000000000000000000000000000000000000000000000000000000000000000000000000000000000000000000000000000000000
#0729a0:14
#072960:002400000000000000000000000000000000000000000000
#072920:0014
#072960:000000000000000000000000002400000000000000000000
#0749a0:14
#074960:002400000000000000000000000000000000000000000000
#0759a0:14
#075960:002400000000000000000000000000000000000000000000
#075960:0014
#075920:000000000000000000000000002400000000000000000000
#075960:00000014
#0759a0:000000000000000000000000000000000000002400000000
#076960:14
#076920:002400000000000000000000000000000000000000000000
#078960:00140000
#0789a0:000000000000002400000000000000000000000000000000
#078960:000000000000000000000014
#078920:000000000000000000000000000000000000000000000024
