This file was generated by Ched 2.7.0.0.
#TITLE ""
#ARTIST ""
#DESIGNER ""
#DIFFICULTY 0
#PLAYLEVEL
#SONGID ""
#WAVE ""
#WAVEOFFSET 0
#JACKET ""
#REQUEST "ticks_per_beat 480"
#00002: 4
#BPM01: 180
#00008: 01
#TIL00: ""
#VOLUME: ""
#HISPEED 00
#MEASUREHS 00
#01814:00000014
#0181a:0014
#01812:14
#01212:00000014
#0121a:24
#01210:41
#01318:14
#01314:00000014
#02118:14000014
#02112:0014
#02213:14
#02219:00140000
#02214:0014
#0221a:00000014
#04514:1414
#04518:00140014
#05913:00000014
#05914:00140000
#05919:0014
#0591a:14
#06712:14
#0671a:00000014
#06714:0014
#06718:00140000
#07812:00000014
#07818:0014
#07814:00140000
#0781a:14
#07712:00140014
#07718:0014
#0771a:14
#07614:00140014
#07618:0014
#0761a:14
#07114:00140014
#07118:1414
#07012:00001414
#0701a:14140000
#06912:00000014
#06918:0014
#06914:00140000
#0691a:14
#06514:00140000
#06512:00000014
#06518:0014
#0651a:14
#06318:00140014
#06314:1414
#0621a:00001414
#06212:14140000
#0611a:00000014
#06118:00140000
#06114:0014
#06112:14
#05719:00000014
#05718:00140000
#05713:0014
#05712:14
#05318:1414
#05314:00140000
#05212:00001414
#0521a:14140000
#05112:00140014
#05118:0014
#0511a:14
#0491a:00140014
#04914:0014
#04912:14
#04712:00140014
#04718:0014
#0471a:14
#0441a:00001414
#04412:14140000
#04318:00140014
#04314:0014
#04312:14
#04114:00140014
#04118:0014
#0411a:14
#03918:00140014
#03914:0014
#03912:14
#03910:41
#03218:00000014
#03212:0014
#0321a:14
#03314:14000014
#0331a:0014
#02013:00000014
#02019:0014
#02014:00140000
#0201a:24
#01912:0014
#01918:00140000
#01718:00000014
#01714:0014
#01514:00140014
#01518:1414
#01412:00000014
#0141a:14
#01114:14000024
#01118:0024
#0101a:0014
#01014:14
#00918:0014
#00912:14
#00818:0014
#00812:14
#00718:14000024
#00714:0024
#00612:0014
#00618:14
#00514:0014
#0051a:14
#00414:0014
#0041a:24
#00410:41
#00214:0014
#00218:14
#00112:14
#0001a:14
#02312:14
#02314:0014
#02612:14
#0241a:00000014
#02514:14
#02519:00140000
#02513:0014
#02518:00000014
#0281f:11
#03418:24
#03614:24
#03818:26
#0381f:21
#0721a:24
#07218:00000024
#00318:2424
#00314:00240024
#05814:24
#0661a:24
#06812:24
#08018:26
#08010:41
#07912:00000024
#07914:0024
#07918:00240000
#0791a:24
#07414:00000024
#07412:24
#06412:24
#06018:24
#05618:24
#05610:41
#05012:26
#04818:26
#04612:26
#04218:26
#04012:26
#05512:25
#05412:25
#05419:0025
#07310:41
#0871b:0063
#03458:54
#03654:64
#03858:0016
#05854:64
#05852:0014
#0665a:64
#06658:0014
#06852:54
#06854:0014
#0725a:54
#07258:00000024
#08058:56
#07454:00000024
#07452:64
#06454:0014
#06452:54
#0605a:0014
#06058:54
#0565a:0014
#05658:54
#05052:0016
#04858:0016
#04652:0016
#04258:0016
#04052:0016
#02452:14
#02352:64
#02354:0064
#03752:0014
#02754:14
#02652:64
#016380:14
#0173a0:24
#023320:14
#023340:0034
#024320:24
#026320:14
#027340:24
#028380:14
#0283a0:0034
#029380:34
#0293a0:0024
#030340:14
#030320:0034
#031340:34
#031320:0024
#034380:14
#0353a0:0024
#036340:14
#037320:0024
#038380:1626
#040320:1626
#042380:1626
#046320:1626
#048380:1626
#050320:1626
#055320:1525
#056380:14
#0563a0:0024
#058340:14
#058320:0024
#060380:14
#0603a0:0024
#064320:14
#064340:0024
#0663a0:14
#066380:0024
#068320:14
#068340:0024
#0723a0:14
#072380:00000054
#0733a0:0024
#074320:14
#074340:00000054
#075320:0024
#080380:16
#0873b0:0023
