This file was generated by Ched 2.7.0.0.
#TITLE ""
#ARTIST ""
#DESIGNER ""
#DIFFICULTY 0
#PLAYLEVEL
#SONGID ""
#WAVE ""
#WAVEOFFSET 0
#JACKET ""
#REQUEST "ticks_per_beat 480"
#00002: 4
#BPM01: 148
#00008: 01
#TIL00: ""
#VOLUME: ""
#HISPEED 00
#MEASUREHS 00
#00512:16
#00618:16
#00712:16
#0081a:14
#00810:41
#0091a:14
#01014:14
#01114:14
#01218:14
#01318:14
#0161a:14
#01610:41
#01714:14
#01818:14
#01912:14
#0201a:14
#02114:14
#02812:14
#02918:14
#03212:0016
#03218:26
#03210:41
#0361a:14
#03614:0014
#03718:14
#03712:0014
#04418:0014
#04412:14
#04410:41
#04514:14
#0451a:0014
#04612:16
#04618:0016
#04918:14
#05014:14
#0511a:14
#05212:14
#05914:14
#05918:0014
#0591f:00210000
#06012:16
#06018:0016
#06010:41
#06312:0016
#06318:26
#0671a:14
#06714:0014
#06818:14
#06812:0014
#07114:14
#07218:14
#07312:14
#0741a:14
#07512:14
#03412:16
#03418:0016
#03818:16
#03812:0016
#04018:0016
#04012:26
#04218:16
#04212:0016
#06512:16
#06518:0016
#00014:14
#00118:14
#00214:14
#00418:16
#0471f:11
#05318:26
#06918:26
#06912:0026
#07018:26
#05512:26
#05718:26
#02410:41
#014320:1400340034003434
#015320:0024
#0223a0:1400340034003434
#0233a0:0024
#024340:14
#025340:24
#026380:14
#027380:24
#030340:1400000000000034
#031340:0034343400002400
#033380:1626
#035320:1626
#039380:1626
#041320:1626
#043380:1626
#047320:16
#048320:26
#053380:16000036
#053360:0000003600000000
#054360:0036000000000000
#054380:0026
#055320:16
#056320:26
#057380:16
#058380:26
#061320:16
#062320:26
#064380:1626
#066320:1626
#076380:1400340034003434
#077380:00000024
#078320:00160000
#081320:00000024
