This file was generated by Ched 2.7.0.0.
#TITLE ""
#ARTIST ""
#DESIGNER ""
#DIFFICULTY 0
#PLAYLEVEL
#SONGID ""
#WAVE ""
#WAVEOFFSET 0
#JACKET ""
#REQUEST "ticks_per_beat 480"
#00002: 4
#BPM01: 148
#00008: 01
#TIL00: ""
#VOLUME: ""
#HISPEED 00
#MEASUREHS 00
#0091a:14
#00914:00140000
#00918:0014
#01612:1414
#01618:00140000
#01610:41
#0171a:1414
#01714:00140000
#01812:14
#01818:00140000
#01814:0014
#0181a:00000014
#0281a:14
#02814:00140000
#02818:0014
#02812:00000014
#02914:00140000
#0291a:14
#02918:0014
#02912:00000014
#03214:0014
#03218:00140014
#03212:24
#03210:41
#0341a:14
#03418:0014
#03414:00140014
#05612:0015
#07218:14
#07214:00140000
#0721a:0014
#07412:1414
#07418:00140000
#00414:00140000
#0041a:1414
#00512:1414
#00518:00140000
#0061a:1414
#00614:00140014
#00612:0000000000000034
#00818:00140000
#00814:0014
#00810:41
#01012:14
#01018:00140000
#01014:0014
#0101a:00000014
#0141a:14
#01414:00140000
#01418:0014
#01412:00000014
#0221a:14
#02214:00140000
#02218:0014
#02212:00000014
#02414:14
#02410:41
#02518:14
#02612:14
#02614:0014
#02718:0014
#02714:00000014
#03018:14
#03312:1424
#03318:00140000
#04018:0014
#04014:00140000
#04012:00000014
#0401a:24
#04214:0014
#04218:00140000
#0421a:00000014
#04212:14
#03612:14
#0371a:14
#0441a:14
#04410:41
#04512:14
#04618:14
#04614:00140000
#0461a:0014
#04612:00000014
#04718:14
#0471f:11
#04812:14
#04818:0014
#04914:14
#0491a:0014
#05012:14
#05018:0014
#05112:1414
#05118:00140014
#0591a:14
#05914:00140014
#05918:0014
#0591f:00210000
#0601a:14
#06012:00140014
#06018:0014
#06010:41
#06312:14
#06318:00140000
#06314:0014
#0631a:00000014
#06414:14
#06418:00140000
#06412:0026
#06712:14
#06718:00140000
#06714:0014
#0671a:00000014
#06814:14
#06818:00140000
#06812:0014
#0681a:00000014
#07018:00140000
#07012:1414
#0711a:14
#07114:00140000
#07118:0014
#07112:00000014
#07818:00140000
#07612:0000000000000014
#07618:14
#07614:00140000
#0761a:0014
#00218:1414
#00214:00140014
#0021a:0000000000000024
#01312:14
#01318:00140000
#01314:0014
#01214:00140000
#01218:0014
#0121a:14
#0201a:1414
#02014:00140000
#02112:1414
#02118:00140000
#0351a:1424
#03514:00140000
#04118:14
#04114:00140000
#0411a:0024
#04314:14
#04318:00140000
#04312:0024
#05214:1414
#0521a:00140014
#05812:0015
#0651a:14
#06514:00140000
#06518:0014
#06512:00000014
#06618:1426
#06614:00140000
#07312:14
#07318:00140000
#07314:0014
#0731a:00000014
#0751a:14
#07514:00140000
#07518:0014
#07512:00000014
#06912:26
#06918:0000002600000000
#05312:26000026
#05318:0000002600000000
#05418:0026000000000000
#05412:0026
#00312:0024000000000000
#03118:0000002400000000
#0811a:00000054
#02454:64
#02558:54
#02652:54
#02654:0054
#03058:64
#03952:0014
#03652:54
#0375a:64
#0445a:64
#04552:54
#04758:54
#05659:15
#05652:0015
#0625a:0014
#06952:16
#06958:0000001600000000
#07858:00540000
#07652:0000000000000064
#0765a:0014
#00654:00000054
#01652:0014
#0175a:0014
#0205a:0014
#02152:0014
#03158:0000001400000000
#03352:0014
#0355a:0014
#0415a:0014
#04352:0014
#05852:0015
#05858:15
#06452:0016
#06658:0016
#0725a:0014
#006340:00000014
#006320:0000000000000034
#008320:24
#011320:1424
#0153a0:1424
#019340:14
#019320:0024
#023380:14
#0233a0:0024
#024340:14
#024320:0024
#025380:14
#0253a0:0024
#026320:14
#026340:0034
#027320:24
#030380:14
#0303a0:0000000034000034
#031380:0000002400000000
#036320:14
#036340:0024
#0373a0:14
#037380:0024
#038340:1400000000000034
#038320:0034
#039320:0024
#0443a0:14
#044380:0024
#045320:14
#045340:0024
#047380:14
#0473a0:0024
#055380:15
#056390:25
#057390:15
#058380:25
#061380:1400000000000034
#0613a0:0034
#0623a0:0024
#076320:0000000000000014
#078340:24
#078380:00140000
#0813a0:00000024
