This file was generated by Ched 2.7.0.0.
#TITLE ""
#ARTIST ""
#DESIGNER ""
#DIFFICULTY 0
#PLAYLEVEL
#SONGID ""
#WAVE ""
#WAVEOFFSET 0
#JACKET ""
#REQUEST "ticks_per_beat 480"
#00002: 4
#BPM01: 192
#00008: 01
#TIL00: ""
#VOLUME: ""
#HISPEED 00
#MEASUREHS 00
#00518:16
#00510:41
#00612:16
#00914:14
#01014:14
#01118:14
#01218:14
#01312:14
#01412:14
#0151a:14
#01714:14
#01710:41
#01818:14
#01914:14
#02018:14
#02112:14
#0221a:14
#02312:14
#03712:0016
#03718:26
#0371f:21
#03818:16
#03810:00410000
#03912:16
#03918:0016
#04012:16
#04118:16
#04112:0016
#04512:0016
#04518:26
#04618:16
#04712:16
#04718:0016
#04812:16
#04918:16
#04912:0016
#05418:16
#05412:0026
#05518:1616
#05612:16
#05618:0016
#05712:1616
#05818:16
#05812:0016
#06218:1616
#06312:1616
#06618:1616
#06712:1616
#07212:14
#07210:41
#07318:14
#07414:14
#0751a:14
#0161a:14
#0241a:14
#0251f:11
#00118:26
#00312:26
#04312:26
#05112:26
#05110:41
#06012:26
#0781a:24
#03314:24
#06418:26
#06512:0026
#06818:26
#06110:0041
#007380:1600000000000036
#008380:0036002600000000
#025340:14
#026340:24
#027380:14
#028380:24
#029320:14
#030320:24
#0313a0:14
#0323a0:24
#033340:14
#035320:24
#042380:1626
#043320:1600000000000036
#044320:0036002600000000
#050380:1626
#051320:1600000000000036
#052320:0036002600000000
#059380:1626
#060320:1600000000000036
#061320:0036002600000000
#064380:16363636
#065380:26
#068380:16
#069380:26
#076320:14
#077320:24
#0783a0:1400000000000034
#0793a0:0034003400343434
#0803a0:34
#084380:24
