This file was generated by Ched 2.7.0.0.
#TITLE ""
#ARTIST ""
#DESIGNER ""
#DIFFICULTY 0
#PLAYLEVEL
#SONGID ""
#WAVE ""
#WAVEOFFSET 0
#JACKET ""
#REQUEST "ticks_per_beat 480"
#00002: 4
#BPM01: 192
#00008: 01
#TIL00: ""
#VOLUME: ""
#HISPEED 00
#MEASUREHS 00
#00614:14
#0061a:0000242400002400
#0071a:1400000000000024
#00715:00001313
#00718:0000000000130000
#00712:0000242400000024
#0081b:0000000000130000
#00818:00000013
#00815:0000000000000013
#00816:0024002400000000
#0081a:0024000000000000
#00812:0000002400000000
#00912:2413
#00918:00000013
#00915:0000000000000013
#0091b:0013
#0091a:24
#01018:00001313
#01015:0000000000131300
#0101b:00130000
#01115:00130013
#01118:0000000000000013
#0111b:1313
#01119:00130000
#01112:0013
#01418:0000001300001300
#01412:0013
#01415:0000000000130000
#01416:0014000000000013
#0141b:0000000013000013
#0151b:0013
#01512:0000000000001424
#01516:0014000013000014
#03715:0000131300000000
#03716:0000000000130000
#0371b:0000130000130000
#03718:0000001300000000
#0371a:24
#03712:24
#0371f:21
#03812:0000001300001300
#03815:0013
#03818:0000000000130000
#0381b:00000013
#03810:00410000
#04112:0000001313000000
#04116:0014
#0411b:0000000000000013
#04115:25
#04316:00140000
#04312:0000000013000024
#04315:0000000000130000
#04318:00000013
#0431b:0013
#0431a:0000240000000014
#04415:00000013
#04418:0014000000001300
#0441a:0000001400000000
#04414:0024000000000000
#04412:0000002400000000
#05318:0014000000001300
#05315:00000013
#0531a:0000001400000000
#05314:0024000000000000
#05312:0000002400000000
#0551b:0000001300000000
#05518:0000000013000013
#05515:0000000000130000
#05512:0000001300001300
#05617:0000131300000000
#05612:0000001300000014
#05616:1300000000140024
#0561b:13
#06012:2400000013000024
#06015:0000000000130000
#06018:00000013
#0601a:0000240014000014
#06016:00140000
#06118:0014000000000000
#0611a:0000001400000000
#06116:0000000000000014
#06114:0024000000000000
#06112:0000002400000000
#06110:0041
#06212:14241424
#06216:0000001424000000
#0621a:2400000000000014
#06312:14241424
#06318:0000000000140000
#0631a:2414
#06316:00140024
#06412:1313
#06416:00000013
#0641a:14241424
#06414:0000000000130000
#06418:0000000000000013
#0691b:00130000
#06915:2626260013001300
#06912:0000000000130000
#06918:0000001300001300
#07212:0000000013000013
#07218:0013000000130000
#07215:00000013
#0721b:0000001300000013
#07210:41
#07312:0013000000242400
#07315:00130000
#0731b:00001313
#07318:0000001300000013
#07612:1300000000140000
#0761b:1300131300000000
#0761a:0000000000000024
#07716:14140014
#0771a:0000001400000000
#07712:0024001400142400
#07915:0000000000130013
#07918:0024000000001300
#07914:0024000000000000
#07912:0000002400000000
#0791a:0000002400000000
#00112:2313000000000000
#00118:0000001300000000
#00115:0000000013130000
#0011b:2300000000000013
#00212:1313000000000000
#00218:0000001300000013
#0021b:0000000000130000
#00312:2313000000000000
#00318:0000001300000000
#00315:0000000013130000
#0031b:2300000000000013
#00412:1313000000006400
#00418:0000001300140000
#00415:0013
#00414:0000000000140000
#00419:00000000000000000000005400000000
#00413:00000000000000000000005400000000
#0041a:00000064
#0051a:14
#00512:2400242400002400
#00510:41
#01218:0013
#0121b:0000000000130000
#01215:00001313
#01212:0000130000000013
#0131b:1313
#01312:0000000013000013
#01318:0000000000130000
#01315:00000013
#01317:0000000000000013
#0161a:00140000
#01618:0014
#01616:00000014
#01716:0013
#0171b:0013
#01717:0000000000001313
#01712:0000000000000013
#0171a:24
#01710:41
#01818:00001313
#01815:00140000000000000000130013000000
#0181b:0000130000000013
#01812:0000000000000013
#02218:0000001300001300
#02212:0013
#02215:0000000000130000
#0221b:0000000013000013
#02216:0024000000000013
#0221a:0024000000000000
#02312:0024000013000000
#02317:0013
#0231a:0000000000001414
#02316:0024000000000014
#01916:0000130000001313
#0191b:0000130000000013
#01917:0013
#01912:0013
#02018:0013
#0201b:0000000000130000
#02015:00000013
#02012:0000130000000013
#02017:00140000000000000000000000000000
#0211b:1313
#02115:0000001300001300
#02118:0000000000130000
#02112:0000000013000013
#02117:0000000000000013
#02515:0000131300000000
#02518:0013
#02512:1400000000130000
#0251b:00000013
#02516:0000000000000013
#0251f:11
#0261b:0013000000001300
#02618:00132400
#02615:0000001300000000
#02612:0013
#02614:00000024
#02712:14140014
#0271a:14
#02716:0014
#0281a:14
#02816:14141414
#02812:0014
#02912:14000013
#0291a:14
#02918:0000131300000000
#02915:0013
#0291b:0000000000130000
#02917:0000000000000013
#03012:0013000000001300
#03015:00130000
#03018:0000001300002400
#0301b:0013
#03014:0024
#03112:25000015
#03116:0000000000000014
#0321a:24000014
#03216:0000000000000014
#03914:13
#03919:13
#0391b:0000131300000000
#03916:0000131300140014
#0391a:0000000000000024
#04012:00150000
#04013:0015
#04014:00000015
#04216:14001424
#0421b:13
#04212:0000001313000000
#0421a:00000014
#04518:0000131300000000
#04515:0000001300000000
#04512:2400130000130000
#04517:0000000000130000
#0461b:0000001300001300
#04618:0013
#04615:0000000000130000
#04612:00000013
#0491b:0000001313000000
#04916:2514
#04912:0000000000000013
#05116:00140000
#0511b:0013
#05118:0000000000130000
#05115:00000013
#05112:0000240013000014
#0511a:0000000000000024
#05110:41
#04719:13
#04714:13
#04712:0000131300000024
#04717:0000131300000000
#04716:0000000000140014
#05016:14001424
#05012:13000014
#0501b:0000001313000000
#05418:0000000013130000
#05415:0000000013130000
#0541a:0000240000000024
#05412:0000240000000024
#05716:00140000000000000000000014000000
#05714:0014
#0571a:00240000000000000000000024000000
#05718:0024
#05812:1400000024000013
#05817:0013
#0581b:0000001300000000
#05816:24
#05916:13000014
#0591a:24000014
#0591b:0000001300000000
#05917:0013
#05912:0024
#06512:2600000000140000
#06516:0000000026000014
#06514:00260000
#06518:00000026
#06812:14141414
#06817:0013000000130000
#0681b:0000001300000013
#07116:0000000000140000
#0711a:00000024
#07112:00000024
#0741b:0000000013000013
#07415:0013000000130000
#07418:00000013
#07412:0000001300000013
#07812:0000140000000024
#0781b:0013
#07818:0000000000130000
#07815:00000013
#0781a:0000000000000024
#07816:24240000
#02416:00141414
#0661a:14241424
#06616:0000001424000000
#06612:2400000000000014
#0671a:14241424
#06714:0000000000140000
#06712:2414
#06716:00000024
#00018:0000000000140000
#00014:00000000000000000000001400000000
#0001a:00000024
#03318:1300000013130000
#0331b:00130013
#03315:23
#03418:1300000013130000
#0341b:00130013
#0351a:1400140024000024
#03512:13000024
#03516:0000000000240024
#07515:0000001300000013
#0751b:0013000000000000
#07518:00130000
#07512:00001313
#0751a:0000000000242400
#0361b:0000001300000000
#03618:0013
#03615:0000000000130000
#03612:0024001300001300
#03616:0024000000000000
#04819:00150000
#04818:0015
#04817:00000015
#05214:0014000000000000
#05212:0000001400000024
#0521a:0000002400000014
#05218:0024000000000000
#08018:24
#08012:24
#0841c:62
#08058:54
#08052:34
#00654:64
#0075a:5400000000000014
#00752:0000000000000014
#00955:0000000000000053
#00952:1453
#0095a:14
#01055:00000053
#01158:0000000000000063
#0115b:0063
#0155b:0053
#01552:0014000000000054
#01556:0014000000000000
#02658:0014
#02654:00000014
#03652:0014000000000000
#03656:0014000000000000
#03756:0000000000530014
#03752:1400000000000014
#0375b:0000000000530000
#03758:0000005300000000
#0375a:14
#04356:14140000
#04352:1400000000000014
#0435a:0000140000000014
#05358:0014000000005300
#05355:00000063
#0535a:0000001400000000
#05354:0014000000000000
#05352:0000001400000000
#05657:0000005300000000
#05652:0000000000000064
#05656:5300000000140054
#0565a:0000000000140000
#0605a:0000140000000014
#06056:14140000
#06052:1400000000000014
#06158:0014000000000000
#0615a:0000001400000000
#06152:0000001400000000
#06154:0014000000000000
#06452:63
#06552:16
#06554:00160000
#06556:0016
#06558:00000016
#06958:00000053
#06955:00000063
#07652:5300000000140000
#0765b:0000006300000000
#0785a:1400000000000014
#07852:0000140000000014
#07856:14140000
#07954:0014000000000000
#07952:0000001400000000
#0795a:0000001400000000
#07958:0014000000000000
#0055a:54
#00856:0014001400000000
#0085a:0014000000000000
#00852:0000001400000000
#01258:0063
#0125b:0000000000230000
#01255:00000053
#01252:0000000000000023
#0165a:00140000
#01658:0014
#01656:00000054
#0175a:14
#01756:0063
#01752:1400000000000063
#01855:00240000000000000000000053000000
#01852:0000000000000023
#01858:00000063
#0185b:0000000000000023
#02352:0014000063000000
#02356:0014000000000064
#02058:0063
#0205b:0000000000230000
#02055:00000053
#02052:0000530000000023
#02057:00240000000000000000000000000000
#0215b:13
#02155:13
#02157:0000000000000053
#01957:0053
#0195b:0000000000000053
#01955:13
#01958:13
#02556:0000000000000063
#0255a:14
#02856:54146414
#02957:0000000000000053
#03054:0014
#03058:00000014
#03956:0000005300140000
#03952:0000000000140000
#0395a:0000000000000054
#04052:00150000
#04053:0015
#04054:00000015
#0425b:53
#0425a:00000054
#04256:00000054
#04458:0014000000005300
#0445a:0000001400000000
#04454:0014000000000000
#04452:0000001400000000
#04555:0000006300000000
#04552:1400000000630000
#04557:0000000000630000
#04556:0000000000000014
#0455a:0000000000000014
#05156:14140000
#05152:0000140000000014
#0515a:1400000000000014
#04757:0000006300000000
#04756:0000000000140000
#0475a:0000000000140000
#04752:0000000000000064
#05052:63000064
#05056:00000064
#0545a:0000140000000014
#05452:0000140000000014
#05455:0000000000530000
#05458:0000000000630000
#05756:00240000140000000000000014000000
#0575a:00240000000000000000000014000000
#05752:00140000
#05754:0014
#05758:0014
#05856:14
#05852:1414
#05956:63
#0595a:14000064
#05952:0014
#0625a:14
#06256:0014
#0715a:00000014
#07152:00000014
#0725b:0000000000000053
#0775a:0000006400000000
#07756:00000064
#07752:00000014
#0045a:00000044
#00452:00000034
#01357:0000000000000053
#0135b:13
#01355:13
#02456:00645464
#03355:53
#06652:14
#06656:0014
#06752:00140000
#06756:00000014
#06356:00000014
#0635a:14
#0005a:00000044
#01456:0014000000000063
#0145a:0014000000000000
#02256:0014000000000053
#0225a:0014000000000000
#02752:00000014
#03552:53
#0355a:0000000000000014
#03556:0000000000000014
#07452:0000000000000063
#04155:15
#0415a:14
#04859:00150000
#04858:0015
#04857:00000015
#04956:15
#04952:14
#05254:0014000000000000
#05252:0000001400000014
#05258:0014000000000000
#0525a:0000001400000014
#002350:0000000013230000
#002320:0000000000001323
#0053a0:14
#006380:23
#006341:14
#007321:23
#0073a0:14
#007380:0024
#009320:0013
#009350:00000023
#009350:0000000000000013
#010320:00230000
#010350:00000013
#011320:23
#0113b0:0013
#011380:00000023
#011380:0000000000000013
#0123b0:00230000
#012380:00001323
#0123b0:0000000000530000
#012351:00000013
#012321:0000000000000053
#013351:23
#013371:0000000000000013
#0143a1:0024000000000000
#014361:0000000000000013
#015321:0024000000000000
#0153b1:0013
#015361:00000024
#015321:0000000000000014
#016361:00340000
#016341:0034
#016321:00000034
#017321:24
#016360:00000014
#0173a0:24
#017360:0013
#017320:00000023
#017320:0000000000000013
#018350:00540000000000000000000000000000
#018320:00230000
#018350:00000013
#018320:0000000000000053
#019350:23
#018381:00000013
#0183b1:0000000000000053
#019381:23
#019371:0013
#0193b1:00000023
#0193b1:0000000000000013
#020371:00540000000000000000000000000000
#0203b1:00230000
#020320:00130000
#020350:0023
#020381:00001323
#0203b1:0000000000530000
#020350:00000013
#020320:0000000000000053
#021350:23
#021370:0000000000000013
#0223a0:0024000000000000
#022360:0000000000000013
#023320:0024000000000000
#023320:0013
#023360:00000024
#023360:0000000000000014
#024320:00240000
#024361:00140000
#0243a1:0024
#024360:0014
#024320:00000024
#024361:00000014
#0253a1:24
#025361:0000000000000013
#026321:0023000000000000
#027361:00140024
#0273a1:0034
#028361:14
#028321:00240000
#028361:0014
#0283a1:00000024
#029371:0000000000000013
#0303b1:0023000000000000
#031371:13
#0313b1:0053230000000000
#031320:00130000
#031360:0000005323000000
#0313b1:0013
#031371:0000000000532300
#032361:14
#032321:0054240000000000
#032360:00140000
#0323a0:0000005424000000
#032321:0014
#032361:0000000000542400
#033351:13
#035321:33
#035361:0024
#037381:0000001300000000
#0373b1:0000000000330000
#037361:0000000000000024
#037360:0000000000130000
#037320:0000000000000024
#039360:0000001300000000
#039320:0000000000240000
#0393a0:0000000000000014
#040370:00340000
#040380:0034
#040390:00000034
#0413a0:24
#0423b0:13
#042360:0000002400000000
#0423a0:00000014
#043360:24
#042361:00000014
#043321:24
#044381:00000013
#0453a1:24
#045351:0000001300000000
#045321:0000000000330000
#045361:0000000000000024
#045370:0000000000130000
#0453a0:0000000000000024
#047370:0000001300000000
#0473a0:0000000000240000
#047320:0000000000000014
#048350:00340000
#048340:0034
#048330:00000034
#049320:24
#050320:13
#050360:0000002400000000
#050320:00000014
#051360:24
#050361:00000014
#0513a1:24
#053381:00000013
#0543a1:34240000
#053350:00000013
#054320:34240000
#054350:0000000000130000
#054320:0000000000000024
#054381:0000000000130000
#0543a1:0000000000000024
#056361:13
#056321:00230000
#056371:0000001300000000
#0563a1:0000000000240000
#056321:0000000000000014
#057361:00540000000000000000000000000000
#057321:00240000
#056360:0000000000000014
#0573a0:00540000000000000000000000000000
#057360:00240000
#059360:13
#059320:0000002300000000
#0593a0:00000014
#060360:24
#064320:13
#064360:00230000
#067320:14240000
#069380:00000013
#0713a0:0024
#069351:00000013
#071321:0024
#072321:1323000000000000
#072351:0000132300000000
#0723b1:0000000000000013
#073371:0023000000000000
#0743b1:1323000000000000
#074381:0000132300000000
#074321:0000000000000013
#075361:0023000000000000
#076321:13
#076361:0000002300000000
#0763b0:0000001300000000
#076370:0000000000230000
#0773a0:0000001400000000
#077360:0000000000240000
#077360:00000014
#0783a0:24
#080380:14
#0843c0:22
#004980:0000000000140000
#0049a0:00000024
#004941:0000000000140000
#004921:00000024
