This file was generated by Ched 2.7.0.0.
#TITLE ""
#ARTIST ""
#DESIGNER ""
#DIFFICULTY 0
#PLAYLEVEL
#SONGID ""
#WAVE ""
#WAVEOFFSET 0
#JACKET ""
#REQUEST "ticks_per_beat 480"
#00002: 4
#BPM01: 192
#00008: 01
#TIL00: ""
#VOLUME: ""
#HISPEED 00
#MEASUREHS 00
#01312:13
#0131b:13
#01318:00001313
#01315:0000000000130013
#00514:14
#00510:41
#00618:14
#00712:1400000000000024
#00714:0014
#00818:0000000000130013
#00815:00000013
#0081a:0024000000000000
#00812:0000002400000000
#00115:0013
#00118:0013001300130013
#00112:26
#00215:1313001300130000
#00218:0000000013000013
#00318:0013001300130013
#00315:0013
#00312:26
#00412:0013130000000000
#0041b:0000001300000000
#00415:0000000013130000
#00418:13000026
#0091b:0013
#00915:23000013
#00918:0000000000000013
#00912:0013
#01015:00001313
#01018:0000000000130000
#01118:0000000013000013
#01115:00000013
#0141b:0000001300000000
#01415:00001313
#01418:0000000000130013
#01512:0013
#01518:0000000000000013
#01712:0013
#01718:00000013
#01715:0000000000000013
#0171b:0013
#01710:41
#01818:00001313
#01815:0000000000130000
#01915:0000000013000013
#01918:00000013
#0211b:1300000000000013
#02112:13000013
#02118:0000001300130000
#02115:0013
#02215:0000001300130000
#02218:0023000013000000
#0221b:00000013
#02212:0000000000000013
#0231b:0013
#02315:0023000000001300
#02318:0000000000000013
#02515:13
#0251f:11
#02618:13
#0261a:0024
#02612:00000024
#0271b:13
#02812:13
#0291b:13
#02918:00130000
#03012:1324
#03015:00130000
#0301a:00000024
#03115:00130000
#03118:0013
#0311b:00000013
#03112:23
#03215:00130000
#03218:0013
#0321b:00000013
#03212:23
#03715:00130000
#03718:0000001300000000
#0371a:24
#03712:24
#0371f:21
#03815:0000001300130000
#03818:0013
#0381b:00000013
#03810:00410000
#03912:13
#03918:00130000
#03915:0000001300000000
#0391b:0000000000000013
#04115:0000001300000000
#04118:0013
#04112:0000000000000013
#04218:13
#04215:0000001300000000
#0421b:0013
#0431a:00140000
#04315:00001313
#04318:0000000000130014
#04415:00000013
#04413:0015000000000000
#04418:0000001600000000
#04518:00130000
#04515:0000001300000000
#0451a:24
#04512:24
#04618:0000001300130000
#04615:0013
#04612:00000013
#0471b:13
#04715:00130000
#04718:0000001300000000
#04712:0000000000000013
#04918:0000001300000000
#04915:0013
#0491b:0000000000000013
#05015:13
#05018:0000001300000000
#05012:0013
#05112:00140000
#05118:00001313
#05115:0000000000130000
#05114:0000000000000014
#05110:41
#05315:00000013
#05312:0026000000000000
#05318:0000002600000000
#05415:0000001300000023
#05412:0000000000130000
#05418:00130000
#05518:0000001300130000
#05515:0013
#05512:00000013
#0551b:0000000000000013
#05615:1300001300000000
#05618:00130000
#0561b:0000000000000013
#05612:0000000000230000
#05815:0000001300000000
#05818:2413
#05812:0000000000000013
#05918:13
#05915:0000001300000000
#0591b:0013
#0601a:00140000
#06015:00001313
#06018:0000000000130026
#06118:0000002600000013
#06112:0026000000001400
#06110:0041
#06215:0000001300000000
#06218:0000000000000013
#0621a:00142400
#06212:24000014
#06318:0013
#06315:0000000000130000
#0631b:00000013
#06312:24
#06412:1300000000000013
#0641b:0013
#06415:0000000000130000
#06418:00000013
#0681b:0013001300000013
#06815:00130000
#06812:00001313
#06818:0000000000130000
#06915:0013000000001300
#0691b:0000131300000000
#06912:0013
#06918:0000000000130000
#07118:0000000000140000
#07114:00000024
#0721b:1313
#07215:0013001300130000
#07218:00130013
#07212:0000000000000013
#07210:41
#0731b:0013001300000013
#07315:00130000
#07312:0013
#07318:0000000000240000
#07314:00000024
#07412:1313
#07418:0013001300130000
#07415:00130013
#0741b:0000000000000013
#07512:0013001300000013
#07518:00130024
#0751b:0013
#07514:0000000000240000
#07612:0000000000000013
#07616:0000001300000000
#0761a:00001414
#07614:0000000000130000
#07718:0013000000130000
#07715:0000001300001300
#07815:0013000013000000
#07818:0000000000130000
#0781a:14140000
#0781b:00000013
#07812:0000001300000026
#01218:0013
#01215:00000013
#02015:0013
#02018:00000013
#04017:00130000
#0401a:0013
#04018:00000013
#04816:00130000
#04813:0013
#04815:00000013
#05717:00140000
#05719:0014
#05716:00000014
#06618:0000001300000000
#06615:0000000000000013
#06612:00142400
#0661a:24000014
#06715:0013
#06718:0000000000130000
#06712:00000013
#0671a:24
#03612:0000001300000000
#03615:0013
#03618:0000000000130000
#0361b:00000013
#03619:0025000000000000
#02415:0013
#02418:00000013
#05218:0015000000000026
#05212:0000001600000000
#07918:0026000000000013
#07915:00000013
#0791b:0000000000130000
#07912:0000002600000000
#08014:24
#03512:0000000000000025
#03518:00002323
#03515:0000000000230000
#0651a:24
#06514:00240000
#06518:0024
#06512:00000024
#0331b:23
#03312:23
#08412:63
#08054:64
#00458:00000016
#00554:64
#00658:54
#00752:6400000000000014
#00754:0054
#0085a:0014000000000000
#00852:0000001400000000
#00958:0000000000000063
#01055:00000053
#01158:0000000000000063
#01355:0000000000000053
#01458:0000000000000063
#01452:0013000000000000
#01552:0063
#01558:0000000000000063
#0155b:0013000000000000
#01757:13
#01755:0000000000000053
#01858:00000063
#0215b:0000000000000053
#02252:0000000000000063
#02258:0013000000000000
#02358:0000000000000053
#02355:0013000000000000
#02555:53
#02552:0014
#02658:63
#0265a:0014
#02652:00000014
#0275b:53
#02758:0014
#02852:63
#02854:0014
#0295b:63
#02958:00230000
#0295a:0044
#03052:5334
#03055:00230000
#0305a:00000044
#03552:0000000000000015
#03659:0015000000000000
#0375b:0000000000000013
#03758:0000005300000000
#03752:14
#0375a:14
#03955:0000006300000000
#0395b:0000000000000053
#03952:0000000000130000
#0415b:13
#04352:14
#0435a:00140000
#04358:0000000000000014
#04555:0000006300000000
#04552:1400000000000013
#0455a:14
#04758:0000005300000000
#0475b:0000000000130000
#04752:0000000000000063
#05152:00140000
#0515a:14
#05154:0000000000000014
#05258:0015000000000016
#05252:0000001600000000
#05352:0016000000000000
#05358:0000001600000000
#05355:00000063
#05455:0000006300000013
#05452:1300000000630000
#05655:0000006300000000
#0565b:0000000000000053
#05652:0000000000130000
#0605a:00140000
#06052:14
#06058:0000000000000016
#06252:14
#0625a:0014
#06352:00140000
#06452:63
#0655a:14
#06554:00140000
#06558:0014
#06552:00000014
#06955:00000063
#07852:0000000000000016
#07958:0016000000000000
#07952:0000001600000000
#0335b:53
#03352:63
#01955:0000000000000053
#04057:00530000
#0405a:0053
#04058:00000053
#0385b:00000013
#04652:00000013
#04856:00630000
#04853:0063
#04855:00000063
#04952:13
#05759:0054
#05757:00540000
#05756:00000054
#05858:14
#0665a:14
#06652:0014
#0675a:00140000
#06152:0016000000000000
#06158:0000001600000000
#04453:0015000000000000
#04458:0000001600000000
#005340:14
#006320:24
#006381:14
#0073a1:24
#007320:1400000000000024
#007340:0034
#009380:0000000000000013
#0103b0:00230000
#010350:00000013
#011320:23
#011380:0000000000000013
#0123b0:00230000
#013350:0000000000000013
#014320:0023000000000000
#014380:0000000000000013
#0153b0:0023000000000000
#015320:0013
#015350:00000023
#015380:0000000000000013
#0163b0:00330000
#016390:0033
#016370:00000033
#017370:23
#017350:0000000000000013
#018320:00230000
#018380:00000013
#0193b0:23
#019350:0000000000000013
#020320:00230000
#0213b0:0000000000000013
#022380:0023000000000000
#022320:0000000000000013
#023350:0023000000000000
#023380:0000000000000013
#0243b0:00230000
#025350:13
#025320:0000005424000000
#026380:13
#0263a0:0000005424000000
#0273b0:13
#027380:0000005424000000
#028320:13
#028340:0000005424000000
#0293b0:13
#029380:00530000
#0293a0:0024
#030320:1324
#030350:00530000
#0333b0:13
#035380:24
#033321:13
#035341:24
#037381:0000001300000000
#0373b1:0000000000330023
#039351:0000001300000000
#039321:0000000000230000
#0393b1:0000000000000013
#040371:00330000
#0403a1:0033
#040381:00000033
#0413b1:23
#042321:00000014
#043321:24
#045351:0000001300000000
#045321:0000000000330023
#047381:0000001300000000
#0473b1:0000000000230000
#047321:0000000000000013
#048361:00330000
#048331:0033
#048351:00000033
#049321:23
#0503a1:00000014
#0513a1:24
#053351:00000013
#054321:23
#054351:0000001300000023
#054321:0000000000330000
#056351:0000001300000000
#056321:0000000000230000
#0563b1:0000000000000013
#057371:00340000
#057391:0034
#057361:00000034
#058381:24
#059321:00000014
#060321:24
#063321:14240000
#064321:13
#064351:00230000
#0673a1:14240000
#069351:00000013
#071321:0023
#0763a1:14240000
#080341:14
#084321:23
