This file was generated by Ched 2.7.0.0.
#TITLE ""
#ARTIST ""
#DESIGNER ""
#DIFFICULTY 0
#PLAYLEVEL
#SONGID ""
#WAVE ""
#WAVEOFFSET 0
#JACKET ""
#REQUEST "ticks_per_beat 480"
#00002: 4
#BPM01: 192
#00008: 01
#TIL00: ""
#VOLUME: ""
#HISPEED 00
#MEASUREHS 00
#0071a:1400000000000000000000000000000000000000000000001400000000640000
#00716:0000000000140024
#00712:2400242414000024
#00718:00000000000000000000000000000000000000000000000000000000000000000000000000000000000000000000000000000000000000000064000000000000
#0081b:0000000000130000
#00818:00000013
#00815:0000000000000013
#00812:0000000000640000000000002400000000000000140000000000000000000000
#0081a:0024002400000000
#00816:0024000000000000
#00814:00000000000000000064000000000000000000000000000000000000000000000000000000000000000000000000000000000000000000000000000000000000
#01412:0014000013000014
#01415:0000000000130000
#01418:00000013
#01417:0013
#0141b:0000000000000013
#01416:14
#0141a:0000001400000000
#01413:00220022
#0151b:00221300
#01512:0000001400001324
#01516:1400000013000024
#0151a:0014000000000000
#01514:0000000000130000
#03819:0000001300000000
#03812:0024240013001300
#0381b:0013
#03815:0000000000130000
#03818:00000013
#03810:00410000
#04316:00141400
#04318:0000000000140026
#0431a:00240014
#0761b:1300000000130000
#07612:1300131300000000
#07616:00000014000000000014000000002400
#07712:0024001400140000
#07716:0014
#0771a:0000000000141400
#00516:14
#00512:2400242400002400
#00510:41
#01312:0000130013000013
#0131b:00221322
#01318:0000000000130000
#0131a:0000000000000014
#01319:15
#01315:00000013
#0231b:0013000013000000
#02312:0000000013000024
#02316:0000240000000024
#02318:00000000000000000000000000000000000000000000000000000000000000000000000000000000000000000000000000000000000000000064000000000000
#0231a:0000000000000000000000000000000000000000000000000000000000640000
#02314:00000000000000000000000000000000006400000000000000000000000000000000000000000000000000000000000000000000000000000000000000000000
#0171b:00130000
#01717:0013
#01712:6400000013130013
#01716:00240024
#01710:41
#01714:00000000000000000000000000000000006400000000000000000000000000000000000000000000000000000000000000000000000000000000000000000000
#01718:00000000000000000000000000000000000000000000000000000000000000000000000000000000000000000000000000640000000000000000000000000000
#0201b:00130000
#02017:0013001300000000
#02012:0013000014000000
#02016:0000240000142400
#02014:00000000000000000000000000000000006400000000000000000000000000000000000000000000000000000000000000000000000000000000000000000000
#02018:00000000000000000000000000000000000000000000000000000000000000000000000000000000000000000000000000640000000000000000000000000000
#03916:00000014
#03912:1300002400140000
#0391a:24140000
#03917:0000001300000000
#0391b:0000000000000013
#0421a:14141414
#04212:0000131300000000
#04216:00000024
#07114:0000000000180000
#07112:2600002c
#07118:26
#0721b:0013000000001300
#07212:0000130013000013
#07218:13
#07215:0000001300000000
#07217:0000000013000013
#07214:0000000000180000
#07216:00000013
#07210:41
#07518:0000000000132613
#07512:0000130013260000
#07516:0000001300000000
#07515:00000000000000000000000013000013
#0751b:0013
#00016:0000000000120000
#00018:00000000000000000000001200000000
#0001a:00000014
#00012:00000024
#0011a:1400242400002400
#00117:12121212
#00412:1400242400001400
#00417:12121200
#00418:0000000000120000
#00416:00000000000000000000001200000000
#0041a:00000024
#00616:14
#0061a:2400242400002400
#00912:13
#00917:0000130000000013
#00916:0013
#0091b:0000000013130000
#00918:26
#00913:00220022
#01612:0000002400140000
#0161a:0024000000142400
#01616:0024002400000064
#01613:0000000000000000000000000000000000000000000000000000000000000064
#01614:00000000000000000000000000000064
#01615:0000000000000000000000000000000000000000000000000000000000640000
#01617:0000000000000000000000000000000000000000000000000000006400000000
#01618:00000000000000000000000000640000
#01619:0000000000000000000000000000000000000000000000000064000000000000
#0181b:0013130013000000
#01816:0000240014142400
#01812:0000000000131300
#01814:00000000000000000000000000000000006400000000000000000000000000000000000000000000000000000000000000000000000000000000000000000000
#01818:00000000000000000000000000000000000000000000000000000000000000000000000000000000000000000000000000640000000000000000000000000000
#0191b:00130000
#01912:0000000013130013
#01917:0013
#01916:00240024
#01914:00000000000000000000000000000000006400000000000000000000000000000000000000000000000000000000000000000000000000000000000000000000
#01918:00000000000000000000000000000000000000000000000000000000000000000000000000000000000000000000000000640000000000000000000000000000
#02112:1500000013000013
#0211b:0000130000000013
#02119:1500001300000000
#02116:00241424
#02114:00000000000000000000000000000000006400000000000000000000000000000000000000000000130000000000000000000000000000000000000000000000
#02118:00000000000000000000000000000000000000000000000000000000000000000000000000000000000000000000000000640000000000000000000000000000
#02415:0000000000130000
#02418:00000000000000000000000000000000000000000000000000640000000000000000000000000000000000001300000000000000000000000000000000000000
#0241a:0000000024000000000000000064000000000000000000001400000000000000
#02412:0000000000640000000000002400000000000000000000000000000000000000
#02416:0024002400000000
#02414:00000000000000000064000000000000000000000000000000000000000000000000000000000000000000000000000000000000000000000000000000000000
#0311a:00140000
#03116:24001414
#03112:1414
#03212:14001414
#0321a:14140000
#03216:0014
#03218:0000000000000013
#03215:00000000000000000000000000000013
#03312:13130013
#03316:0000000013130000
#03315:0000000000000013
#03318:00000000000000000000000000000013
#0331a:14141414
#0341b:13130013
#03417:0000000013130000
#03418:0000000000000013
#03415:00000000000000000000000000000013
#03412:14141414
#03512:1400140024272a2c
#0351b:13
#03717:13
#03716:0000132400240024
#0371b:0000001300000013
#03712:2400000000000000000000000054000000000000130000000000000000540000
#0371f:21
#03714:00000000000000000000000000000000000000000000000000540000000000000000000000000000000000000000000000000000000000000054000000000000
#03718:00000000000000000000000000000000000000000000000000000000000000000000000000000000005400000000000000000000000000000000000000000000
#0371a:0000000000000000000000000000000000000000005400000000000000000000
#04112:24141414
#0411a:24000014
#04117:0000131300000000
#04116:0000000000000013
#04418:0016
#04416:00000000000000000000000000000013
#04414:00000013
#04417:00000000000000000000001300000000
#04412:0000002600130000
#04419:0000000000000013
#04415:0026000000000000
#05112:0014000014000000
#0511a:0000000000140024
#05116:0024000024240024
#05110:41
#05218:0024000000130000
#05215:00000013
#05214:0024000000000000
#05216:0000002400000024
#05212:0000002400000024
#05616:0000001400001414
#05612:1400002400140000
#0561a:2400140000000024
#05714:00000000000000000000000000140014
#05718:0000000000002614
#05715:0026
#05712:000000000000000000000000000000000000000000000000000000000000000000000000000000000000000000000000000000000000000000000000000000000000000000000000000000000000000000000000000000000000000000000000000000000000000000000000000000000000000000000000000000000000000000000000000000000000000000000000000000000000000000000000000000000000000000000000000000000000000000000000000000000000000000000000000000000000000000000000000000000000000000000000000000000000000000000000000000000000000000000000000000000000000000000000000000000000000000000000000000000000000000000000000000000000000000000000000000000000000000000000000000000000000000000000000000000000000000000000000000000000000000000000000000000000000000000000000000000000000000000000000000000000000000000000000000000000000000000000000000000000000000000000000000000000000000000000000000000000000000000000000000000000000000000000000000000000000000000000000000000000000000000000000000000000000000000000000000000000000000000076000000000000000000000000000000000000000000000000000000000000000000000000000000000000000000000000000000000000000000000000000000000000000000000000000000000000000000000000000000000000000000000000000000000000000000000000000000000000000000000000000000000000000000000000000000000000000000000000000000000000000000000000000000000000000000000000000000000000000000000000000000000000000000000000000000000000000000000000000000000000000000000000000000000000000000000000000000000000000000000000000000000000000000000000000000000000000000000000000000000000000000000000000000000000000000000000000000000000000000000000000000000000000000000000000000000000000000000000000000000000000000000000000000000000000000000000000000000000000000000000000000000000000000000000000000000000000000000000000000000000000000000000000000000000000000000000000000000000000000000000000000000000000000000000000000000000000000000000000000000000000000000000000000000000000000000000000000000000000000000000000000000000000000000000000000000000000000000000000000000000000000000000000000000000000000000000000000000000000000000000000000000000000000000000000000000000000000000000000000000000000000000000000000000000000000000000000000000000000000000000000000000000000000000000000000000000000000000000000000000000000000000000000000000000000000000000000000000000000000000000000000000000000000000000000000000000000000000000000000000000000000000000000000000000000000000000000000000000000000000000000000000000000000000000000000000000000000000000000000000000000000000000000000000000000000000000000000000000000000000000000000000000000000000000000000000000000000000000000000000000000000000000000000000000000000000000000000000000000000000000000000000000000000000000000000000000000000000000000000000000000000000000000000000000000000000000000000000000000000000000000000000000000000000000000000000000000000000000000000000000000000000000000000000000000000000000000000000000000000000000000000000000000000000000000000000000000000000000000000000000000000000000000000000000000000000000000000000000000000000000000000000000000000000000000000000000000000000000000000000000000000000000000000000000000000000000000000000000000000000000000000000000000000000000000000000000000000000000000000000000000000000000000000000000000000000000000000000000000000000000000000000000000000000000000000000000000000000000000000000000000000000000000000000000000000000000000000000000000000000000000000000000000000000000000000000000000000000000000000000000000000000000000000000000000000000000000000000000000000000000000000000000000000000000000000000000000000000000000000000000000000000000000000000000000000000000000000000000000000000000000000000000000000000000000000000000000000000000000000000000000000000000000000000000000000000000000000000000000000000000000000000000000000000000000000000000000000000000000000000000000000000000000000000000000000000000000000000000000000000000
#0551b:0000001313000000
#05516:0000000024142414
#05512:0000000024000000240000000000000000640000000000001300000000000000
#05515:0000000000000000000000000000000000000000000000000000000000000000000000000000000000000000000000000000000000000000000000000000000000640000000000000000000000000000000000000000000000000000000000000000000000000000000000000000000000000000000000000000000000000000
#05514:00000000000000000000000000000000000000000000000000000000000000000064000000000000000000000000000000000000000000000000000000000000
#05513:0000000000000000000000000000000000000000000000000000000000000000000000000000000000000000000000000000000000000000000000000000000000000064000000000000000000000000000000000000000000000000000000000000000000000000000000000000000000000000000000000000000000000000
#05517:0000000000000000000000000000000000000000000000000000000000000000000000000000000000000000000000000000000000000000000000000000000000000000000000000000000000000000000000000000000000000000000000000064000000000000000000000000000000000000000000000000000000000000
#05518:00000000000000000000000000000000000000000000000000000000000000000000000000000000000000000000000000640000000000000000000000000000
#05519:0000000000000000000000000000000000000000000000000000000000000000000000000000000000000000000000000000000000000000000000000000000000000000000000000000000000000000000000000000000000000000000000000000006400000000000000000000000000000000000000000000000000000000
#0551a:0000000000000000000000000000000000000000000000000064000000000000
#06012:0000150000001426
#06016:0014
#06014:0000000000140000
#06019:00250000
#0591a:14140014
#05918:0000001400000000
#05912:28141424
#05915:00000000000000140000000000000000
#05916:0000000028140000
#06112:0029002c16000000
#06118:0000000000131600
#06115:00000000000000000000001300001600
#06110:0041
#06214:14141400
#06213:00000014
#06216:0000001400000014
#06218:26262626
#06312:00141414
#06313:14
#06316:0000000000140000
#06318:26262626
#06515:0000000013130016
#06518:00000000000000000013001300000000
#0651a:14
#06512:2814002c
#06516:00280000
#0691a:14
#06919:0015000000000000
#06918:00160022
#06912:2425260000000000
#06916:00000022
#0731b:00131300
#07317:0000001300000000
#07312:00001326
#07318:0000000000261313
#07315:00000000000000000000130000000013
#07412:0013000000001300
#0741b:0000130013000013
#07418:0000001300000000
#07416:0000000013000013
#07414:0000000000180000
#07417:00000013
#07812:1400140000140024
#0781a:1400000014000024
#07815:00001300000000130000000000000000
#07818:00000013000013000000000000000000
#07816:00000014
#07912:0000001400000000
#0791a:0000002400140000
#07919:00000014
#07918:0024000000000014
#07914:0024000000000000
#05416:0000000000140014
#05412:64261400
#0541a:00000014
#05418:00260000
#06418:1400000014000014
#06416:0000000000140000
#0641a:00000014
#06412:26262626
#04015:00000000000000000000000000130013
#04018:0000000000001313
#04016:00141300
#04012:00240000
#0401a:0024
#05816:0000001428000014
#05812:16141414
#0581a:00140014
#05818:26
#0681a:1414
#06816:0014281400142814
#06812:28142814
#00212:1400242400002400
#00217:12121212
#0031a:1400242400002400
#00317:12121212
#01017:0013000000000000
#0101b:0000130000130000
#01012:0013
#01016:0000000014140000
#01013:00220022
#01116:0000130000000013
#01117:0013
#01112:1300000013130000
#0111b:00220022
#01212:00130015
#01216:0013001300140015
#0121a:0014
#0121b:00220000
#03616:0000001400000000
#0361a:0014
#03612:002c000014000000
#02212:0013000013001313
#0221b:0000130000000013
#02216:0000241414142400
#02214:00000000000000000000000000000000006400000000000000000000000000000000000000000000000000000000000000000000000000000000000000000000
#02218:00000000000000000000000000000000000000000000000000000000000000000000000000000000000000000000000000640000000000000000000000000000
#0301a:14000014
#03012:00001425
#03016:0000001200000000
#03014:12
#03018:00120000
#03019:0025
#06618:14141400
#06619:00000014
#06616:0000001400000014
#06612:26262626
#0671a:00141414
#06719:14
#06716:0000000000140000
#06712:26262626
#02819:00120012
#0281b:0012
#02813:00120012
#02817:0000000000120000
#02815:0012
#02818:00000000000000000000000000000012
#02816:0000000000000012
#0271b:0012
#02717:0000000000120012
#02715:0012
#02719:1200001200000000
#02713:12
#02912:1414
#02918:0000001200001200
#0291a:1412
#02916:0000120000000012
#02612:14002514
#0261a:1214
#02618:0000001200000000
#02616:00120000
#02619:00000025
#0251a:0014
#02516:1400001200001200
#02514:0012
#02518:0000120000000012
#0251f:11
#04614:0000001300000000
#0461b:00001313
#04612:0013
#04618:0000000000130000
#04615:00000013
#0461a:0024240000000000
#04716:0000001300001400
#0471b:13
#04712:2400140000000013
#0471a:0000002400140000
#05012:14141414
#0501b:0000131300000000
#05016:00000024
#04516:1300002400240024
#04517:00130000
#04512:0000000000000000000000001300000000000000005400000000000013000000
#0451b:0000000000130000
#0451a:2400000000000000000000000054000000000000000000000000000000540000
#04518:00000000000000000000000000000000000000000000000000540000000000000000000000000000000000000000000000000000000000000054000000000000
#04514:00000000000000000000000000000000000000000000000000000000000000000000000000000000005400000000000000000000000000000000000000000000
#0491a:24141414
#04912:24000014
#04916:0000131300000000
#04917:0000000000000013
#04818:00000000000000000000000000130013
#04815:0000000000001313
#04816:00140000
#04817:0013
#0481a:00240000
#04812:0024
#08017:24
#08012:25
#05312:0024
#05314:00002400000000000064000000000064
#05318:00002400000000000000006400640000
#05316:0000002400640064
#0531a:0000002400006400
#05313:0000000000000000000000000000000000640000000000000000000000000064
#05315:0000000000000000000000000000000000000064000000000000000000640000
#05317:0000000000000000000000000000000000000000006400000000006400000000
#05319:0000000000000000000000000000000000000000000000640064000000000000
#0841c:62
#08057:54
#08052:35
#0075a:54
#00752:1400000000000034
#0155b:0053
#01556:2400000000000014
#01552:0034000000000014
#04352:14
#04356:14140000
#0435a:00140000
#04358:0000000000000036
#0765b:63
#07656:00000024000000000024000000003400
#07652:0000005300000000
#0785a:1400000014000014
#07852:0000140000140014
#07954:0014000000000000
#0795a:0000001400000000
#07958:0014000000000000
#07952:0000005400000000
#00556:54
#00552:14
#0235b:0053
#02352:0000000063000014
#0205b:00530000
#02057:0000002300000000
#02052:0064
#02056:0000000000240000
#0425a:00000054
#04256:00000054
#04252:1400005300000000
#04255:0014
#07152:2600001c
#07158:26
#07752:0034006400640000
#07756:00002414
#0775a:00000014
#0015a:14
#00656:64
#0065a:14
#0085a:0044004400000000
#00852:0000003400000000
#01456:24
#0145a:0044000000000000
#01452:0000000000000064
#0135a:0000000000000054
#01359:45
#01352:35
#0165a:0014000000000000
#01656:0014001400000000
#01652:0000001400000000
#0245a:0014000000000000
#02452:0000001400000000
#0255a:14
#02556:14
#0315a:00640000
#03156:00006464
#03152:5434
#03252:6434
#0325a:44640000
#03256:0064
#0355b:53
#03552:000000000000001c
#0335a:44444444
#03452:34343434
#03757:53
#0375b:0000005300000053
#03752:3400000000630000
#03756:0000003400440034
#03858:00000053
#03952:6300003400000000
#03957:0000005300000000
#0395b:0000000000000053
#0395a:44
#0415a:1414
#04157:0000005300000000
#04156:0000000000000063
#04455:0036000000000000
#04452:0000003600000000
#05652:6400003400000000
#05656:0000005400000054
#0565a:4400000000000054
#05752:00460000
#05755:0046
#05858:46
#05856:0048
#06052:1400150000000046
#06059:00150000
#0605a:14
#0595a:00000054
#05952:38000054
#05956:0048
#06152:0049004c00000000
#06352:00140014
#06353:14
#06552:3800001c
#06556:00480000
#07257:0000000000000063
#07456:0000000000000053
#00052:00000034
#05456:0000000000000054
#05452:34360000
#05458:00460000
#06458:54
#0645a:00140000
#06956:00000052
#06958:00000052
#02152:35
#0215b:0000000000000063
#02159:45
#04056:00646300
#04052:00140000
#0405a:0014
#0515a:0000000000000014
#05156:0000000000000014
#06254:1414
#00252:14
#0035a:14
#0045a:00000044
#00452:14
#01156:14
#01252:00630065
#01256:0000002300240025
#0125a:0054
#01752:34
#03652:001c000034000000
#0365a:0044
#01956:14
#01852:00000063
#02252:0000000000000053
#05258:0014000000000000
#05254:0014000000000000
#05256:0000001400000014
#05252:0000001400000014
#05354:0014000000000000
#05358:0014000000000000
#05356:0000001400000000
#0535a:0000001400000000
#03052:00000015
#03059:0015
#0675a:00140014
#06759:14
#06658:1414
#00958:16
#02659:00000015
#02652:0015
#05052:00000064
#0505b:0000006300000000
#05056:00000064
#0505a:14
#05057:0014
#04556:6300004400340044
#04552:0000006300000063
#0455b:0000000000530000
#0455a:44
#04655:00000063
#0475b:53
#04756:0000006300000000
#04752:3400000000000063
#0475a:0000004400000000
#04956:0000006300000000
#04957:0000000000000053
#04952:1414
#04856:00540000
#04857:0053
#0485a:00140000
#04852:0014
#005360:14
#0063a0:24
#006361:14
#007321:24
#0073a0:14
#007360:0024
#010360:00000014
#011360:24
#012320:00132300
#012360:0000005300000000
#0123a1:00001424
#012361:0000000000540000
#012320:00000015
#012360:0000000000000055
#013320:25
#0133a0:0000000000000014
#014360:54
#0143a0:0024000000000000
#014320:0000000000000014
#015360:54
#015320:0024000000000000
#0153b0:0013
#015360:0000000000000024
#018320:00000013
#019360:24
#0203b0:00132300
#020370:0000005300000000
#020321:00001424
#020361:0000000000540000
#0213b1:0000000000000013
#022361:0024000000000000
#022321:0000000000000013
#023361:0024000000000000
#0233b1:0013
#023381:00000024
#023320:0013
#023340:00000024
#024320:0000000000001424
#0243a1:0000000000000014
#0253a1:24
#031321:14
#031361:00240000
#0313a0:00140024
#031360:0034
#031361:00000014
#032321:34
#032361:00240000
#0323a0:00140024
#032360:0034
#0353b0:13
#035320:000000000000002c
#037370:13
#0373b0:00230000
#0373b0:0000001300000000
#037360:0000000000240000
#037321:0000000000130000
#037361:0000000000000024
#0373b0:0000000000000013
#038370:00230000
#038380:00000013
#0393a0:24
#039321:13
#039361:00230000
#039371:0000001300000000
#0393b1:0000000000230000
#0393b1:0000000000000013
#040321:00240000
#039360:0000000000000014
#040360:00340000
#0403a0:0024
#040361:0013
#040321:00000023
#041371:0000001300000000
#0413a1:0024
#041361:0000000000000013
#042321:24
#042321:0000001300000000
#042351:0024
#0423a1:00000014
#043321:24
#042360:00000014
#043360:24
#043320:0013
#043380:0000000000000026
#045360:13
#045320:00230000
#045320:0000001300000000
#045360:0000000000240000
#0453b1:0000000000130000
#045361:0000000000000024
#045320:0000000000000013
#046360:00230000
#046350:00000013
#047320:24
#0473b1:13
#047371:00230000
#047361:0000001300000000
#047321:0000000000230000
#047321:0000000000000013
#0483a1:00240000
#047360:0000000000000014
#048360:00340000
#048320:0024
#048371:0013
#0483b1:00000023
#049361:0000001300000000
#049321:0024
#049371:0000000000000013
#0503a1:24
#0503b1:0000001300000000
#050371:0024
#050321:00000014
#0513a1:24
#050360:00000014
#051360:24
#0543a0:0000000014240000
#054320:0000000000001424
#054361:0000000000000014
#0553a1:00240000
#056321:14
#056361:00240000
#056361:0000001400000000
#0563a1:0000000000240000
#0563a1:0000000000000014
#057321:00260000
#056360:0000000000000014
#057320:000000000000000000000000000000000000000000000000000000000000000000000000000000000000000000000000000000000000000000000000000000000000000000000000000000000000000000000000000000000000000000000000000000000000000000000000000000000000000000000000000000000000000000000000000000000000000000000000000000000000000000000000000000000000000000000000000000000000000000000000000000000000000000000000000000000000000000000000000000000000000000000000000000000000000000000000000000000000000000000000000000000000000000000000000000000000000000000000000000000000000000000000000000000000000000000000000000000000000000000000000000000000000000000000000000000000000000000000000000000000000000000000000000000000000000000000000000000000000000000000000000000000000000000000000000000000000000000000000000000000000000000000000000000000000000000000000000000000000000000000000000000000000000000000000000000000000000000000000000000000000000000000000000000000000000000000000000000000000000000026000000000000000000000000000000000000000000000000000000000000000000000000000000000000000000000000000000000000000000000000000000000000000000000000000000000000000000000000000000000000000000000000000000000000000000000000000000000000000000000000000000000000000000000000000000000000000000000000000000000000000000000000000000000000000000000000000000000000000000000000000000000000000000000000000000000000000000000000000000000000000000000000000000000000000000000000000000000000000000000000000000000000000000000000000000000000000000000000000000000000000000000000000000000000000000000000000000000000000000000000000000000000000000000000000000000000000000000000000000000000000000000000000000000000000000000000000000000000000000000000000000000000000000000000000000000000000000000000000000000000000000000000000000000000000000000000000000000000000000000000000000000000000000000000000000000000000000000000000000000000000000000000000000000000000000000000000000000000000000000000000000000000000000000000000000000000000000000000000000000000000000000000000000000000000000000000000000000000000000000000000000000000000000000000000000000000000000000000000000000000000000000000000000000000000000000000000000000000000000000000000000000000000000000000000000000000000000000000000000000000000000000000000000000000000000000000000000000000000000000000000000000000000000000000000000000000000000000000000000000000000000000000000000000000000000000000000000000000000000000000000000000000000000000000000000000000000000000000000000000000000000000000000000000000000000000000000000000000000000000000000000000000000000000000000000000000000000000000000000000000000000000000000000000000000000000000000000000000000000000000000000000000000000000000000000000000000000000000000000000000000000000000000000000000000000000000000000000000000000000000000000000000000000000000000000000000000000000000000000000000000000000000000000000000000000000000000000000000000000000000000000000000000000000000000000000000000000000000000000000000000000000000000000000000000000000000000000000000000000000000000000000000000000000000000000000000000000000000000000000000000000000000000000000000000000000000000000000000000000000000000000000000000000000000000000000000000000000000000000000000000000000000000000000000000000000000000000000000000000000000000000000000000000000000000000000000000000000000000000000000000000000000000000000000000000000000000000000000000000000000000000000000000000000000000000000000000000000000000000000000000000000000000000000000000000000000000000000000000000000000000000000000000000000000000000000000000000000000000000000000000000000000000000000000000000000000000000000000000000000000000000000000000000000000000000000000000000000000000000000000000000000000000000000000000000000000000000000000000000000000000000000000000000000000000000000000000000000000000000000000000000000000000000000000000000000000000000000000000000000000
#0593a1:00000014
#060321:24
#059320:00000014
#0603a0:24
#0603b0:0013
#060320:0000000000000026
#064380:14
#0643a0:00240000
#069380:00000012
#071380:56
#0713b0:0023
#069361:00000012
#071321:5623
#072321:13
#072351:00532300000000000000000000000000
#072381:00130000
#0723b1:00000000005323000000000000000000
#072371:0000000000000013
#0733b1:0023000000000000
#073320:0013002300000000
#073360:00330000
#0743b0:13
#074380:00532300000000000000000000000000
#074350:00130000
#074320:00000000005323000000000000000000
#074360:0000000000000013
#075320:0023000000000000
#0753b1:0013002300000000
#075371:00330000
#0763b1:1300002300000000
#076361:00000054000000000000000000000000
#076320:0000001300002300
#076360:00000000000000000054000000000000
#0763a1:0000000000001424
#077361:1424000000000000
#0773a1:0000142400000000
#077320:0000001400340000
#077360:00005424
#079320:0000001400000000
#079360:0000000000340000
#080320:25
#080371:14
#0843c1:22
#007960:0000000000000014
#0079a0:0000000000000000000000000000000000000000000000000000000000240000
#008960:0014000000000000
#008920:0000000000240000000000000000000000000000000000000000000000000000
#0169a0:00000014
#017920:24
#023960:0000000000000014
#0239a0:0000000000000000000000000000000000000000000000000000000000240000
#024960:0014000000000000
#024920:0000000000240000000000000000000000000000000000000000000000000000
#024960:0000001400000000
#0249a0:0000000000000000000000000024000000000000000000000000000000000000
#037960:0000001400000000
#037920:0000000000000000000000000024000000000000000000000000000000000000
#037960:0000000000140000
#0379a0:0000000000000000000000000000000000000000002400000000000000000000
#037960:0000000000000014
#037920:0000000000000000000000000000000000000000000000000000000000240000
#045960:0000001400000000
#0459a0:0000000000000000000000000024000000000000000000000000000000000000
#045960:0000000000140000
#045920:0000000000000000000000000000000000000000002400000000000000000000
#045960:0000000000000014
#0459a0:0000000000000000000000000000000000000000000000000000000000240000
#053920:0014
#0539a0:00000054
#054920:24
#055960:0014
#055920:0000000000000000000000000000000000240000000000000000000000000000
#055960:00000014
#0559a0:0000000000000000000000000000000000000000000000000024000000000000
