This file was generated by Ched 2.7.0.0.
#TITLE ""
#ARTIST ""
#DESIGNER ""
#DIFFICULTY 0
#PLAYLEVEL
#SONGID ""
#WAVE ""
#WAVEOFFSET 0
#JACKET ""
#REQUEST "ticks_per_beat 480"
#00002: 4
#BPM01: 227
#00008: 01
#TIL00: ""
#VOLUME: ""
#HISPEED 00
#MEASUREHS 00
#03418:0013
#0311a:0012
#03114:0012
#07812:00001415
#0781a:14
#07816:24
#07819:00000025
#00216:0012
#00218:00000012
#00619:14
#00613:14
#00614:00000012
#00918:12
#00914:12
#00912:00000013
#0101b:0013
#01018:13
#01015:00130000
#01012:00001313
#01312:00132300
#0131b:0013
#02212:00130000
#0221b:1313
#02217:00130000
#02216:00001313
#02214:0000000000000053
#02315:00000013
#0231b:1313
#02312:53140000
#02318:00130000
#02310:00410000
#0251a:14
#02512:1423
#02517:0013
#02815:13
#02818:00130000
#02812:0013
#0281b:0013
#02915:13130000
#02918:00130000
#0291b:00000013
#0301a:12
#03016:00000012
#03014:12
#03018:00000012
#03212:00130000
#03215:0013
#03218:00130013
#03315:1313
#03312:00130000
#0331b:13
#03318:00000013
#03712:0013
#03718:00000013
#0371b:0013
#0371f:0011
#03818:13000013
#03812:00130000
#03815:0013
#0381b:00130000
#03915:13
#03912:00000013
#0391b:13
#03918:00000013
#04015:0013
#04018:0000000000130000
#04012:00000013
#04112:13
#04115:00000013
#04118:0000000000000013
#0411b:0013000000000000
#04312:0013
#04318:0013
#04412:00130000
#04415:1313
#04418:00000013
#0441b:00130000
#04615:00000013
#0461a:0024
#04612:0024
#04718:1313
#04715:00000013
#04712:00240000
#0471a:00240000
#04814:00130000
#04819:0013
#04815:00000024
#04817:24
#04812:24
#0481a:00000024
#04919:1325
#04914:00130000
#04915:00000013
#04912:0025
#05018:1313
#05015:00000013
#05012:00250000
#05019:00250000
#0531b:00000013
#0531a:14
#05312:00130000
#05315:00260000
#0531f:00210000
#05614:13
#05619:0013000000000000
#05616:00130000
#0561b:00230013
#05719:1313
#05712:00130024
#0571b:00000013
#05717:00130000
#05714:2313
#06812:00001313
#06815:00130000
#0681b:00130000
#06810:00410000
#06912:13000014
#06916:00000014
#0691b:00131300
#06917:13
#07412:13230000
#07417:13130000
#07512:00130000
#07514:0013
#07516:00000013
#07515:13
#07519:0013
#0751b:23000023
#00314:12
#0031a:1200001200001200
#00316:0012
#00416:12
#00418:00120000
#00412:0012
#0041c:0012
#00514:00120000
#0051a:00120000
#00716:12
#0071a:00120000
#00718:0012
#00714:0012
#00816:00000012
#0081a:00120000
#00818:0012
#01112:13230000
#01118:00260023
#01115:0023
#01110:00410000
#01412:00130000
#01418:13
#0141b:00230000
#01512:13130013
#01517:00130000
#01518:0000005300000000
#01519:0053
#0151a:0000000000530000
#0151b:00000053
#01615:1300000000000053
#01618:00130000
#01612:0013
#0161b:00001313
#01616:00000013
#01212:14
#0121b:23
#01215:0023
#01218:00000023
#01213:0000000000330000
#02112:00130000
#02117:00130000
#0211b:13000013
#02113:0000005300000000
#02114:0053
#02115:0000000000530000
#02116:00000053
#02417:13130000
#02412:1313
#02414:00000013
#02419:0000005300001300
#0241b:0053
#02712:00000013
#0271b:00000013
#03516:13130000
#0351b:00130000
#03616:00000013
#0361b:00000013
#03610:41
#04215:0013
#04218:0000000000130000
#04212:00000014
#04512:13000025
#0451b:13
#04519:00000025
#05212:0014
#05216:00000014
#05412:00001313
#0541b:13
#05415:26000026
#05410:00000041
#0551b:00131300
#05515:0026
#05812:0014
#05816:00000014
#05817:0014000000000000
#0591a:14
#05912:00000013
#0591b:00130000
#05915:00260000
#06219:13
#06214:0013000000000000
#0621b:00130000
#06217:0000000000130000
#06212:00230000
#0601b:00001313
#06012:13
#06015:26000026
#06112:00131300
#06115:0026
#06312:13130000
#0631b:00001313
#06316:00001313
#0651a:2400000000001454
#06512:00140000
#06516:00240000
#06612:0014
#0661a:54001414
#06616:00000014
#0701a:0014000000000000
#07012:0024
#07016:00000024
#07215:00001313
#07218:00002323
#07212:54
#07616:0014
#0761a:00000014
#07612:0023
#07712:14140000
#07718:14
#07716:00240000
#07916:0015000000000000
#07919:0015
#07915:0000000000000015
#07912:0025
#08416:00140000
#0841a:0014
#08412:24000013
#08417:53000013
#08317:0013
#08312:0013
#08319:0000000000530053
#0831b:00000053
#0851b:1313
#08515:13
#08514:00000024
#08512:0024
#08519:0053000000000000
#08517:00530000
#0861a:00240014
#08616:2400000000000014
#08612:00240000
#08712:0014
#0871a:24000014
#08716:00000024
#08816:00142400
#08812:0014
#08912:00141300
#0891b:0013
#08914:0000000000530053
#08916:00000053
#09018:23130000
#09012:53001313
#0901b:0013
#09017:00000013
#0921b:13130000
#09212:00130000
#09216:0012
#09215:0000000000520000
#09214:00000052
#09117:13
#09112:00130013
#09115:0013
#0911a:0024
#09119:0053000000000000
#0911b:00530000
#09316:00120000
#09318:2612
#0931b:00000013
#09312:00000013
#09416:0012000000000000
#09418:00120012
#09412:0026
#09516:1212
#0951b:00130000
#09512:00130000
#09515:0000000000520000
#09514:00000052
#09616:00120000
#09618:2612
#09612:00000013
#0961b:00000013
#00016:00000012
#00018:12
#0001b:00000012
#0261b:00130000
#02616:00130000
#01712:00130000
#0171b:00230000
#01718:0023
#01715:00000023
#01714:53
#0191b:00132300
#01912:0013
#0201b:00130000
#02015:13
#02012:00230000
#0181a:1400000000330000
#01812:23
#01818:0023
#01815:00000023
#07112:0000000000001454
#0711a:24140000
#07116:00240000
#09718:12
#0971b:0023
#09712:0023
#09719:0052000000000000
#0971a:00520000
#05119:25
#05112:25
#08012:00270000
#08019:00250000
#06412:0024
#06416:00000024
#08110:41
#06712:00545400
#07312:00545400
#03458:0063
#05159:65
#05152:15
#07852:00000055
#0785a:54
#07856:14
#07859:00000045
#00158:0012
#00153:0012
#00958:52
#0105b:0063
#01158:00160000
#0125b:63
#01255:0053
#01252:14
#01258:00000053
#0305a:52
#03056:00000052
#03054:62
#03058:00000062
#03955:63
#03952:00000053
#0395b:63
#03958:00000053
#04358:0053
#04959:0015
#04952:0015
#05052:00150000
#05059:00150000
#05656:00630000
#0575b:00000063
#06656:14000054
#0665a:14000054
#06952:63000014
#06956:00000054
#07457:00530000
#07556:00000063
#0755b:13
#09658:16
#00354:52
#0045c:0052
#00452:0052
#00554:00520000
#0055a:00520000
#00653:14
#00659:14
#01352:0053
#0145b:00630000
#02352:00140000
#02552:0053
#02752:13
#02757:13
#0285b:0053
#02955:00530000
#03556:00530000
#0355b:00530000
#03652:13
#03657:13
#03656:00000013
#0365b:00000013
#04252:00000014
#04552:53000015
#04559:00000015
#0455b:53
#05352:00530000
#05355:00460000
#0545b:63
#05452:00000053
#05455:36000046
#0555b:0063
#05555:0036
#0625b:00530000
#06257:0000000000230000
#0595b:00630000
#05955:00360000
#06052:53
#0605b:00000063
#06055:46000036
#06152:0053
#06155:0046
#0635b:00000053
#06552:00540000
#06752:0014
#06756:0014
#0705a:0024000000000000
#07258:00000053
#07255:00000053
#07252:14
#07256:14
#07352:0014
#0735a:0014
#07752:00640000
#07956:0025000000000000
#07959:0065
#07955:0000000000000025
#07952:0035
#09358:16
#09452:0016
#00056:00000052
#00058:52
#0005b:00000052
#0265b:00530000
#02656:00530000
#05857:0024000000000000
#0685b:00530000
#0185a:14
#01852:53
#01858:0063
#01855:00000063
#0195b:0063
#02052:00530000
#07652:0013
#08059:00450000
#0865a:00140000
#08652:00540000
#0915a:0014
#0875a:54
#08756:00000054
#08856:0054
#0715a:00640000
#000380:12
#0003b0:00000032
#001380:00322200
#000361:00000012
#001331:00322200
#003341:12
#003361:0000002200000000
#004321:0012
#005341:22
#0043c0:0012
#0053a0:22
#005340:00120000
#005360:00000022
#0053a1:00120000
#005381:00000022
#009381:12
#0093b1:00000023
#0103b1:0013
#011381:00260000
#0123b1:13
#012381:0023
#012350:0013
#012330:0000000000330000
#012320:00000023
#012381:00000013
#0133b1:00230000
#013321:0013
#014351:23
#0143b1:00130000
#015371:23
#018321:13
#018351:0023
#018380:0013
#0183a0:0000000000330000
#0183b0:00000023
#018351:00000013
#019321:00230000
#0193b1:0013
#020381:23
#020321:00130000
#021361:23
#025321:0013
#026361:00330000
#026321:00000033
#027321:23
#0263b0:00130000
#026370:00000033
#027370:23
#0283b0:0013
#029380:23
#029350:00130000
#029320:00000023
#0303a0:12
#030380:0000005222000000
#030341:12
#030361:0000005222000000
#030361:00000012
#031341:0052220000000000
#030380:00000012
#0313a0:0052220000000000
#033320:00000013
#034320:23
#0343b1:13230000
#034350:00132300
#034381:0013
#0353b1:23
#035361:00130000
#036321:23
#0353b0:00130000
#036370:23
#039350:13
#039320:0023
#0393b1:13
#039381:0023
#039321:00000013
#040351:00230000
#039380:00000013
#0403b0:00230000
#041350:00132300
#041381:00001323
#042321:13230000
#0423b0:00132300
#043380:0013
#0443b0:23
#0453b0:13
#045380:0023
#045321:13
#045351:0023
#051391:15
#052371:0022
#053321:00130000
#053361:00000023
#0543b1:13
#054371:0023
#054321:00000013
#055361:00230000
#0553b1:0013
#056371:23
#056361:00130000
#056321:00000023
#0573b1:00000013
#058371:0054000000000000
#0583b1:0023
#0593b1:00130000
#059371:00000023
#060321:13
#060361:0023
#0603b1:00000013
#061371:00230000
#061321:0013
#062361:23
#0623b1:00130000
#062371:0000000000530000
#0633b1:23
#0633b1:00000013
#064371:0023
#065321:00140000
#065361:0000000000003434
#066361:24
#0663a1:00000014
#067361:00342400
#0683b1:00130000
#068371:00000023
#069321:13
#069361:0023
#069361:00000014
#0703a1:0054000000000000
#070361:0024
#0713a1:00140000
#071361:0000000000003434
#072361:24
#072381:00000013
#0733a1:00342400
#074371:00130000
#0753b1:23
#075361:00000013
#076321:0023
#077321:00140000
#078361:24
#0783a0:14
#078360:0024
#078320:00000015
#079360:0055000000000000
#079320:0025
#079391:0015
#079351:0000000000000055
#080391:00250000
#080320:00170000
#083320:002c0000
#086320:00140000
#086360:00000024
#0873a0:14
#087360:0024
#087360:00000014
#088320:00240000
#088360:0014
#0893a0:00240000
#015970:00130000
#0159b0:00000023
#016960:00000013
#017940:23
#021920:00130000
#021960:00000023
#022960:00000013
#023920:23
#024970:00130000
#0249b0:0023
#0659a0:00000014
#0669a0:24
#066960:00000014
#067920:00542400
#071920:00000014
#072920:24
#072950:00000013
#073920:00542400
#083970:0013
#0839b0:00000053
#084970:23
#0859b0:13
#085970:00230000
#089920:0013
#089960:00000053
#090920:23
#091970:13
#0919b0:00230000
#092960:0012
#092940:00000022
#095960:0012
#095940:00000022
#097980:12
#0979a0:00220000
