This file was generated by Ched 2.7.0.0.
#TITLE ""
#ARTIST ""
#DESIGNER ""
#DIFFICULTY 0
#PLAYLEVEL
#SONGID ""
#WAVE ""
#WAVEOFFSET 0
#JACKET ""
#REQUEST "ticks_per_beat 480"
#00002: 4
#BPM01: 227
#00008: 01
#TIL00: ""
#VOLUME: ""
#HISPEED 00
#MEASUREHS 00
#03415:0013
#0341b:13130000
#03618:00000014
#03610:41
#03114:0012
#0311a:0012
#07618:00000014
#07714:14
#07718:00240000
#08412:13
#08418:00130000
#08415:0013
#0841b:00000013
#00215:0013
#00218:00000013
#00315:13
#00418:0013
#00512:00000013
#0051b:00130000
#00515:13
#00618:13
#00615:00000013
#00718:13
#00712:00130000
#0071b:0013
#00815:00130013
#00818:0013
#00918:13
#01012:13
#01018:00130000
#01015:0013
#01315:00132300
#01912:00132300
#0211b:13
#02115:0000003333330000
#0221b:13
#02215:00130000
#02218:0013
#02212:0000000000000033
#02315:0013
#0231b:00000013
#02318:00230000
#02310:00410000
#02415:00000013
#02412:13
#0241b:0000003300000000
#02518:13
#0251b:0023
#02515:0023
#02818:13
#02815:00130000
#0281b:0013
#02915:13
#02918:00130000
#02912:00000013
#0301a:12
#03016:00000012
#03218:00130000
#03215:0013
#0321b:00000013
#03312:13130000
#03318:0013
#03315:00000013
#03512:00130000
#03712:0013
#03715:00000013
#0371f:0011
#03818:1313
#03815:00130000
#0381b:00000013
#03912:13
#03918:00000013
#04015:00001313
#04018:0000000000130000
#0411b:13
#04118:0000000013000013
#04115:00130013
#04215:13
#04212:0000330033330000
#04318:0013
#04412:00130000
#04415:0013
#04418:00000013
#04515:13
#0451b:13
#04512:00000023
#04518:00000023
#04615:00000013
#0461a:0024
#04718:13
#0471b:0013
#04715:00000013
#04712:00240000
#04812:00130000
#04818:2413
#04814:00000024
#0491b:13
#04912:00130000
#04915:00000013
#04919:0025
#05018:1313
#05015:00000013
#05012:00250000
#05313:00000013
#0531f:00210000
#05418:14
#05414:0013
#05419:00000014
#05410:00000041
#0551a:0014
#05515:00130000
#05615:13130000
#05618:0013000000000000
#0571b:13000013
#05715:00130000
#05718:0013
#05712:00000013
#06218:13130000
#06215:0013000000000000
#06312:13
#06315:00130000
#06318:0013
#0631b:00000013
#06812:00130000
#06815:0013
#06818:00000013
#06810:00410000
#0691b:13
#06918:00130000
#06915:0013
#06912:00000023
#07415:13
#07418:00130000
#07515:00130013
#07518:0013
#08512:0013
#08515:00000013
#08618:13
#0861b:00130000
#08712:00001313
#0891b:00130000
#08915:0013
#08918:00000013
#09012:13
#0901b:00130013
#09015:0013
#09118:13
#09115:00130013
#0911a:0024
#09218:13000013
#09215:00130000
#0931b:0013
#09315:00000013
#09312:25
#09418:00130000
#09412:0013
#09512:13
#09518:00130000
#09515:00000013
#09618:0013
#09615:00000013
#09619:25
#09715:00130000
#09712:0025
#09719:0025
#05217:0013
#0591a:00000013
#05915:00240000
#06014:14
#06019:0013
#06013:00000014
#06112:0014
#06118:00130000
#00018:13
#01512:13
#01518:0000003333330000
#01612:13
#01618:00130000
#01615:0013
#0161b:0000000000000033
#05119:25
#08016:00260000
#01112:00250000
#01110:00410000
#01712:00230000
#01715:0023
#01718:00000023
#01218:23
#0121b:0000000033330000
#0181b:23
#01818:0000000033330000
#02612:00230033
#02618:00230033
#06412:0023
#06415:00000023
#06518:23
#06515:00230000
#0651b:00230000
#06612:00002323
#06618:00002323
#0701b:0023
#07018:00000023
#07115:23
#07118:00230000
#07112:00230000
#0721b:00002323
#07215:00002323
#07816:24000024
#07916:0024
#01412:33
#02015:33
#08110:41
#03455:0053
#05159:65
#08056:00560000
#0015b:0013
#00355:53
#00958:53
#01055:0063
#01152:00150000
#0125a:00000014
#01258:53
#01452:00140000
#01355:0053
#0185b:63
#01858:00000014
#01952:0063
#02054:00140000
#0255b:0063
#02555:0063
#0275b:13
#02755:13
#02652:00530000
#02658:00530000
#0305a:52
#03056:00000052
#03552:00630000
#03952:53
#03958:00000053
#04255:63
#04252:00000014
#04358:0053
#04555:63
#04552:00000013
#0455b:63
#04558:00000013
#05458:14
#05459:00000014
#0555a:0014
#05655:00630000
#05752:00000063
#0575b:00000063
#06258:00530000
#05955:00140000
#07458:00530000
#07555:00000063
#0865b:00530000
#08752:00000063
#08758:13
#08855:0013
#05855:0013
#05858:0013
#05257:0023
#0635b:00000053
#03658:00000014
#05357:00140000
#06054:14
#06053:00000014
#06152:0014
#06952:00000013
#06555:00530000
#0655b:00530000
#06652:13000053
#06658:13000053
#06755:0013
#0675b:0013
#07158:00630000
#07152:00630000
#0725b:13000063
#07255:13000063
#07358:0013
#07352:0013
#07758:00540000
#07856:54000054
#07956:0054
#00058:53
#000380:13
#0003b0:00000033
#0013b0:00332300
#003350:13
#003320:00000023
#009380:13
#0093b0:00000023
#010350:0013
#011320:00250000
#012380:13
#0123b0:0000000033330000
#0123a0:00000024
#013350:0013
#014320:33240000
#0153b0:00130000
#015380:0000003333332300
#016380:00000013
#0163b0:0000000000000033
#0173b0:23
#0183b0:13
#018380:0000000033332400
#019320:0013
#020350:33
#020340:00240000
#021320:00130000
#021350:0000003333332300
#022350:00000013
#022320:0000000000000033
#023320:23
#024380:00130000
#0243b0:0000003323000000
#0253b0:0013
#026380:00330033
#0273b0:23
#025351:0013
#026321:00330033
#027351:23
#0303a1:12
#030381:0022
#030361:00000012
#031341:00220000
#034351:0013
#035321:00330000
#036351:23
#039321:13
#039351:0023
#039381:00000013
#0403b1:00230000
#042351:13
#042321:0000330033332400
#043381:0013
#0443b1:23
#045351:13
#045321:00003323
#0453b0:13
#045380:00003323
#051390:15
#052370:0053
#053370:00240000
#056350:00130000
#056320:00000023
#057320:00000013
#058350:0023
#0573b1:00000013
#058381:0023
#062381:00130000
#0623b1:00000023
#0633b1:00000013
#064381:00230000
#065351:00130000
#065321:0000000000003333
#066321:23
#0653b0:00130000
#065380:0000000000003333
#066380:23
#066320:00000013
#067350:00332300
#066381:00000013
#0673b1:00332300
#071381:00130000
#0713b1:0000000000003333
#0723b1:23
#071320:00130000
#071350:0000000000003333
#072350:23
#0723b0:00000013
#073380:00332300
#072351:00000013
#073321:00332300
#074381:00130000
#0753b1:23
#075351:00000013
#076321:0023
#077381:00140000
#0783a1:24
#078360:14
#078320:00000024
#078361:00000014
#0793a1:0024
#079360:0014
#080320:00240000
#080361:00160000
#083381:00260000
#0863b1:00130000
#086381:0000000000003333
#087381:23
#087321:00000013
#088351:00332300
