This file was generated by Ched 2.7.0.0.
#TITLE ""
#ARTIST ""
#DESIGNER ""
#DIFFICULTY 0
#PLAYLEVEL
#SONGID ""
#WAVE ""
#WAVEOFFSET 0
#JACKET ""
#REQUEST "ticks_per_beat 480"
#00002: 4
#BPM01: 227
#00008: 01
#TIL00: ""
#VOLUME: ""
#HISPEED 00
#MEASUREHS 00
#09014:00000014
#09018:14
#00314:14
#00318:00000014
#00412:0014
#00614:14
#0061a:00000014
#00712:0014
#00914:14
#01214:00000014
#0121a:24
#01318:0014
#01412:00140000
#01518:14
#01716:00140000
#02318:00140000
#02310:00410000
#02414:14
#02418:00000014
#02818:0014
#02914:00140000
#03212:00140000
#03314:00000014
#0331a:14
#03418:0014
#0301a:14
#03012:00000014
#03118:0014
#03718:0014
#0371f:0011
#03814:00140000
#03918:14
#04014:0014
#04118:00140000
#04214:14
#0431a:0014
#04412:00140000
#0451a:14
#05414:14
#05418:00000014
#05410:00000041
#05512:0014
#0601a:14
#06012:00000014
#06118:0014
#06418:0014
#06618:00000014
#06814:00140000
#06810:00410000
#06918:14
#06912:00000024
#07818:00000014
#07814:14
#0841a:14
#08414:00000014
#08518:0014
#08612:00140000
#08718:00000014
#08914:00140000
#09118:0014
#09318:00000014
#09314:24
#09418:0014
#00018:14
#0001a:00000034
#0051a:00140000
#00818:00140000
#01818:00000014
#01812:24
#01914:0014
#0201a:00140000
#02114:14
#02514:0014
#0561a:00140000
#06212:00140000
#06514:00140000
#07212:14
#0721a:00000014
#07314:0014
#07418:00140000
#0751a:00000014
#03612:00000014
#03610:41
#09614:00000014
#09618:24
#04612:0024
#04812:24
#0481a:00000024
#04914:0024
#05018:00240000
#0471a:00240000
#05114:24
#0531a:00240000
#0531f:00210000
#08012:00260000
#09714:0024
#0011a:00340000
#02612:00340034
#0351a:00340000
#05718:34
#05912:34
#05812:00000034
#06314:34
#0711a:34
#0701a:00000034
#01110:00410000
#08110:41
#00954:54
#01558:54
#03458:0064
#03958:64
#04254:54
#0455a:54
#05154:64
#05758:00000014
#06458:0014
#06658:00000064
#07858:00000064
#08052:00660000
#08652:00640000
#08758:00000064
#09354:14
#09658:14
#00058:54
#0015a:0014
#02154:64
#02554:0054
#02752:14
#0565a:00540000
#06252:00640000
#06354:00000014
#06554:00640000
#06952:00000014
#07458:00640000
#0755a:00000064
#000380:14
#0003a0:00000034
#0013a0:00342400
#009340:14
#010320:0034
#011320:00240000
#015380:14
#0163a0:0024
#021340:14
#022320:0024
#025340:0014
#026320:00340034
#027320:24
#034380:0014
#0353a0:00340000
#0363a0:24
#039380:14
#0393a0:00000024
#042340:14
#042320:00000024
#0453a0:14
#045380:00000024
#051340:14
#052320:0024
#0563a0:00140000
#057380:34000024
#058320:00001434
#059320:34
#059340:00240000
#062320:00140000
#063340:34000024
#065340:00140000
#066320:24
#066380:00000014
#0673a0:0024
#0703a0:00001434
#0713a0:34
#071380:00240000
#074380:00140000
#0753a0:00343434
#076380:00000034
#077380:34240000
#078380:00000014
#0793a0:0024
#080320:00160000
#083320:00240000
#086320:00140000
#087340:24
#087380:00000014
#0883a0:0024
#092340:00140000
#093340:24
#095380:00140000
#096380:24
