This file was generated by Ched 2.7.0.0.
#TITLE " "
#ARTIST ""
#DESIGNER ""
#DIFFICULTY 0
#PLAYLEVEL
#SONGID ""
#WAVE ""
#WAVEOFFSET 0
#JACKET ""
#REQUEST "ticks_per_beat 480"
#00002: 4
#BPM01: 90.75
#BPM02: 141
#BPM03: 86
#BPM04: 84
#BPM05: 85
#00008: 01
#00708: 02
#00508: 0304000005000000
#TIL00: ""
#VOLUME: ""
#HISPEED 00
#MEASUREHS 00
#00312:0000000000120000
#0031a:0000120000520012
#00314:00520000
#02318:260000000013000000230000
#02315:000000230000000000000013
#02312:2613
#02310:41
#03015:000000000000000000000013
#03010:0041
#03218:130013
#03215:000000000000000000130013
#03418:000000131300
#03415:000000000013000000130000
#03812:000000000000240000000000000000000000000000000014
#0381a:000000240000240014000000
#03817:000000000000000000000000000000000000000000000014
#03815:000000000024000024000000
#0381f:000021
#03915:000014
#0391a:000000000000000000240014
#03910:41
#04012:001300231300
#04018:000000230013000023000000
#04015:240000000000000000000013
#0401b:000000000000000000000013
#04112:13
#04118:13
#04115:0000001300000000
#0411b:0000001300000000
#04212:000013000000000000000023
#04214:000000000013000000000000
#0421a:0013
#04218:000000130000000000000023
#04215:000023
#0421b:000023
#0431a:000000000000000000000000000000000000001300000000
#04318:000013
#04315:000000000000130000000013
#04415:00130013
#04413:001300000000000000000000130000000000000000000000
#04418:001300001300
#0441b:000000000000000000000000000000000000000000000013
#0441a:000000000013000000000000
#04513:000000000013000000000000
#0451a:0013
#04512:13
#04515:000013
#04518:00000013
#05018:0013
#05015:000013
#0501b:130000000000000000000013
#05012:00130000
#05112:13000013
#0511b:13000013
#05115:00130000
#05118:00130000
#05412:00130000
#0541b:00130013
#05418:000000000013000000000000
#05414:00000025
#05410:00000041
#05512:13241313
#05517:001300131300
#0561b:13001313
#05616:001300131300
#0561a:00240000
#05816:140000131300
#0581b:13001323
#0581a:00240000
#05912:13230000
#05917:131300000000
#05916:000000131300
#0591b:00001313
#06012:13130000
#0601b:0013
#06017:13
#06018:00000013
#06016:0013
#06516:131300000000
#06517:000000131300
#0651a:14240000
#06512:0014
#06513:00000024
#06519:00000024
#06618:13130000
#06615:001300130000
#06612:00000014
#0661a:00000014
#05215:1313
#0521b:00130000
#05217:00000013
#0531b:000000130000000000001300000000000000000000000000
#05314:00130000
#05312:000000230000000000001300000000000000000000000000
#05319:00130000
#0611b:13
#06119:00130000
#06117:0013
#06115:00000014
#06112:00230000
#06217:00000015
#06216:0014
#06214:00140000
#06212:14
#0621a:00240000
#00118:00000012
#00114:0000001200001200
#00116:12
#0011a:1200005200000000
#0021c:0000000012000052
#0021a:0012000000000000
#00216:0012
#00214:0052000000000012
#00414:1252525200001200
#0041a:1200000000001252
#00418:0000001200000000
#00714:0012
#00718:12
#00716:12
#0071a:0012
#00710:41
#02218:0012
#02216:0012
#02212:12
#0221c:12
#03115:000000000013000000130013
#0311b:00130000
#03112:00130000
#03118:230000131300
#0311f:11
#03518:0013
#03515:000000000013000000000000
#03512:240024000000000000240024
#0351a:240024000000000000240024
#03618:000000130013000000000000
#0361b:00000013
#03615:001300131300
#03712:00130014
#03715:13
#03718:001300130000
#0371a:00000014
#05716:14
#05712:13241313
#05717:000000131300
#06316:0015
#06317:000000000000001500000000000000000000000000000000
#06319:15
#06312:00250016
#06715:000000000000001300000000
#06718:000000000000001300000000
#01518:12
#01516:12
#01514:0012
#0151a:0012
#01510:41
#00519:0000001252000000
#00516:0012000000000000
#0051a:5252000000000000
#0091b:0012
#00916:12
#00816:12
#00818:0012
#0081a:00000012
#00814:00120000
#01013:12
#0101b:12
#01318:1212
#01316:00120012
#01416:12
#01418:12
#0211b:12
#02113:12
#02114:00000012
#0211a:00000012
#0241b:13
#02418:000000000013000000230000
#02412:0013
#02415:000000230000000000000013
#02518:000000000013000000230000
#02515:000000230000000000000013
#02615:00231323
#01113:0012
#01118:12
#01116:12
#0111b:0012
#01918:12
#01913:1212
#01916:00120012
#0191b:0012
#01716:0012
#01718:12
#01618:12
#01616:0012
#01614:00000012
#0161a:00120000
#0181c:12
#01816:13
#01216:12
#01213:0012
#0121b:0012
#0201b:1212
#02018:00120012
#02013:0012
#02718:130000000000130000000013
#02715:130000000013000000000000
#02712:00000023
#0271b:00230000
#02818:0013
#02815:130000000013000000000000
#0281b:00230000
#02812:00000023
#03313:000000000013000000000000
#03312:000000000000000000000013
#03314:001300000000
#0331b:000000000000000000230013
#03319:00230000
#0331a:0023
#03318:23
#0461a:000000000000240000000000000000000000000000000014
#04612:000000240000240014000000
#04615:000000000000000000000000000000000000000000000014
#04617:000000000024000024000000
#04717:000013
#04712:000000000000000000230013
#0481a:001400240000
#04815:000000240014000024000000
#04818:000000000000000000000023
#04817:23
#04915:1324
#04918:001300000000
#0491a:0024
#04912:00240024
#04917:00000024
#06415:16
#06417:000000131300
#06412:00001424
#06418:00260000
#00019:0000000000000012
#00018:00000012
#00015:000000000000000000000000000000000000000000000000000000000052000000000000000000000000000000000000
#00013:0000000000520000
#06812:000000000052000000000000
#0681c:000000000052000000000000
#03158:13
#03852:000000000000000000000000000000000000000000000024
#03857:000000000000000000000000000000000000000000000024
#0385a:000064
#03855:000054
#04158:63000013
#04152:63000013
#04155:0000002300000000
#0415b:0000002300000000
#04458:000063
#04455:00000063
#0445b:000000000000000000000000000000000000000000000023
#04453:002300000000000000000000000000000000000000000000
#0495a:0014
#04952:00000014
#06452:00000014
#06455:26
#0655a:00140000
#06652:00000054
#0665a:00000054
#06658:00130000
#05152:53
#0515b:53000053
#05158:00230000
#05155:00230000
#05257:00000053
#0525b:00530000
#05255:5353
#0535b:000000530000000000005300000000000000000000000000
#05359:00530000
#05352:000000530000000000005300000000000000000000000000
#05354:00530000
#06057:53
#06058:00000053
#06052:00630013
#06056:0063
#0595b:00000053
#05952:00130000
#0615b:23
#06157:0023
#06159:00530000
#06155:00000054
#0615a:00000043
#06257:00000065
#06256:0024
#06254:00640000
#06252:24
#06253:00000034
#00758:52
#0075a:0022
#02258:0022
#02256:0022
#02252:62
#0225c:62
#0365b:00000063
#03752:00630014
#0375a:00000014
#04055:000000000000000000000063
#0405b:000000000000000000000063
#04052:000063
#04058:000053
#04358:000063
#0435a:000000000000000000000000000000000000002300000000
#04355:000000000000000000000053
#05052:00530000
#0505b:53
#05058:0013
#05055:000023
#0545b:00000053
#05454:00000015
#0565b:00000063
#05756:24
#05752:00000053
#06357:000000000000005500000000000000000000000000000000
#06359:25
#06356:0025
#06352:00000056
#06358:00000045
#06755:000000000000002300000000
#06758:000000000000002300000000
#0085a:00000022
#00854:00220000
#00856:62
#00858:0052
#00956:52
#0105b:52
#01053:52
#01456:52
#01458:52
#0215b:62
#02153:62
#02358:16
#02352:16
#04855:000054
#01158:52
#0115b:0022
#03955:00140000
#0395a:00140000
#01658:52
#01656:0062
#01654:00000022
#0165a:00220000
#01758:62
#01556:62
#01554:0022
#01256:62
#01253:0022
#01953:5252
#01956:00220022
#0205b:6262
#02058:00220022
#02858:0063
#02855:53
#0305b:0013
#03052:0013
#03258:63
#0325b:000000000013000000000000
#03255:000000000013000000000000
#03352:000000000000000000000053
#0335b:000000000000000000000063
#04552:23
#04558:00000013
#0465a:000000000000000000000000000000000000000000000024
#04652:000054
#04655:000000000000000000000000000000000000000000000024
#04657:000064
#04757:00140000
#04752:00140000
#05552:00000063
#05856:24
#0585b:00000013
#01856:53
#0185c:52
#02758:0063
#02755:53
#03455:00000013
#007380:12
#0073a0:0052
#008380:22
#008361:1222
#008341:00520000
#008380:0012
#0083a0:00000052
#009380:22
#009361:12
#009331:0052
#010331:32
#010361:0022
#0103b0:12
#010380:0022
#011380:12
#0113b0:0052
#012380:22
#012361:12
#012331:0052
#013361:22
#014361:12
#014331:0022
#014380:12
#0143b0:0022
#015360:12
#015340:0052
#016360:22
#016381:1222
#0163a1:00520000
#016360:0012
#016340:00000052
#017360:22
#017381:12
#0173c1:0052
#0183c1:32
#018381:0022
#018360:13
#018320:0023
#019330:1232
#019360:00520052
#020330:22
#0203b1:1232
#020381:00520052
#0213b1:32
#021381:0022
#021330:12
#021360:0022
#0223c0:12
#022380:0052
#023380:26
#022321:12
#022361:0052
#023321:26
#0253b1:13230000
#025321:00001323
#0263b1:13000023
#027351:13
#027321:00230000
#027381:0013
#0273b1:00000023
#028351:13
#028321:00230000
#028381:0013
#0283b1:00000023
#0293b1:13230000
#029320:00132300
#029381:00001323
#029350:00000013
#030350:23
#0303b1:1323
#030320:00132300
#032380:13
#0323b0:000000330023000000000000
#032351:000000130023000000000000
#033321:000000000000000013000033
#034351:00230000
#0333b0:000000000000000000130033
#034380:00230000
#0363b0:00000013
#037380:23
#037320:00130000
#037350:0023
#0383a0:000000145400
#038370:000000000000000000000000000000000000000000000054
#0393a0:00240000
#038351:000014
#038321:000000000000000000000000000000000000000000000054
#039351:00240000
#040321:000013
#040351:000000000000000000000033
#041321:33000023
#041351:0000005300000000
#040380:000013
#0403b0:000000000000000000000033
#041380:33000023
#0413b0:0000005300000000
#042320:000000000000000000000013
#043350:00230000
#042381:000000000000000000000013
#0433b1:00230000
#043381:000000000000000013000023
#0433a1:000000000000000000000000000000000000005300000000
#043350:000000000000000000000013
#044330:005300000000000000000000000000000000000000000000
#044350:002300000000
#044380:000013
#0443b0:000000000000000000000000000000000000000000000053
#045380:00230000
#044351:00000013
#045321:53
#045351:00230000
#046321:000000145400
#046351:000000000000000000000000000000000000000000000054
#047321:00240000
#046370:000014
#0463a0:000000000000000000000000000000000000000000000054
#047370:00240000
#048350:000014
#048320:000000000000000000000024
#0503b0:13
#050380:00230000
#050321:00130000
#050351:0023
#050351:000013
#051321:3323
#051351:00530000
#0513b0:1323
#051380:00530000
#0513b0:00000013
#052380:23
#052351:13
#052321:00230000
#0523b0:00130000
#052380:0023
#052351:0013
#052321:00000023
#052370:00000013
#0533b0:000000330000000000003300000000000000000000000000
#053390:00330000
#054380:23
#053321:000000130000000000003300000000000000000000000000
#053341:00330000
#054351:23
#054351:0013
#054341:00000025
#0543b0:00000013
#055370:23
#055320:00000013
#056360:23
#0563b0:00000013
#057360:54
#0573b0:00230000
#057320:00000013
#058360:54
#058320:00230000
#0593b0:00000013
#060370:33
#0603b0:00230000
#060321:00130023
#060361:0033
#060380:00000013
#0613b0:53
#061390:00530000
#061370:0053
#0613a0:00000023
#061351:00000014
#062321:54
#062341:00540000
#062361:0054
#062331:00000024
#062370:00000015
#063390:55
#063370:000000000000005500000000000000000000000000000000
#063360:0055
#063380:00000025
#063321:00000016
#064351:56
#064321:00260000
#066321:00000014
#067351:000000000000005300000000
#068321:000000000022000000000000
#0663a0:00000014
#067380:000000000000005300000000
#0683c0:000000000022000000000000
#0019a0:1200002200000000
#001940:00000012
#002940:0022000000000000
#0029c0:0000000012000022
#002941:0000000000000012
#003941:00220000
#0039a0:0000120000220000
#004940:1200002200000000
#0049a0:00000012
#0059a0:0022000000000000
#005990:0000001252000000
#0069c0:00220000
#068920:000000000012000000000000
#069920:0022
#0689c1:000000000012000000000000
#0699c1:0022
