This file was generated by Ched 2.7.0.0.
#TITLE " "
#ARTIST ""
#DESIGNER ""
#DIFFICULTY 0
#PLAYLEVEL
#SONGID ""
#WAVE ""
#WAVEOFFSET 0
#JACKET ""
#REQUEST "ticks_per_beat 480"
#00002: 4
#BPM01: 90.75
#BPM02: 141
#BPM03: 86
#BPM04: 84
#BPM05: 85
#00008: 01
#00708: 02
#00508: 0304000005000000
#TIL00: ""
#VOLUME: ""
#HISPEED 00
#MEASUREHS 00
#03218:000013
#03215:13000013
#03212:00330000
#03816:000000000000000000000000000000000000000000000015
#03819:000000250000250015000000
#03814:000000000025000000000000
#0381f:000021
#03916:000013
#03915:000000000000000000000013
#0391b:00000023
#03910:41
#04112:001200
#04115:13
#04218:000013000000000000000023
#04215:00130000
#04212:000000000033330000000023
#04318:000013
#04315:0013
#04418:000000130000000033130000
#04415:001300000000
#0441b:000000000033130000000000
#04515:000000000013000013000000
#04518:0013
#0451b:13
#05418:00130000
#0541b:000000000033130000000000
#05412:000000000033130000000000
#05415:00230000
#05410:00000041
#05815:0013
#05818:00000026
#05812:00230000
#0581b:00230000
#06618:0013
#06612:00000014
#0661a:00000014
#06615:00130000
#05312:000000000013000000000000
#0531b:000000000013000000000000
#03118:00130013
#03115:0013
#0311f:11
#03112:24
#03515:0013
#03518:000000000013000000000000
#03512:240064000000000000240064
#0351a:240064000000000000240064
#03618:001300000000
#0361b:0013
#03619:00000013
#03612:0013
#03615:00130000
#03714:00130000
#03712:00000014
#0371a:00000014
#05015:13
#05012:00130000
#05518:0013
#05515:00000013
#05512:00230000
#0551b:00230000
#02315:00000013
#02318:00130000
#02319:25
#02312:25
#0231b:000000000033000000000000
#02310:41
#03312:230000000000000000000013
#0331b:130000000000000000230013
#03315:00230000
#03318:0023
#02215:13
#02218:13
#02212:0013
#0221b:0013
#04012:000013
#04014:001300000000
#04013:000000000013000000000000
#0401a:23
#04019:00230000
#04018:0023
#04015:000000000000000000000033
#00712:0013
#00715:13
#00710:41
#0111b:00130013
#01118:1313
#01218:13
#01312:00130013
#01315:1313
#01415:13
#02415:00130000
#02418:23000013
#02412:000000000033000000000000
#0301a:14
#03010:0041
#03414:00001313
#03419:00001313
#04615:000000000000000000000000000000000000000000000015
#04612:000000250000250015000000
#04617:000000000025000000000000
#04717:000013
#04718:000000000000000000000013
#04712:00000023
#04819:001300000000
#0481a:000000000013000024000000
#04813:23
#04814:00230000
#04815:0023
#04919:00150025
#04915:14
#04912:0025
#05118:13
#0511b:00000013
#05112:00000013
#05115:13
#05615:0013
#05617:00000014
#0561b:00230000
#05612:00230000
#05718:0013
#05715:00000015
#05712:00230000
#0571b:00230000
#05219:1313
#05216:00140000
#05214:1313
#05212:00000023
#0151b:0013
#01518:13
#01510:41
#01612:0013
#01615:13
#01715:0013
#01718:13
#00915:13
#00918:0013
#0271b:00000013
#02712:00130000
#02715:000000000033000000130000
#0271a:24
#02812:24000013
#0281b:00130000
#02818:000000000033000000130000
#0081b:0013
#00818:13
#02018:13
#02015:13
#01912:00130013
#01915:1313
#0211b:00130013
#02118:1313
#06018:00130013
#06015:0013
#06412:00150026
#06418:00260000
#06312:00000016
#06319:00140000
#06313:00250000
#06218:00240015
#06214:00130000
#06114:00000014
#06119:00120000
#06115:00230000
#06518:00260000
#06512:00000024
#0651a:00000024
#0181b:23
#02916:00240024
#0291a:24
#02912:0024
#05912:00260024
#0591a:00000024
#02515:23
#02518:0023
#02615:23
#06812:000000000052000000000000
#0681c:000000000052000000000000
#0021c:0052000000000000
#00213:0052
#00214:0000000000000052
#00218:0052
#00219:0000000000000052
#00518:0052
#00516:0052
#00512:0052000000000000
#0011c:0000005200000000
#00118:52000052
#00412:0000005200000000
#00416:52000052
#00315:00520000
#00316:0000000000520000
#0031a:00520000
#0031b:0000000000520000
#00016:000000000000000000000000000000000000000000000000000000000052000000000000000000000000000000000000
#03152:14
#03856:000000000000000000000000000000000000000000000025
#03859:000055
#04152:000000002200000000150000
#04155:53
#04458:00530053
#0445b:0053
#04952:0015
#04959:00150015
#06452:00250016
#06558:00160000
#06652:00000054
#0665a:00000054
#05352:000000000053000000000000
#0535b:000000000053000000000000
#03659:00000063
#03754:00630000
#03752:00000014
#0375a:00000014
#04358:000063
#0435b:000000000000000000000013
#05052:00530000
#05055:53
#03057:0014
#0305a:54
#03255:53
#03252:000000000013000000000000
#03352:000000000000000000000063
#0335b:000000000000000000000053
#0455b:23
#05555:00000053
#02255:63
#02258:63
#02252:0063
#0225b:0053
#04052:000063
#00752:0023
#00755:53
#0115b:00230023
#01158:6363
#01258:63
#01352:00230023
#01355:5353
#01455:53
#02455:00530000
#02452:0013
#02358:00630000
#0235b:0013
#02359:15
#02352:15
#03959:00450000
#04252:000013
#04255:00530000
#04655:000000000000000000000000000000000000000000000025
#04652:000065
#04752:00350000
#05158:53
#05155:63
#05458:00530000
#05455:00530000
#05452:00002315
#05459:00000015
#0545b:0023
#05657:00000064
#05755:00000055
#05952:00160000
#05858:00000016
#0155b:0023
#01558:63
#01652:0023
#01655:53
#02752:00630000
#02755:0013
#0285b:00530000
#02858:0013
#0085b:0023
#00858:63
#02058:63
#02055:53
#01952:00230023
#01955:5353
#0215b:00230023
#02158:6363
#06352:00000066
#06359:00240000
#06258:00000055
#06254:00230000
#06154:00000064
#06159:00220000
#06058:00000053
#007350:13
#007320:0033
#008350:23
#008381:13
#0083b1:0033
#009381:23
#010321:13
#010351:0023
#0103b0:13
#010380:0023
#011380:1333
#0113b0:00530053
#012380:33
#0123b0:0023
#013350:1333
#013320:00530053
#014350:33
#014320:0023
#015380:13
#0153b0:0033
#016380:23
#016351:13
#016321:0033
#017351:23
#018321:13
#018351:0023
#0183b0:13
#018380:0023
#019350:1333
#019320:00530053
#020350:33
#020320:0023
#020381:13
#0203b1:0023
#021381:1333
#0213b1:00530053
#022381:33
#0223b1:0053
#023391:25
#022350:13
#022320:0053
#023320:25
#023380:00130000
#0233b0:000000000033230000000000
#024350:00130000
#024320:000000000033230000000000
#025350:13
#025320:00230000
#025380:0013
#0253b0:00000023
#026350:1333
#026320:00330023
#027320:00130000
#027350:000000000033230000000000
#0283b0:00130000
#028380:000000000033230000000000
#0303a0:14
#030370:0024
#032350:13
#032320:000000330023000000000000
#0333b0:000000000000000000130033
#034380:00230000
#033321:000000000000000000130033
#034351:00230000
#036391:00000013
#037381:25
#037341:00130000
#037331:0025
#038391:000000153500
#038361:000000000000000000000000000000000000000000000055
#039391:00250000
#040321:000013
#040351:000000000000000000000033
#041351:33
#041321:000000005200000000250000
#042351:00130000
#042321:000000000033330023000000
#042321:000000000000000000000013
#043351:00230000
#042380:000000000000000000000013
#0433b0:00230000
#043380:000013
#0433b0:000000000000000000000023
#044380:000000130000000033330000
#0443b0:000000000033330000000000
#0453b0:53
#045380:00230000
#045380:00000013
#046380:23
#046320:000000153500
#046350:000000000000000000000000000000000000000000000055
#047320:00250000
#0483a0:000000000000000000000000000000001454545454542400
#048390:000000000000000000000000000000000000000000000000000000000000000000540054005400540054005400000000
#050350:1323
#050320:00330000
#050380:000013
#051380:33
#0513b0:0023
#051351:13
#051321:0023
#0523b1:00000013
#0533b1:000000330000000000003300000000000000000000000000
#053381:00330000
#054381:23
#052320:00000013
#053320:000000330000000000003300000000000000000000000000
#053350:00330000
#054350:23
#054380:00130000
#0543b0:000000000033330000000000
#054390:00000025
#054351:00130000
#054321:000000000033330000250000
#055351:00000013
#056321:23
#056371:00000014
#0573a1:24
#057351:00000015
#058321:25
#060381:00000013
#061391:00520000
#061381:00000023
#061340:00000014
#062340:00530024
#062381:00000015
#063391:00540000
#063381:00000025
#063320:00000016
#064320:00550026
#066320:00000014
#068320:000000000022000000000000
#0663a1:00000014
#0683c1:000000000022000000000000
#001980:12000052
#0019c0:0000005200000000
#0029c0:0022000000000000
#004960:12000052
#004920:0000005200000000
#005920:0052000000000000
#005960:0022
#005981:0012
#0069c1:00220000
#035921:140000000000000000000000000000000000000000000000000000000000000000000000000000000000000000000000000000000000000000000000000000000000000000000000000000000000000000000000000000000000000000000000000000000000000000000000000000000000000000000000000000000000000000000000000000000000000000000000000000000000000000000000000000000000000000000000000000000000000000000000000000000000000000000000000000000000000000000000000000000000000000000000000000000000000000000000000000000000000000000000000000000000000000000000000000000000000000000000000000000000000000000000000000000000000000000000000000000000000000000000000000000000000000000000000000000054005424000000000000000000000000000000000000000000000000000000000000000000000000000000000000000000000000000000000000000000000000000000000000000000000000000000000000000000000000000000000000000000000000000000000000000000000000000000000000000000000000000000000000000000000000000000000000000000000000000000000000000000000000000000000000000000000000000000000000000000000000000000000000000000000000000000000000000000000000000000000000000000000000000000000000000000000000000000000000000000000000000000000000000000000000000000000000000000000000000000000000000000000000000000000000000000000000000000000000000000000000000000000000000000000000000000000000000000000000000000000000000000000000000000000000000000000000000000000000000000000000000000000000000000000000000000000000000000000000000000000000000000000000000000000000000000000000000000000000000000000000000000000000000000000000000000000000000000000000000000000000000000000000000000000000000000000000000000000000000000000000000000000000000000000000000000000000000000000000000000000000000000000000000000000000000000000000000000000000000000000000000000000000000000000000000000000000000000000000000000000000000000000000000000000000000000000000000000000000000000000000000000000000000000000000000000000000000000000000000000000000000000000000000000000000000000000000000000000000000000000000000000000000000000000000000000000000000000000000000000000000000000000000000000000000000000000000000000000000000000000000000000000000000000000000000000000000000000000000000000000000000000000000000000000000000000000000000000000000000000000000000000000000000000000000000000000000000000000000000000000000000000000000000000000000000000000000000000000000000000000000000000000000000000000000000000000000000000000000000000000000000000000000000000000000000000000000000000000000000000000000000000000000000000000000000000000000000000000000000000000000000000000000000000000000000000000000000000000000000000000000000000000000000000000000000000000000000000000000000000000000000000000000000000000000000000000000000000000000000000000000000000000000000000000000000000000000000000000000000000000000000000000000000000000000000000000000000000000000000000000000000000000000000000000000000000000000000000000000000000000000000000000000000000000000000000000000000000000000000000000000000000000000000000000000000000000000000000000000000000000000000000000000000000000000000000000000000000000000000000000000000000000000000000000000000000000000000000000000000000000000000000000000000000000000000000000000000000000000000000000000000000000000000000000000000000000000000000000000000000000000000000000000000000000000000000000000000000000000000000000000000000000000000000000000000000000000000000000000000000000000000000000000000000000000000000000000000000000000000000000000000000000000000000000000000000000000000000000000000000000000000000000000000000000000000000000000000000000000000000000000000000000000000000000000000000000000000000000000000000000000000000000000000000000000000000000000000000000000000000000000000000000000000000000000000000000000000000000000000000000000000000000000000000000000000000000000000000000000000000000000000000000000000000000000000000000000000000000000000000000000000000000000000000
#0359a0:140000000000000000000000000000000000000000000000000000000000000000000000000000000000000000000000000000000000000000000000000000000000000000000000000000000000000000000000000000000000000000000000000000000000000000000000000000000000000000000000000000000000000000000000000000000000000000000000000000000000000000000000000000000000000000000000000000000000000000000000000000000000000000000000000000000000000000000000000000000000000000000000000000000000000000000000000000000000000000000000000000000000000000000000000000000000000000000000000000000000000000000000000000000000000000000000000000000000000000000000000000000000000000000000000000000000545424000000000000000000000000000000000000000000000000000000000000000000000000000000000000000000000000000000000000000000000000000000000000000000000000000000000000000000000000000000000000000000000000000000000000000000000000000000000000000000000000000000000000000000000000000000000000000000000000000000000000000000000000000000000000000000000000000000000000000000000000000000000000000000000000000000000000000000000000000000000000000000000000000000000000000000000000000000000000000000000000000000000000000000000000000000000000000000000000000000000000000000000000000000000000000000000000000000000000000000000000000000000000000000000000000000000000000000000000000000000000000000000000000000000000000000000000000000000000000000000000000000000000000000000000000000000000000000000000000000000000000000000000000000000000000000000000000000000000000000000000000000000000000000000000000000000000000000000000000000000000000000000000000000000000000000000000000000000000000000000000000000000000000000000000000000000000000000000000000000000000000000000000000000000000000000000000000000000000000000000000000000000000000000000000000000000000000000000000000000000000000000000000000000000000000000000000000000000000000000000000000000000000000000000000000000000000000000000000000000000000000000000000000000000000000000000000000000000000000000000000000000000000000000000000000000000000000000000000000000000000000000000000000000000000000000000000000000000000000000000000000000000000000000000000000000000000000000000000000000000000000000000000000000000000000000000000000000000000000000000000000000000000000000000000000000000000000000000000000000000000000000000000000000000000000000000000000000000000000000000000000000000000000000000000000000000000000000000000000000000000000000000000000000000000000000000000000000000000000000000000000000000000000000000000000000000000000000000000000000000000000000000000000000000000000000000000000000000000000000000000000000000000000000000000000000000000000000000000000000000000000000000000000000000000000000000000000000000000000000000000000000000000000000000000000000000000000000000000000000000000000000000000000000000000000000000000000000000000000000000000000000000000000000000000000000000000000000000000000000000000000000000000000000000000000000000000000000000000000000000000000000000000000000000000000000000000000000000000000000000000000000000000000000000000000000000000000000000000000000000000000000000000000000000000000000000000000000000000000000000000000000000000000000000000000000000000000000000000000000000000000000000000000000000000000000000000000000000000000000000000000000000000000000000000000000000000000000000000000000000000000000000000000000000000000000000000000000000000000000000000000000000000000000000000000000000000000000000000000000000000000000000000000000000000000000000000000000000000000000000000000000000000000000000000000000000000000000000000000000000000000000000000000000000000000000000000000000000000000000000000000000000000000000000000000000000000000000000000000000000000000000000000000000000000000000000000000000000000000000000000000000000000000000000000000000000000000000000000000000000000000000000000000000000000000000000000000000000000000000000000000000000000000000
#035920:000000000000000000000000000000000000000000000000000000000000000000000000000000000000000000000000000000000000000000000000000000000000000000000000000000000000000000000000000000000000000000000000000000000000000000000000000000000000000000000000000000000000000000000000000000000000000000000000000000000000000000000000000000000000000000000000000000000000000000000000000000000000000000000000000000000000000000000000000000000000000000000000000000000000000000000000000000000000000000000000000000000000000000000000000000000000000000000000000000000000000000000000000000000000000000000000000000000000000000000000000000000000000000000000000000000000000000000000000000000000000000000000000000000000000000000000000000000000000000000000000000000000000000000000000000000000000000000000000000000000000000000000000000000000000000000000000000000000000000000000000000000000000000000000000000000000000000000000000000000000000000000000000000000000000000000000000000000000000000000000000000000000000000000000000000000000000000000000000000000000000000000000000000000000000000000000000000000000000000000000000000000000000000000000000000000000000000000000000000000000000000000000000000000000000000000000000000000000000000000000000000000000000000000000000000000000000000000000000000000000000000000000000000000000000000000000000000000000000000000000000000000000000000000000000000000000000000000000000000000000000000000000000000000000000000000000000000000000000000000000000000000000000000000000000000000000000000000000000000000000000000000000000000000000000000000000000000000000000000000000000000000000000000000000000000000000000000000000000000000000000000000000000000000000000000000000000000000000000000000000000000000000000000000000000000000000000000000000000000000000000000000000000000000000000000000000000000000000000000000000000000000000000000000000000000000000000000000000000000000000000000000000000000000000000000000000000000000000000000000000000000000000000000000000000000000000000000000000000000000000000000000000000000000000000000000000000000000000000000000000000000000000000000000000000000000000000000000000000000000000000000000000000000000000000000000000000000000000000000000000000000000000000000000000000000000000000000000000000000000000000000000000000000000000000000000000000000000000000000000000000000000000000000000000000000000000000000000000000000000000000000000000000000000000000000000000000000000000000000000000000000000000000000000000000000000000000000000000000000000000000000000000000000000000000000000000000000000000000000000000000000000000000000000000000000000000000000000000000000000000000000000000000000000000000000000000000000000000000000000000000000000000000000000000000000000000000000000000000000000000000000000000000000000000000000000000000000000000000000000000000000000000000000000000000000000000000000000000000000000000000000000000000000000000000000000000000000000000000000000000140000000000000000000000000000000000000000000000000000000000000000000000000000000000000000000000000000000000000000000000000000000000000000000000000000000000000000000000000000000000000000000000000000000000000000000000000000000000000000000000000000000000000000000000000000000000000000000000000000000000000000000000000000000000000000000000000000000000000000000000000000000000000000000000000000000000000000000000000000000000000000000000000000000000000000000000000000000000000000000000000000000000000000000000000000000000000000000000000000000000000000000000000000000000000000000000000000000000000000000000000000000000000000000000000000000000545424000000000000000000000000000000000000000000000000000000000000000000000000000000000000000000000000000000000000000000000000000000000000000000000000000000000000000000000000000000000000000000000000000000000000000000000000000000000000000000000000000000000000000000000000000000000000000000000000000000000000000000000000000000
#0359a1:000000000000000000000000000000000000000000000000000000000000000000000000000000000000000000000000000000000000000000000000000000000000000000000000000000000000000000000000000000000000000000000000000000000000000000000000000000000000000000000000000000000000000000000000000000000000000000000000000000000000000000000000000000000000000000000000000000000000000000000000000000000000000000000000000000000000000000000000000000000000000000000000000000000000000000000000000000000000000000000000000000000000000000000000000000000000000000000000000000000000000000000000000000000000000000000000000000000000000000000000000000000000000000000000000000000000000000000000000000000000000000000000000000000000000000000000000000000000000000000000000000000000000000000000000000000000000000000000000000000000000000000000000000000000000000000000000000000000000000000000000000000000000000000000000000000000000000000000000000000000000000000000000000000000000000000000000000000000000000000000000000000000000000000000000000000000000000000000000000000000000000000000000000000000000000000000000000000000000000000000000000000000000000000000000000000000000000000000000000000000000000000000000000000000000000000000000000000000000000000000000000000000000000000000000000000000000000000000000000000000000000000000000000000000000000000000000000000000000000000000000000000000000000000000000000000000000000000000000000000000000000000000000000000000000000000000000000000000000000000000000000000000000000000000000000000000000000000000000000000000000000000000000000000000000000000000000000000000000000000000000000000000000000000000000000000000000000000000000000000000000000000000000000000000000000000000000000000000000000000000000000000000000000000000000000000000000000000000000000000000000000000000000000000000000000000000000000000000000000000000000000000000000000000000000000000000000000000000000000000000000000000000000000000000000000000000000000000000000000000000000000000000000000000000000000000000000000000000000000000000000000000000000000000000000000000000000000000000000000000000000000000000000000000000000000000000000000000000000000000000000000000000000000000000000000000000000000000000000000000000000000000000000000000000000000000000000000000000000000000000000000000000000000000000000000000000000000000000000000000000000000000000000000000000000000000000000000000000000000000000000000000000000000000000000000000000000000000000000000000000000000000000000000000000000000000000000000000000000000000000000000000000000000000000000000000000000000000000000000000000000000000000000000000000000000000000000000000000000000000000000000000000000000000000000000000000000000000000000000000000000000000000000000000000000000000000000000000000000000000000000000000000000000000000000000000000000000000000000000000000000000000000000000000000000000000000000000000000000000000000000000000000000000000000000000000000000000000000000000000000140000000000000000000000000000000000000000000000000000000000000000000000000000000000000000000000000000000000000000000000000000000000000000000000000000000000000000000000000000000000000000000000000000000000000000000000000000000000000000000000000000000000000000000000000000000000000000000000000000000000000000000000000000000000000000000000000000000000000000000000000000000000000000000000000000000000000000000000000000000000000000000000000000000000000000000000000000000000000000000000000000000000000000000000000000000000000000000000000000000000000000000000000000000000000000000000000000000000000000000000000000000000000000000000000000000000545424000000000000000000000000000000000000000000000000000000000000000000000000000000000000000000000000000000000000000000000000000000000000000000000000000000000000000000000000000000000000000000000000000000000000000000000000000000000000000000000000000000000000000000000000000000000000000000000000000000000000000000000000000000
#0689c1:000000000012000000000000
#0699c1:0022
#068920:000000000012000000000000
#069920:0022
