This file was generated by Ched 2.7.0.0.
#TITLE " "
#ARTIST ""
#DESIGNER ""
#DIFFICULTY 0
#PLAYLEVEL
#SONGID ""
#WAVE ""
#WAVEOFFSET 0
#JACKET ""
#REQUEST "ticks_per_beat 480"
#00002: 4
#BPM01: 90.75
#BPM02: 141
#BPM03: 86
#BPM04: 84
#BPM05: 85
#00008: 01
#00708: 02
#00508: 0304000005000000
#TIL00: ""
#VOLUME: ""
#HISPEED 00
#MEASUREHS 00
#00714:14
#00710:41
#00818:14
#00814:0014
#01218:14
#01414:14
#0111a:14
#01312:14
#01614:14
#01618:0014
#02014:14
#01912:14
#02218:14
#0211a:14
#0231a:0014
#02314:24
#02310:41
#02412:14
#0241a:0014
#02512:14
#02514:0014
#02612:14
#02712:0014
#02718:24
#0281a:14
#02812:0014
#0291a:14
#02918:0014
#0301a:14
#03010:0041
#0311a:0014
#0311f:11
#03112:24
#03214:1414
#03218:00140000
#0331a:14
#03312:0014
#03418:1414
#03414:00140000
#03614:00000014
#03718:00140000
#03714:00000014
#03917:001400000000000000000000
#03914:00000014
#03910:41
#0381a:000000240000000014000000
#0381f:000021
#04013:00140000
#04019:14
#04018:0014
#04114:0000001400000000
#04112:14
#04218:00140000
#04214:0014
#0421a:00000014
#04312:00000014
#0441a:00000014
#04518:00140000
#04612:000000240000000014000000
#04718:00000014
#04819:00140000
#04813:14
#04814:0014
#0481a:00000024
#0501a:00140000
#05014:00000014
#05118:14
#05114:00000014
#05218:00140000
#05214:00000014
#05312:000014340000340000000000000000000000000000000000
#05314:000000000014000000000000
#0541a:00140000
#05416:0014
#05412:00000014
#05410:00000041
#0551a:00000014
#06012:00000014
#06119:00000015
#06114:14
#06217:15
#06212:00000016
#05614:00000014
#05718:00000014
#06314:16
#06318:00000016
#06415:00160000
#06418:00000026
#06614:00140014
#06618:0014
#01518:24
#01510:41
#03512:25000025
#03519:25000025
#04912:00250025
#04919:0025
#05812:00000024
#0581a:00000024
#0591a:00240024
#05912:00240024
#06512:00260000
#06518:00000024
#0051a:0054
#06912:0053
#01258:54
#01454:64
#0115a:64
#01352:54
#02054:64
#01952:54
#02258:54
#0215a:64
#02354:14
#02654:0014
#02652:54
#02552:54
#02554:0054
#0295a:64
#02958:0064
#0305a:64
#03058:0014
#03754:00000014
#03957:002400000000000000000000
#0385a:000054
#04154:0000002400000000
#04152:64
#04358:00140000
#04352:00000064
#0425a:00000054
#04454:00140000
#0445a:00000054
#0455a:00000014
#04558:00540000
#04652:000064
#04952:00000015
#05158:54
#05154:00000064
#05258:00540000
#05254:00000064
#05354:000000000054000000000000
#05352:002400000000000000000000
#05554:00140000
#0555a:00000064
#05452:00000054
#05658:00140000
#05654:00000064
#06052:00000054
#06152:00140000
#06159:00000065
#06154:24
#06259:00150000
#06257:25
#06252:00000056
#05952:00000014
#0595a:00000014
#05752:00140000
#05758:00000054
#0585a:00140000
#06354:26
#06352:00160000
#06358:00000066
#06455:00260000
#06458:00000016
#06552:00160000
#06654:00000054
#001380:1400002400000000
#001320:00000014
#002320:0024000000000000
#002390:0000000014000024
#003330:0000140000240000
#0043a0:1400002400000000
#004340:00000014
#005340:0024000000000000
#009380:1424
#010340:1424
#0113a0:14
#011380:0024
#012380:14
#0123a0:0024
#013320:14
#013340:0024
#014340:14
#014320:0024
#017340:1424
#018380:1626
#019320:14
#019340:0024
#020340:14
#020320:0024
#0213a0:14
#021380:0024
#022380:14
#0223a0:0024
#025320:14
#025340:0034
#026320:34
#026340:0024
#0293a0:14
#029380:0034
#0303a0:34
#030380:0024
#0383a0:000000140000340034000000
#039370:005400000000000000000000
#0393a0:0024
#040320:00000014
#041320:34000024
#041340:0000005400000000
#0423a0:00000014
#043380:00240000
#043320:00000014
#044340:00240000
#0443a0:00000014
#045380:00340000
#0453a0:00000024
#046320:000000140000340034000000
#047340:00240000
#0483a0:00000014
#0493a0:24
#051380:14
#0513a0:0024
#051340:00000014
#052320:24
#052380:00140000
#0523a0:0024
#052340:00000014
#053320:000054340000340000000000000000000000000000000000
#053340:000000000034000000000000
#054320:24
#054320:00000014
#055340:00240000
#0553a0:00000014
#056380:00240000
#056340:00000014
#057320:00240000
#057380:00000014
#0583a0:00240000
#060320:00000014
#061340:54
#061320:00240000
#061390:00000015
#062370:55
#062390:00250000
#062320:00000016
#063340:56
#063320:00260000
#063380:00000016
#064350:00560000
#064380:00000026
#066340:00000014
#069320:0023
#0059a0:0014
#0069a0:00240000
