This file was generated by Ched 2.7.0.0.
#TITLE ""
#ARTIST ""
#DESIGNER ""
#DIFFICULTY 0
#PLAYLEVEL
#SONGID ""
#WAVE ""
#WAVEOFFSET 0
#JACKET ""
#REQUEST "ticks_per_beat 480"
#00002: 4
#BPM01: 91
#00008: 01
#TIL00: ""
#VOLUME: ""
#HISPEED 00
#MEASUREHS 00
#0051a:14
#00510:41
#00918:14
#00910:41
#01014:14
#00118:14
#00214:14
#00318:14
#00414:14
#0061a:14
#00712:14
#00812:14
#01118:14
#01214:14
#0131a:14
#01310:41
#01412:14
#0151a:14
#01612:14
#0161f:00000011
#02912:0000001600000000
#02918:26
#02910:41
#03112:16
#03118:0000001600000000
#03018:16
#03212:16
#03312:0000001600000000
#03318:26
#03512:16
#03518:0000001600000000
#03510:41
#03418:16
#03612:16
#01718:14
#01714:0014
#01818:14
#01814:0014
#0191a:14
#01912:0014
#02018:16
#02012:0016
#02118:26
#0211f:21
#02518:26
#02210:41
#03058:66
#03252:56
#03458:66
#03652:56
#021380:16000036
#021360:0000003600000000
#022380:3600002600000000
#023320:16000036
#023340:0000003600000000
#024320:3600002600000000
#025380:16000036
#025360:0000003600000000
#026380:3600002600000000
#027320:16000036
#027340:0000003600000000
#028320:36
#028340:0026
#029380:00000016
#030380:36
#030360:0000002600000000
#031320:00000016
#032320:36
#032340:0000002600000000
#033380:00000016
#034380:36
#034360:0000002600000000
#035320:00000016
#036320:36
#036340:0000002600000000
#0373a0:14000024
#038320:14000024
#039380:14000024
#040340:14000024
#0413a0:14340000
#041390:00000034
#0423a0:00340000
#042390:00000034
#0433a0:00340000
#043390:00000034
#044390:54
#0443a0:00000024
