This file was generated by Ched 2.7.0.0.
#TITLE ""
#ARTIST ""
#DESIGNER ""
#DIFFICULTY 0
#PLAYLEVEL
#SONGID ""
#WAVE ""
#WAVEOFFSET 0
#JACKET ""
#REQUEST "ticks_per_beat 480"
#00002: 4
#BPM01: 91
#00008: 01
#TIL00: ""
#VOLUME: ""
#HISPEED 00
#MEASUREHS 00
#03712:1400001400000000
#03716:0000001400000000
#0371a:00000014000000000000000000000000
#03715:00000014000000000000000000000000
#03718:2400000000000024
#03714:00000024
#02115:00000013
#02118:0000000000000013
#02116:00000014000000000000000000000000
#0211a:24000000000000000014000000000000
#02112:24
#0211f:21
#00815:0013000000130013
#00813:00000000001400000000000000000000
#00818:00000013000000000000000013000000
#00819:0000001400000000
#0081b:13
#00418:00000000000000000000000000000013
#00415:0000000000000013
#00518:00001300000000000013000000001300
#0051b:00000000000000130000000000000000
#00515:23000013000000000000001300000013
#00512:00000000000000000000000000130000
#00510:41
#02415:00000013
#02418:00000024000000000000000000001300
#02412:0014000000000000
#02414:00000000001400000000000000000000
#0241a:2400002400000000
#02215:0000000000000013
#02218:0013000000001300
#02219:00000000001300000000000000000000
#02212:24
#02213:00000024000000000000000000000000
#02214:0000002400000000
#02210:41
#0291a:00000014
#0291a:00000014
#02914:0000000000000014
#02916:00000014000000000014000000000000
#02918:26
#02912:0000002600000000
#02910:41
#03014:00000014
#03018:2600000000000014
#03013:0014000000000000
#03012:00000000001400000000000000000000
#03017:00000026000000000000000000000000
#03016:0000002600000000
#0061b:13000000000000000000000000130000
#00615:00001300000000000013000000001300
#00618:00000013000000000000001300000013
#00612:00000000000000130000000000000000
#00915:0000001300001313
#00912:0013
#00918:13000000000000130000000000130000
#0091b:0000000000130000
#00910:41
#0121b:13
#01212:0000001300000000
#01218:00000000130000130000000000001300
#01215:0013000000001300
#01815:00000000001300000000000000000000
#01812:0000000000001313
#0181b:0033000000001313
#01818:13
#01918:0000333300001300
#01915:0000333300130013
#0191a:33
#01919:0033000000000000
#01913:33
#01914:0033000000000000
#03615:00000000000000000000130000130000
#03618:00000024000000000000000013000000
#03614:0014000000000000
#03612:00000000001400000000000000000000
#0361a:24
#03616:0000002400000000
#0401a:14
#04012:24000026
#04018:00000026
#03216:0000002400000014
#0321a:00000000001400000000000014000000
#03218:0014000000000000
#03212:24
#03214:00000024000000000000000000000000
#00712:13000000000000000000000000130000
#00718:00001300000000000013000000001300
#0071b:00000000000000130000000000000000
#00715:00000013000000000000001300000013
#01612:13
#0161b:0000001300000013
#01615:00000000130000130000000000000013
#01618:0013000000000000
#0161f:00000011
#01718:13000000000000130000000000000000
#01712:0000001300330000
#01715:00000000000000001300000000000013
#0171b:0033000000000013
#0231a:00000014000000000000000000000000
#02318:24000000000024000000001300000000
#02315:0000000000131300
#02312:00000000001400000000000000000000
#02314:0014000000000000
#02518:00000013
#02515:0000000000000013
#02516:00000014000000000000000000000000
#02512:24000000000000000014000000000000
#0251a:24
#02618:0000002400000013
#02615:0013000000001300
#02614:00000000001300000000000000000000
#0261a:24
#02619:00000024000000000000000000000000
#02715:00000000000000000000001300000000
#02718:0014000000131300
#02712:00000014000000000000000000000000
#0271a:00000000001400000000000000000000
#02714:2400002400000000
#03114:00000014001400000000000000000000
#0311a:0000002400000014
#03116:0000000000140000
#03112:24000014
#03118:0014000000000000
#03312:26000014
#03312:00000014
#03318:0000002600000014
#03316:00000014000000000014000000000000
#03418:00000014
#03414:0000002600000014
#03419:0014000000000000
#0341a:00000000001400000000000000000000
#03412:26
#03413:00000026000000000000000000000000
#0381a:1400001400000000
#03816:0000001400000000
#03812:00000014000000000000000000000000
#03817:00000014000000000000000000000000
#03814:2400000000000024
#03818:00000024
#04118:00130013
#0411b:2313
#03914:14000014000014000000000024000000
#03918:24000014000014000000000000002400
#03912:0000001400000000000000000000001400000000000000000000000000000000
#03916:0000001400000000001400000000001400000000000000000000000000000000
#0391a:0000000000000000001400000000000000000000000000000000000000000000
#0281a:0014000024000000
#02818:00000000001400000000000000000000
#02812:2400002400000000
#02814:00000024000000000000000000000000
#03518:00000014001400000000000000000000
#03512:0000002400000014
#03516:0000000000140000
#0351a:24000014
#03514:0014000000000000
#03510:41
#04215:00130013
#04212:2313
#04315:00130013
#04312:1313
#04318:00130013
#0431b:2313
#0441b:13
#04412:13
#04416:00000062
#04418:00000062
#00116:00000012
#00118:00000032000032000000000000001200
#00218:00000012
#00216:0000000000000012
#00018:00000012
#00016:0000000000000012
#00316:00000012
#00318:0000000000000012
#01015:00000000000000130000000000130000
#01018:0000001300001313
#0101b:0013
#01012:1300000000130000
#0111b:13000013
#01115:0000000013000013
#01118:0000000000130000
#01112:0000001300000000
#01318:0000001300001313
#0131b:0013
#01315:13000000000000130000000000130000
#01312:0000000000130000
#01310:41
#01418:00000000000000130000000000130000
#01415:0000001300001313
#01412:0013
#0141b:1300000000130000
#01512:13000013
#01518:0000000013000013
#01515:0000000000130000
#0151b:0000001300000000
#02018:23000033000033000000000023000000
#02015:23000033000033000000000000002300
#03752:5400005400000000
#03758:54
#03756:00000000000054000014000000000000
#0375a:00000064000000000014000000000000
#03755:00000064000000000000000000000000
#04052:54000016
#0405a:64
#04058:00000016
#00555:00000063000000000000000000000000
#00552:00000000001300000000000000000000
#00658:00000053000000000000000000000000
#0065b:00000000001300000000000000000000
#02358:1400001400000000
#02355:00000063
#00755:00000063000000000000000000000000
#00752:00000000001300000000000000000000
#00958:53
#00955:0000000000000063
#01258:00000000000000530000000000000000
#01655:00000000000000630000000000000000
#0175b:00000013000000000000000000000000
#01758:53
#01755:0063
#01752:00000000000000000000001300000000
#01858:5313
#0185b:00000013000000000000000000006300
#01852:0000000000000053
#02059:0015
#02052:0015
#02058:53
#02055:63
#02152:5400001400000000
#02156:00000064000000000000000000000000
#0215a:00000000000000000014000000000000
#0245a:1400001400000000
#02458:00000014000000000000000000000000
#02556:00000054000000000000000000000000
#02552:00000000000000000014000000000000
#0255a:6400001400000000
#02758:00000053
#02754:1400001400000000
#02958:16
#02952:0000001600000000
#0285a:0064
#02852:1400001400000000
#02854:00000014000000000000000000000000
#03058:16
#03057:00000016000000000000000000000000
#03056:0000001600000000
#03152:14
#0315a:0000001400000000
#03252:14
#03256:0000001400000000
#03254:00000014000000000000000000000000
#03352:16
#03358:0000001600000000
#0385a:6400006400000000
#03856:00000000000064000014000000000000
#03852:00000054000000000014000000000000
#03857:00000054000000000000000000000000
#03854:64
#03954:64000054000064000014000000000000
#03958:64000054000064000014000000000000
#03952:0000002400000000000000000000002400000000000000000000000000000000
#03956:0000002400000000002400000000002400000000000000000000000000000000
#0395a:0000000000000000002400000000000000000000000000000000000000000000
#04158:00530053
#0415b:2323
#04252:2323
#04255:00630063
#0435b:2323
#04355:00630063
#04352:2323
#04358:00530053
#02252:14
#02253:00000014000000000000000000000000
#02254:0000001400000000
#0265a:14
#02659:00000014000000000000000000000000
#02658:0000001400000000
#03452:16
#03453:00000016000000000000000000000000
#03454:0000001600000000
#0355a:14
#03552:0000001400000000
#0365a:14
#03656:0000001400000000
#03658:00000014000000000000000000000000
#0445b:63
#04452:53
#01058:0000000000000053
#01052:53
#0115b:63
#01355:63
#01358:0000000000000053
#01455:0000000000000063
#0145b:63
#01552:53
#001380:12000032000032000000000000000000
#0013a0:00000000000000000022000000000000
#002340:1232000000220000
#002320:0000003200000000
#0033a0:1232000000220000
#0033c0:0000003200000000
#0043a0:12000022
#004380:00000032000032000000000000000000
#004341:12000022
#004361:00000032000032000000000000000000
#005351:00000013000000000000000000000000
#005321:00000000002300000000000000000000
#006381:00000013000000000000000000000000
#0063b1:00000000002300000000000000000000
#007351:00000013000000000000000000000000
#007321:00000000002300000000000000000000
#009381:13
#0093b1:00230000
#009351:0000000000000013
#010321:33
#010351:00230000
#010381:0000000000000013
#0113b1:33
#011381:00230000
#012381:00000000000000130000000000000000
#0123b1:0000000000230000
#013351:13
#013321:00230000
#013381:0000000000000013
#0143b1:33
#014381:00230000
#014351:0000000000000013
#015321:33
#015351:00230000
#016351:00000000000000130000000000000000
#016321:00000023
#017381:13
#0173b1:00003323000000000000000000000000
#017351:0013
#017321:00000000000000000000332300000000
#018381:13
#0183b1:00003323000000000000000000000000
#018381:0000001323000000
#0183b1:0000000000000013
#0193a1:33
#019391:0033000000000000
#019381:0000333323000000
#018320:0000000000000013
#019330:33
#019340:0033000000000000
#019350:0000333323000000
#020380:13000033000033000000000000000000
#020390:0025
#020351:13000033000033000000000000000000
#020321:0025
#021321:1400002400000000
#021361:00000034000000000000000000000000
#023351:00000013
#023321:0000000000000023
#0253a1:1400002400000000
#025361:00000034000000000000000000000000
#027381:00000013
#0273b1:0000000000000023
#0283a1:0014
#029381:26
#037321:1400003400000000
#037351:00000034000000000000000000000000
#037361:00000000000000000024000000000000
#037380:14
#0373a0:00000034000000000024000000000000
#037360:0000003400000000
#0383a0:1400003400000000
#038370:00000034000000000000000000000000
#038360:00000000000000000024000000000000
#038341:14
#038321:00000034000000000024000000000000
#038361:0000003400000000
#039341:14000034000034000024000000000000
#039321:0000005400000000000000000000005400000000000000000000000000000000
#039361:0000000000000000005400000000000000000000000000000000000000000000
#039380:14000034000034000024000000000000
#039360:0000005400000000000000000000005400000000000000000000000000000000
#0393a0:0000000000000000005400000000000000000000000000000000000000000000
#0403a0:14
#040380:00000034000034000000000026000000
#040321:14000026
#040341:00000034000034000000000000000000
#0413b1:1353
#041381:00330033
#0423b1:23
#042320:1353
#042350:00330033
#043320:5353
#043350:00330033
#044320:53
#044350:0000005300000000
#044360:00000022
#0433b1:1353
#043381:00330033
#0443b1:53
#044381:0000005300002200
