This file was generated by Ched 2.7.0.0.
#TITLE ""
#ARTIST ""
#DESIGNER ""
#DIFFICULTY 0
#PLAYLEVEL
#SONGID ""
#WAVE ""
#WAVEOFFSET 0
#JACKET ""
#REQUEST "ticks_per_beat 480"
#00002: 4
#BPM01: 91
#00008: 01
#TIL00: ""
#VOLUME: ""
#HISPEED 00
#MEASUREHS 00
#02218:00000014
#02214:24
#02210:41
#0051a:14
#00514:00140000
#00510:41
#00612:14
#00618:00140000
#00718:14
#00714:00140000
#0091a:14
#00912:0014
#00910:41
#01018:14
#01014:0014
#0111a:14
#01112:0014
#0121a:14
#01312:14
#0131a:0014
#01310:41
#01414:14
#01418:0014
#01512:14
#0151a:0014
#01612:14
#0161f:00000011
#01918:1414
#01914:00140014
#02312:14
#0231a:00000014
#02414:14
#02418:00000014
#02614:00000014
#02618:24
#0271a:14
#02712:00000014
#02818:1400000000000014
#02814:00000014
#0281a:0024
#03014:00000014
#03018:2400000000000014
#03114:1400000000000014
#03118:00000014
#03218:14000014
#03214:0000000000000014
#02912:00000034000014000034000000000000
#02914:24
#02910:41
#03418:00000014
#03414:2400000000000014
#03518:1400000000000014
#03514:00000014
#03510:41
#03614:14
#0361a:00000014
#0331a:00000034000014000034000000000000
#03318:24
#0411a:14
#04112:0014
#04116:00240024
#0421a:14
#04212:0014
#04216:00240024
#0431a:14
#04312:0014
#04316:00240024
#04012:0000001400000000
#0401a:1400001400000000
#0401a:14
#0401a:24
#04018:00000024
#04014:00000024
#02012:24000034000034000000000000000000
#0201a:24000034000034000000000000000000
#02118:24
#0211f:21
#0211a:00000034000034000034000000000000
#02514:24
#02512:00000034000034000034000000000000
#02058:0014
#02054:0014
#03752:00000000000000000014000000000000
#00854:0000001400000000
#0125a:64
#01652:54
#02158:54
#0215a:00000014
#02254:64
#02252:0000001400000000
#02352:54
#02354:0000001400000000
#02454:64
#02452:0000001400000000
#0275a:64
#02758:0000001400000000
#02858:54
#0285a:0014
#02554:64
#02552:00000014
#02658:54
#0265a:0000001400000000
#03154:64
#03152:0000001400000000
#03258:54
#0325a:0000001400000000
#02954:64000014
#02952:0000002400000000
#03058:54
#0305a:0000001400000000
#03558:54
#0355a:0000001400000000
#03654:64
#03652:0000001400000000
#0335a:0000002400000000
#03358:54000014
#03454:64
#03452:0000001400000000
#0385a:00000000000000000014000000000000
#0395a:00000000000000000014000000000000
#03952:00000000000000000014000000000000
#04052:0000005400000000
#04058:00000014
#04054:00000014
#0405a:0000006400000000
#001380:14
#0013a0:00000024
#002340:14
#002320:00000024
#0033a0:14
#003380:00000024
#004320:14
#004340:00000024
#0053a0:00001424
#006320:00001424
#007380:00001424
#008340:1400002400000000
#0123a0:14
#012380:0024
#016320:14
#016340:0024
#0173a0:14000024
#017380:00343400
#018320:14000024
#018340:00343400
#0203a0:14000034000034000000000000000000
#020380:0024
#020321:14000034000034000000000000000000
#020341:0024
#021381:14
#0213a1:00000034000034000034000024000000
#022341:14
#022321:0000002400000000
#023321:14
#023341:0000002400000000
#024341:14
#024321:0000002400000000
#025341:14
#025321:00000034000034000034000024000000
#026381:14
#0263a1:0000002400000000
#0273a1:14
#027381:0000002400000000
#028381:14
#0283a1:0024
#029341:14000024
#029321:00000034000034000034000000000000
#030381:14
#0303a1:0000002400000000
#031341:14
#031321:0000002400000000
#032381:14
#0323a1:0000002400000000
#033381:14000024
#0333a1:00000034000034000034000000000000
#034341:14
#034321:0000002400000000
#035381:14
#0353a1:0000002400000000
#036341:14
#036321:0000002400000000
#037321:14000000000000000024000000000000
#037341:00000034000034000000000000000000
#0383a1:14000000000000000024000000000000
#038381:00000034000034000000000000000000
#0393a1:14000000000000000024000000000000
#039381:00000034000034000000000000000000
#039320:14000000000000000024000000000000
#039340:00000034000034000000000000000000
#040320:1400003400000000
#040340:00000024
#0403a1:1400003400000000
#040381:00000024
#0443a1:14
#0443b1:00000023
