This file was generated by Ched 2.7.0.0.
#TITLE ""
#ARTIST ""
#DESIGNER ""
#DIFFICULTY 0
#PLAYLEVEL
#SONGID ""
#WAVE ""
#WAVEOFFSET 0
#JACKET ""
#REQUEST "ticks_per_beat 480"
#00002: 4
#BPM01: 160
#00008: 01
#TIL00: ""
#VOLUME: ""
#HISPEED 00
#MEASUREHS 00
#00012:24241424
#0001a:0014
#00017:00000000000000000000130000130000
#0001b:13
#00112:14241424
#00117:1314
#0011b:0000000000130000
#00118:00000000000000000000000000130000
#00115:0000000000000013
#0021a:14241424
#00212:1314
#00216:00000000000000000000130000130000
#0031a:14241424
#00316:13
#00315:00000000000000001400000000130000
#00312:0000000000130000
#00318:0000000000000013
#00412:14241424
#0041a:0014
#00417:00000000000000000000130000130000
#0041b:13
#00512:14241424
#00517:1314
#0051b:0000000000130000
#00518:00000000000000000000000000130000
#00515:0000000000000013
#0061a:14241424
#00612:1314
#00616:00000000000000000000130000130000
#0071a:14002424
#00715:00001300000000000013000000001400
#00712:2400531300002400
#00718:0000000000130000
#00716:00240000
#00714:005300000000
#00713:000000000053000000000000000000000000000000000000
#00812:1414
#0081b:00130013
#00819:0000001300130013
#00817:0013
#00818:26
#00815:00240024
#00810:41
#00912:1414
#00918:00000000000000130000130000000000
#0091b:00000013
#00914:00000000000000000000000000000013
#00917:13
#00915:00240024
#01017:1414
#01012:0013000000130000
#01016:00130013
#01014:00000000000000130000000000001300
#0101a:00240024
#01117:1414
#01112:13000000000000130000000000000000
#01114:0000000000130000
#01116:0000000000000014
#0111a:00240024
#0121a:1414
#01212:14130013
#01214:0000001300130013
#01216:0013
#01217:00240024
#0131a:1414
#01315:00000000000000130000130000000000
#01312:00000013000000000000000013000000
#01316:13
#01313:0000000000000013
#01317:00240024
#01414:1414
#0141b:1313
#01419:0013001300000000
#01417:00130000
#01415:0000000000000013
#01412:00240024
#01512:14140000
#0151a:14140000
#01518:00001300000000130000000000000000
#01515:0000001313001414
#01517:00000000000000000000000000140000
#0151b:0000000000230000
#01612:25001300130000000000001300130000
#01617:00000013000000000000000013001300
#0161b:0000001313000000
#01616:00000000000000130013000000000000
#01619:25
#01610:41
#01712:14000000000000130013001300000000
#0171a:14
#01715:00001300130000000000000000130000
#01718:00000013000000000000000013001300
#0171b:0000001313130000
#0181a:14240000
#01812:1400001313002400
#01818:0013000000001300
#01815:0000130000130000
#01817:00000000000000130000000000000000
#0181b:0000000000000013
#01816:0000000000000013
#01917:0013000000000000
#01915:00000000130000000013000000001300
#01913:0000001300000000
#0191a:00241400
#01918:00000000000000000000130000130000
#01912:00000024
#0201a:14
#02012:1413
#02018:00001300000000130013000000001300
#02015:00000013000013000000130000130000
#0201b:00130013
#0211a:14
#02112:14
#0221a:1414141414000000
#02215:00140000
#02212:0000000014141414
#02217:00000014
#02312:14000000000013000000000000260000
#0231a:14
#02318:0013000000002626
#02315:00130000
#02317:0000001300000000
#02316:0000000000130000
#02418:1613000000000000
#02415:0013000000000000
#0241b:00000000000000130000000000000000
#02416:0013
#02417:0000000000131313
#02412:2600000000330013
#02410:41
#02516:0013000000000000
#02514:00130000
#02519:0000130000000013
#02512:0000001300001300
#02517:0000001300001300
#0251b:0000000000130000
#02613:0013000000000000
#02616:13130013
#02617:0000000013000013
#02618:0013000000000000
#02614:0000000000130000
#02619:0000000000130000
#0261b:23000013
#02612:0000000000000013
#02714:00130000
#02719:00130000
#02712:0000001300002414
#02717:00000000000013000000000000130000
#02716:00000000000000000013000000000000
#0271a:0000000024140000
#02812:1600000013000013
#02818:2613000000000000
#02815:0013000000000000
#02817:0000000013000013
#02819:0000000000130000
#0281b:00000013
#02814:0000000000130000
#02816:00000013
#02916:0013000000130000
#02917:0000001300000013
#02914:00000013
#02919:00000013
#02912:0000000000000013
#03012:0013000000130000
#03018:0000001300000013
#03016:24
#0311b:1300130000130000
#03118:00001300000000000000000000140000
#03115:00130000
#03116:0000001400000000
#03114:0000000000001414
#03218:16
#03212:26001300000000130000000000000000
#0321b:0013000000330013
#03217:0013
#03216:0000000000131313
#0331b:00000000003300000000000013000000
#03316:0000001300001300
#03317:0013000000130000
#03319:0000000000000013
#03412:1313131300001400
#03416:1414
#0341a:00140000
#0341b:0000000013131313
#03516:13130000
#03517:0013001300000000
#03512:00000000000000130000000000140000
#0351b:0013
#0351a:0000000000002414
#03612:1613000000001300
#0361b:0013000013000013
#03616:0000000013000013
#03614:0000000000130000
#03619:0000000000130000
#03617:00000013
#03618:26
#03717:0013000000130000
#03716:0000001300000013
#03719:00000013
#03714:00000013
#0371b:0000000000000013
#0381b:0013000000130000
#03815:0000001300000013
#03816:24
#03912:13000000000000000000001600000000
#03918:0013231316000016
#03915:00002300130000130000000000000000
#04016:0012000012000000
#04018:00000012000000000000000012000000
#04012:2400002400240000
#0401a:2400002400240000
#04010:41
#04118:1200001200000000
#04116:0000000000120000
#0411a:0024000024002400
#04112:0024000024002400
#04218:0012001200000000
#04216:0012
#0421a:2400000000242400
#04212:2400000000242400
#04318:12000000000000000000120000160000
#04316:0012001200000000
#04312:0000000024001616
#0431a:0024
#04412:00000013000000000013000000000000
#0441b:2300001300001300
#04419:00530000000000530000000000000000
#04417:0053000053000000
#04414:0000530000530000
#04416:00000000005300000000005300000000
#04512:1300001300001300
#0451b:00000013000000000013000000000000
#04514:00530000000000530000000000000000
#04516:0053000053000000
#04519:0000530000530000
#04517:00000000005300000000005300000000
#04617:1300001300000000
#04616:00000013000000000013000014000000
#04619:00530000000000530000000000000000
#0461b:0053000053000000
#04614:0000530000530000
#04612:00000000005300000000005300000000
#04718:1313131316160000
#04715:00130013001300130000000016000000
#04712:00000000000000000016000000000000
#04816:00140014
#0481a:2400000014000014
#04812:1416000000000000141600000000000014160000000000000000000000000000
#04818:0000000000000000000000000000000000000000000000000000000000160000
#0481f:11
#04916:0014000014000000
#04912:0000001400000000
#0491a:0014001400000000
#04918:0000000000160000000000000000000000000000000000000000000000000000
#05016:1414
#0501a:0000140000140014
#05012:1416000000000000141600000000000014160000141600000000000000000000
#05018:0000000000000000000000000000000000000000000000000000000000160000
#05116:0014000014000000
#05112:0000001400000000
#0511a:0014001400000000
#05118:0000000000160000000000000000000000000000000000000000000014000000
#05216:00140014
#05212:2400000000000000000000000000000014000000000000000000000014160000
#05218:0016000000000000001600000000000000160000000000000000000000000000
#0521a:14141400
#05316:0014000014000000
#0531a:0000001400000000
#05312:0000000014160000000000001400000000000000000000000000000000000000
#05416:1414
#05412:0000140000140014
#05418:0016000000000000001600000000000000160000001600000000000000000000
#0541a:1400140014140000
#0551a:00140000
#05514:0014000000000000
#05512:00140000
#05518:00001400000000003300333333333333
#05515:00000000000000003300333333333333
#05615:00000000000000130000000000000000
#05618:0013
#05612:0000250000130000
#0561b:0000000000130013
#05619:00250013
#05614:00000013
#05616:0000000000000014
#0561f:00210000
#05716:0014001400001400
#05719:00130000
#05714:00130000
#0571b:0000001300001300
#05712:0000000000130014
#05717:00000000000000000000000000000013
#05710:41
#05816:0013140014001414
#05819:0000000000130000
#05814:0000000000130000
#05812:24000013
#0581b:0000000000000013
#05919:00130000
#05914:00130000
#0591b:0000001300000000
#05916:0000001400000000
#05918:00000000000000000013000000001300
#05915:00000000000000000000130000130000
#05912:0024
#0591a:00000024
#06018:1613000000000000
#06015:0013000000000000
#0601b:0000000013000013
#06016:0000000014001414
#06014:0000000000130000
#06012:26000013
#06019:0000000000130000
#06117:0014000000000000
#06115:0000001400000000
#06116:0000000000140000
#06119:00000013
#06114:00000013
#0611b:0000130000000013
#06112:13000000000000000000000000000013
#06314:00130000
#06316:0014001400000000
#0631b:1300001300000000
#06312:0013000000002400
#06319:00130000
#06315:00000000000000000013000000001300
#06318:00000000000000000000130000130000
#0631a:0024
#06412:1613000000130013
#0641b:0013000000130000
#06418:26000000000000130000000000000000
#06415:0013
#06414:00000013
#06419:00000013
#06416:0000000000000014
#06818:16
#06812:26001333000000130000000013000000
#0681b:00001333000000000000130000001300
#06817:00001313
#06816:0000000000130013
#06917:0013000000130000
#06916:0000001300000000
#06914:00000013
#06919:00000013
#06912:0000000000000013
#0691b:00000000000000000000000000000013
#06216:0014131400141314
#06217:1313
#06516:00001400000014000000000014000013
#06514:00130000
#06519:00130000
#06512:0000001300001300
#0651b:0000000000130000
#0651a:0000000000000014
#06616:0000140014001414
#06617:0013000000000000
#06614:0000000000130000
#06619:0000000000130000
#0661b:00000013
#06612:0000000000000013
#0661a:24
#06714:00130000
#06719:00130000
#06712:0000001300002400
#06716:0000001400000000
#06715:00000000000000000013000000001300
#06718:00000000000000000000130000130000
#0671a:0024
#07016:1314001413140014
#07017:00130013
#07113:0013000000000000
#07119:00130000
#07115:0000001300000000
#07112:2300000013130024
#0711b:00000000000000000000001300130000
#0711a:0023000000000000
#07114:00230000
#07118:0000002300000000
#07116:00000000000000000024000024000024
#07218:0013000013000000
#0721b:0000001300000000
#07212:2414
#07219:00000000000000000000001300000000
#0721a:0000000000000013
#07215:00240024
#07210:41
#07312:1414
#0731b:0000001300001300
#07317:0013
#07319:0013000000130000
#0731a:00130000
#07318:0000000000000013
#07315:00240024
#07415:0013000013000000
#07412:1400001300000000
#0741a:1414
#07414:00000000000000000000001300000000
#07413:0000000000000013
#07417:00240024
#07518:00000000130013000000001300000000
#07515:00000000001300130000130000000000
#0751a:24002400000000001400000000000013
#07514:00000013
#07519:00000000000000000000000000130000
#07513:0000000000000013
#07512:2424000000000000
#07617:00160000
#07612:00150014
#07613:0016
#07619:0015
#07616:00000016
#07614:0000000000000016
#0761a:0000000000000014
#07615:26
#07715:0016001600000000
#07712:0013000000240000
#0771b:0000001300000000
#07716:00000024
#0771a:0000000000000024
#07813:16
#07819:15
#07817:00160000
#07812:0000150000140000
#07814:0016
#0781a:0014
#07816:0000000000160000
#07815:0000000000000016
#0781b:0000000000000013
#07915:00001600000016000000000000000013
#07912:0013000000141400
#0791b:0000001300000000
#07918:0000000000000013
#07917:00000013
#08013:00160000
#08019:00150000
#08017:0016
#08012:0000000015000014
#08014:00000016
#0801a:00000014
#08016:0000000000000016
#08018:26
#08115:0016001600000000
#0811b:0013000000000000
#08112:0000001300000024
#0811a:0000000000240000
#08116:00000024
#08217:16
#08212:1500000014000014
#08213:00160000
#08219:00150000
#08216:0000000016000016
#08214:0000000000160000
#0821a:0000000000140000
#08318:00140000000014000000001300001400
#08314:24001400001400000000000000001400
#0831a:00140000
#08312:00000000000000140000000000000000
#08316:0014
#08315:00000000000000000000001300000000
#0841b:0013000000000000
#08412:0013000000000000
#08413:002a0000
#0005b:63
#00052:14
#00157:63
#00252:53
#00356:53
#0045b:63
#00557:63
#00652:53
#0075a:14
#00858:16
#01152:63
#00957:63
#0095b:00000013
#0145b:0063
#01457:00000013
#01659:45
#01856:0000000000000063
#0185b:0000000000000013
#02255:00140000
#02257:00000014
#02357:0000006300000000
#02352:0000001300000000
#02458:6623460000000000
#02452:6600360000000013
#02455:0023000000000000
#02456:0063
#02457:0000000000000063
#02552:0000006300000000
#02557:0000001300000000
#02653:0023000000000000
#02656:63630000
#0265b:63430000
#02658:0023000000000000
#02652:0000000000000063
#02657:0000000000000063
#02752:0000001300000000
#02852:5600360000000013
#02858:5623460000000000
#02855:0023000000000000
#02857:0000000000000063
#02956:0053000000000000
#0295b:0013000000000000
#02952:0000001300000000
#02957:0000006300000000
#03258:66160000
#03252:6623160000000000
#0325b:0023000000000013
#03257:0053
#03256:0000000000000053
#03352:0013000000000000
#03357:0063000000000000
#0335b:0000001300000000
#03356:0000006300001300
#0345a:00140000
#03452:00000014
#03556:63630000
#03557:0063006300000000
#0355b:0023
#03552:00000000000000230000000000000000
#03652:5623160000000000
#0365b:0023000000000013
#03658:56160000
#03656:0000000000000053
#03757:0063000000000000
#03756:0000005300000000
#03752:0013000000000000
#0375b:0000001300000000
#03958:0000000046000046
#03952:00000000000000000000003600000000
#0445b:00000013
#04552:00000013
#04656:00000014
#04755:00000016
#0485a:1400000014000024
#04856:00140000
#04852:2466000000000000246600000000000024660000000000000000000014000000
#04858:0000000000000000000000000000000000000000000000000000000000560000
#04956:0014000024000000
#04952:0000001400000000
#0495a:0024006400000000
#04958:0000000000560000000000000000000000000000000000000000000000000000
#05056:14
#0505a:0000140000140024
#05052:2466000000000000246600000000000024660000246600000000000014000000
#05058:0000000000000000000000000000000000000000000000000000000000560000
#05156:0014000024000000
#05152:0000001400000000
#0515a:0024006400440000
#05158:0000000000560000000000000000000000000000000000000000000000000000
#05256:00140000
#05252:1400000000000000000000000000000014000000000000000000000024660000
#05258:0056000000000000005600000000000000560000000000000000000000000000
#0525a:2400240024000014
#05356:0014000024000000
#0535a:0000001400000000
#05352:0000000024660000000000005400000000000000000000000000000000000000
#05456:14
#05452:0000140000140014
#05458:0056000000000000005600000000000000560000005600000000000000000000
#0545a:2400240024240014
#05658:13
#05655:13
#05652:00350000
#05659:00450000
#05656:0000000000000054
#0565b:0000000000000013
#0555a:00640000
#05554:0054000000000000
#05552:00540000
#05558:0064000000000000
#0575b:0000005300001300
#05756:0000001400000000
#05856:0023540000000054
#0585b:0000000000000053
#05852:64340000
#0595b:0000001300000000
#05955:0000000000130000
#05958:0000000000000013
#06058:6623460000000000
#06055:0023000000000000
#06056:0000000000000054
#0605b:0000000000000013
#06052:66360000
#06157:0064000000000000
#06155:0000005400000000
#06154:0013000000000000
#06159:0000001300000000
#06152:23
#0615b:00230000
#06356:0000001400000000
#06452:5623160000000013
#0645b:0023000000000000
#06458:56160000
#06456:0000000000000064
#06858:66160000
#06852:6623160000000000
#0685b:0023000000000013
#06856:0000000000000053
#06957:0063000000000000
#06956:0000005300000000
#06952:0013000000000000
#0695b:0000001300000000
#06257:6363
#06256:00530053
#06552:0000006300001300
#06556:0000001400000000
#06656:0000640000000064
#06657:0023000000000000
#06652:0000000000000063
#0665a:64440000
#06752:0000001300000000
#06758:0000000000130000
#06755:0000000000000013
#07056:5353
#07057:00630063
#07252:14
#0755a:0014
#07655:16
#07657:00460000
#07653:0036
#07656:00000046
#07654:0000000000000036
#07755:0046003600000000
#0775b:0000006300000000
#07853:36
#07857:00460000
#07854:0036
#07856:0000000000460000
#07855:0000000000000036
#07955:0046003600000000
#0795b:0000006300000000
#08053:00360000
#08057:0046
#08054:00000036
#08056:0000000000000046
#08058:46
#08155:0036004600000000
#08152:0000005300000000
#08257:46
#08253:00360000
#08256:0000000046000046
#08254:0000000000360000
#08356:0014
#08355:00000000000000000000001300000000
#08358:00000000000000000000001300004400
#08354:0000000000000034
#08453:001a0000
#0125a:14
#03156:0000001400000000
#0003b0:13
#000370:00230000
#001370:13
#0013b0:00230000
#002320:13
#002360:00230000
#003360:13
#003320:00230000
#0043b0:13
#004370:00230000
#005370:13
#0053b0:00230000
#006320:13
#006360:00230000
#009370:13
#0093b0:00230000
#011320:13
#011360:00230000
#0143b0:0013
#014370:00000023
#018360:0000000000000013
#019320:0023000000000000
#021350:0013230000000000
#021381:0000132300000000
#021320:0000001323000000
#0213b1:0000000013230000
#021350:0000000000132300
#021381:0000000000001323
#021320:0000000000000013
#022320:23
#023370:0000001300000000
#0233b0:0000000000230000
#024320:16260000
#024350:0053000000000000
#024381:1653260000000000
#024361:0013
#024321:0000000000332300
#024371:0000000000000013
#0253b1:0023000000000000
#025321:0000001300000000
#025361:0000000000230000
#026361:13330000
#026331:0053000000000000
#026321:0023
#0263b0:13230000
#026380:0053000000000000
#026371:0000000000000013
#0273b1:0023000000000000
#026320:0000000000000013
#027360:0023000000000000
#028380:1653260000000000
#028321:16260000
#028351:0053000000000000
#028371:0000000000000013
#0293b1:0023000000000000
#029360:0013000000000000
#029320:0000002300000000
#029371:0000001300000000
#0293b1:0000000000230000
#0303b1:13
#030381:00230000
#030350:00130000
#030320:0023
#0303b1:0013
#030381:00000023
#030350:00000013
#031320:23
#031320:0000001300230000
#032320:1653260000000000
#032381:16260000
#0323b1:0053000000000000
#032371:0013
#0323b1:0000000000332300
#032361:0000000000000013
#033321:0023000000000000
#033370:0013000000000000
#0333b0:00000000003323000000000000000000
#033361:0000001300000000
#033321:0000000000230000
#035361:13
#035321:0023000000000000
#035370:0013000000000000
#0353b0:00230000
#035361:00130000
#035321:00000000000000530000000000000000
#035351:0000000000230000
#035370:0000001300000000
#0353b0:0053
#035380:0000000000230000
#036380:16260000
#0363b0:0053000000000000
#036321:1653260000000000
#036361:0000000000000013
#037321:0023000000000000
#037370:0013000000000000
#0373b0:0000002300000000
#037361:0000001300000000
#037321:0000000000230000
#038321:13
#038351:00230000
#038380:00130000
#0383b0:0023
#038321:0013
#038351:00000023
#038380:00000013
#0393b0:23
#040360:00000000000000000000000000120000
#041360:22
#042360:00000012000022000000000000000000
#043380:00000012000022000000000000000000
#048320:1456000054000000345600005400000034560000540000003400000024000000
#0483a1:0000000000000014
#048381:0000000000000000000000000000000000000000000000000000000000560000
#0493a1:5434543400240000
#049381:0000000000560000000000000000000000000000000000000000000000000000
#049361:0054
#049340:0000000000142400
#049381:0000000000001424
#049320:0000000000000014
#050320:3456000054000000345600005400000034560000345600005400000024000000
#0503a1:0000000000000014
#050381:0000000000000000000000000000000000000000000000000000000000560000
#0513a1:5434543400240000
#051381:0000000000560000000000000000000000000000000000000000000000000000
#051361:0054
#051340:0000000000140024
#0523a0:1454345434543424
#052380:0056000000000000005600000000000000560000000000000000000000000000
#052321:0000000000000000000000000000000000000000000000000000000014560000
#053321:5400000034560000540000003400000000000000240000000000000000000000
#053361:0054
#053380:0000000000142400
#053341:0000000000001424
#0533a0:0000000000000014
#0543a0:3454345434345424
#054380:0056000000000000005600000000000000560000005600000000000000000000
#055380:00001400000000003300333333333333
#0553a0:00340000
#056380:23
#055341:0014000000000000
#055321:00340000
#055351:00000000000000003300333333333333
#056351:23
#056361:0000000000000014
#057321:0023000000000000
#0573b1:0000001300000000
#057371:0000000000230000
#058321:14240000
#058361:0053000000000000
#058360:00140000
#0583b0:0023
#058360:0000000000000014
#059320:0023000000000000
#0583b1:0000000000000013
#059361:0024000000000000
#060321:16260000
#060351:0053000000000000
#060380:1653260000000000
#060360:0000000000000014
#061320:53
#061340:0023000000000000
#061371:0014000000000000
#0613b1:00530000
#061391:0000002300000000
#061350:0000001400000000
#061320:0000000000230000
#062370:13
#0623b0:00230000
#062361:00130000
#062321:0023
#062370:0013
#0623b0:00000023
#062361:00000013
#063321:23
#064381:16260000
#0643b1:0053000000000000
#064320:1653260000000000
#064360:0000000000000014
#0653b0:0023000000000000
#065320:0000001300000000
#065360:0000000000230000
#0663a0:14240000
#066370:0053000000000000
#066361:00140000
#066321:0023
#066361:0000000000000014
#0673b1:0023000000000000
#066320:0000000000000013
#067360:0024000000000000
#068320:16005333260000000000000000000000
#068381:16260000
#0683b1:00005333000000000000000000000000
#068361:0000000000000013
#069321:0023000000000000
#069370:0013000000000000
#0693b0:0000002300000000
#069361:0000001300000000
#069321:0000000000230000
#070361:13
#070321:00230000
#070370:00130000
#0703b0:0023
#070361:0013
#070321:00000023
#070370:00000013
#0713b0:23
#0773b0:0000001300000000
#077360:0000000000240000
#0793b0:0000001300000000
#079370:0000000000230000
#081320:0000001300000000
#081360:0000000000240000
#007950:0013000000000000
#007920:000000000000000000000000000000000000000000000000000000000000000000000000000000000000000000000000000000000000000000000000000000000000000000000000000000000000000000000000000000000000000000000000000000000000000000000000000000000000000000000000000000000000000000000000000000000000000000000000000000000000000000000000000000000000000000000000000000000000000000000000000000000000000000000000000000000000000000000000000000000000000000000000000000000000000000000000000000000000000000000000000000000000000000000000000000000000000000000000000000000000000000000000000000000000000000000000000000000000000000000000000000000000000000000000000000000000000000000000000000000000000000000000000000000000000000000000000000000000000000000000000000000000000000000000000000000000000000000000000000000000000000000000000000000000000000000000000000000000000000000000000000000000000000000000000000000000000000000000000000000000000000000000000000000000000000000000000000000000000000000053230000000000000000000000000000000000000000000000000000000000000000000000000000000000000000000000000000000000000000000000000000000000000000000000000000000000000000000000000000000000000000000000000000000000000000000000000000000000000000000000000000000000000000000000000000000000000000000000000000000000000000000000000000000000000000000000000000000000000000000000000000000000000000000000000000000000000000000000000000000000000000000000000000000000000000000000000000000000000000000000000000000000000000000000000000000000000000000000000000000000000000000000000000000000000000000000000000000000000000000000000000000000000000000000000000000000000000000000000000000000000000000000000000000000000000000000000000000000000000000000000000000000000000000000000000000000000000000000000000000000000000000000000000000000000000000000000000000000000000000000000000000000000000000000000000000000000000000000000000000000000000000000000000000000000000000000000000000000000000000000000000000000000000000000000000000000000000000000000000000000000000000000000000000000000000000000000000000000000000000000000000000000000000000000000000000000000000000000000000000000000000000000000000000000000000000000000000000000000000000000000000000000000000000000000000000000000000000000000000000000000000000000000000000000000000000000000000000000000000000000000000000000000000000000000000000000000000000000000000000000000000000000000000000000000000000000000000000000000000000000000000000000000000000000000000000000000000000000000000000000000000000000000000000000000000000000000000000000000000000000000000000000000000000000000000000000000000000000000000000000000000000000000000000000000000000000000000000000000000000000000000000000000000000000000000000000000000000000000000000000000000000000000000000000000000000000000000000000000000000000000000000000000000000000000000000000000000000000000000000000000000000000000000000000000000000000000000000000000000000000000000000000000000000000000000000000000000000000000000000000000000000000000000000000000000000000000000000000000000000000000000000000000000000000000000000000000000000000000000000000000000000000000000000000000000000000000000000000000000000000000000000000000000000000000000000000000000000000000000000000000000000000000000000000000000000000000000000000000000000000000000000000000000000000000000000000000000000000000000000000000000000000000000000000000000000000000000000000000000000000000000000000000000000000000000000000000000000000000000000000000000000000000000000000000000000000000000000000000000000000000000000000000000000000000000000000000000000000000000000000000000000000000000000000000000000000000000000000000000000000000000000000000000000000000000000000000000000000000000000000000000000000000000000000000000000000000000000000000000000000000000000000000000000000000000000000000000000000000000000000000000000000000000000000000000000000000000000000000000000000
#0449b0:001300000000000000000000000000000000000000000000000000000000000000000000000000000000000000000000000000000000000000000000000000000000000000000000000000000000000000000000000000000000000000000000000000000000000000000000000000000000000000000000000000000000000000000000000000000000000000000000000000000000000000000000000000000000000000000000000000000000000000000000000000000000000000000000000000000000000000000000000000000000000000000000000000000000000000000000000000000000000000000000000000000000000000000000000000000000000000000000000000000000000000000000000000000000000000000000000000000000000000000000000000000000000000000000000000000000000000000000000000000000000000000000000000000000000000000000000000000000000000000000000000000000000000000000000000000000000000000000000000000000000000000000000000000000000000000000000000000000000000000000000000000000000000000000000000000000000000000000000000000000000000000000000000000000000000000000000000000000000000000000000000000000000000000000000000000000000000000000000000000000000000000000000000000000000000000000000000000000000000000000000000000000000000000000000000000000000000000000000000000000000000000000000000000000000000000000000000000000000000000000000000000000000000000000000000000000000000000000000000000000000000000000000000000000000000000000000000000000000000000000000000000000000000000000000000000000000000000000000000000000000000000000000000000000000000000000000000000000000000000000000000000000000000000000000000000000000000000000000000000000000000000000000000000000000000000000000000000000000000000000000000000000000000000000000000000000000000000000000000000000000000000000000000000000000000000000000000000000000000000000000000000000000000000000000000000000000000000000000000000000000000000000000000000000000000000000000000000000000000000000000000000000000000000000000000000000000000000000000000000000000000000000000000000000000000000000000000000000000000000000000000000000000000000000000000000000000000000000000000000000000000000000000000000000000000000000000000000000000000000000000000000000000000000000000000000000000000000000000000000000000000000000000000000000000000000000000000000000000000000000000000000000000000000000000000000000000000000000000000000000000000000000000000000000000000000000000000000000000000000000000000000000000000000000000000000000000000000000000000000000000000000000000000000000000000000000000000000000000000000000000000000000000000000000000000000000000000000000000000000000000000000000000000000000000000000000000000000000000000000000000000000000000000000000000000000000000000000000000000000000000000000000000000000000000000000000000000000000000000000000000000000000000000000000000000000000000000000000000000000000000000000000000000000000000000000000000000000000000000000000000000000000000000000000000000000000000000000000000000000000000000000000000000000000000000000000000000000000000000000000000000000000000000000000000000000000000000000000000000000000000000000000000000000000000000000000000000000000000000000000000000000000000000000000000000000000000000000000000000000000000000000000000000000000000000000000000000000000000000000000000000000000000000000000000000000000000000000000000000000000000000000000000000000000000000000000000000000000000000000000000000000000000000000000000000000000000000000000000000000000000000000000000000000000000000000000000000000000000000000000000000000000000000000000000000000000000000000000000000000000000000000000000000000000000000000000000000000000000000000000000000000000000000000000000000000000000000000000000000000000000000000000000000000000000000000000000000000000000000000000000000000000000000000000000000000000000000000000000000000000000000000000000000000000000000000000000000000000000000000000000000000000000000000000000000000000000000000000000000000000000000000000000000000000000000000000000000000000000000000000
#044970:000000000000000000000000000000000000000000000000000000000000000000000000000000000000000000000000000000000000000000000000000000000000000000000000000000000000000000000000000000000000000000000000000000000000000000000000000000000000000000000000000000000000000000000000000000000000000000000000000000000000000000000000000000000000000000000000000000000000000000000000000000000000000000000000000000000000000000000000000000000000000000000000000000000000000000000000000000000000000000000053230000000000000000000000000000000000000000000000000000000000000000000000000000000000000000000000000000000000000000000000000000000000000000000000000000000000000000000000000000000000000000000000000000000000000000000000000000000000000000000000000000000000000000000000000000000000000000000000000000000000000000000000000000000000000000000000000000000000000000000000000000000000000000000000000000000000000000000000000000000000000000000000000000000000000000000000000000000000000000000000000000000000000000000000000000000000000000000000000000000000000000000000000000000000000000000000000000000000000000000000000000000000000000000000000000000000000000000000000000000000000000000000000000000000000000000000000000000000000000000000000000000000000000000000000000000000000000000000000000000000000000000000000000000000000000000000000000000000000000000000000000000000000000000000000000000000000000000000000000000000000000000000000000000000000000000000000000000000000000000000000000000000000000000000000000000000000000000000000000000000000000000000000000000000000000000000000000000000000000000000000000000000000000000000000000000000000000000000000000000000000000000000000000000000000000000000000000000000000000000000000000000000000000000000000000000000000000000000000000000000000000000000000000000000000000000000000000000000000000000000000000000000000000000000000000000000000000000000000000000000000000000000000000000000000000000000000000000000000000000000000000000000000000000000000000000000000000000000000000000000000000000000000000000000000000000000000000000000000000000000000000000000000000000000000000000000000000000000000000000000000000000000000000000000000000000000000000000000000000000000000000000000000000000000000000000000000000000000000000000000000000000000000000000000000000000000000000000000000000000000000000000000000000000000000000000000000000000000000000000000000000000000000000000000000000000000000000000000000000000000000000000000000000000000000000000000000000000000000000000000000000000000000000000000000000000000000000000000000000000000000000000000000000000000000000000000000000000000000000000000000000000000000000000000000000000000000000000000000000000000000000000000000000000000000000000000000000000000000000000000000000000000000000000000000000000000000000000000000000000000000000000000000000000000000000000000000000000000000000000000000000000000000000000000000000000000000000000000000000000000000000000000000000000000000000000000000000000000000000000000000000000000000000000000000000000000000000000000000000000000000000000000000000000000000000000000000000000000000000000000000000000000000000000000000000000000000000000000000000000000000000000000000000000000000000000000000000000000000000000000000000000000000000000000000000000000000000000000000000000000000000000000000000000000000000000000000000000000000000000000000000000000000000000000000000000000000000000000000000000000000000000000000000000000000000000000000000000000000000000000000000000000000000000000000000000000000000000000000000000000000000000000000000000000000000000000000000000000000000000000000000000000000000000000000000000000000000000000000000000000000000000000000000000000000000000000000000000000000000000000000000000000000000000000000000000000000000000000000000000000000000000000000000000000000000000000000000000000000000000000000000000000000000000000000000000000000000000000000000000000
#044920:00000013000000000000000000000000
#044960:000000000000000000000000000000000000000000000000000000000000000000000000000000000000000000000000000000000000000000000000000000000000000000000000000000000000000000000000000000000000000000000000000000000000000000000000000000000000000000000000000000000000000000000000000000000000000000000000000000000000000000000000000000000000000000000000000000000000000000000000000000000000000000000000000000000000000000000000000000000000000000000000000000000000000000000000000000000000000000000000000000000000000000000000000000000000000000000000000000000000000000000000000000000000000000000000000000000000000000000000000000000000000000000000000000000000000000000000000000000000000000000000000000000000000000000000000000000000000000000000000000000000000000000000000000000000000000000000000000000000000000000000000000000000000000000000000000000000000000000000000000000000000000000000000000000000000000000000000000000000000000000000000000000000000000000000000000000000000000000000000000000000000000000000000000000000000000000000000000000000000000000000000000000000000000000000000000000000000000000000000000000000000000000000000000000000000000000000000000000000000000000000000000000000000000000000000000000000000000000053230000000000000000000000000000000000000000000000000000000000000000000000000000000000000000000000000000000000000000000000000000000000000000000000000000000000000000000000000000000000000000000000000000000000000000000000000000000000000000000000000000000000000000000000000000000000000000000000000000000000000000000000000000000000000000000000000000000000000000000000000000000000000000000000000000000000000000000000000000000000000000000000000000000000000000000000000000000000000000000000000000000000000000000000000000000000000000000000000000000000000000000000000000000000000000000000000000000000000000000000000000000000000000000000000000000000000000000000000000000000000000000000000000000000000000000000000000000000000000000000000000000000000000000000000000000000000000000000000000000000000000000000000000000000000000000000000000000000000000000000000000000000000000000000000000000000000000000000000000000000000000000000000000000000000000000000000000000000000000000000000000000000000000000000000000000000000000000000000000000000000000000000000000000000000000000000000000000000000000000000000000000000000000000000000000000000000000000000000000000000000000000000000000000000000000000000000000000000000000000000000000000000000000000000000000000000000000000000000000000000000000000000000000000000000000000000000000000000000000000000000000000000000000000000000000000000000000000000000000000000000000000000000000000000000000000000000000000000000000000000000000000000000000000000000000000000000000000000000000000000000000000000000000000000000000000000000000000000000000000000000000000000000000000000000000000000000000000000000000000000000000000000000000000000000000000000000000000000000000000000000000000000000000000000000000000000000000000000000000000000000000000000000000000000000000000000000000000000000000000000000000000000000000000000000000000000000000000000000000000000000000000000000000000000000000000000000000000000000000000000000000000000000000000000000000000000000000000000000000000000000000000000000000000000000000000000000000000000000000000000000000000000000000000000000000000000000000000000000000000000000000000000000000000000000000000000000000000000000000000000000000000000000000000000000000000000000000000000000000000000000000000000000000000000000000000000000000000000000000000000000000000000000000000000000000000000000000000000000000000000000000000000000000000000000000000000000000000000000000000000000000000000000000000000000000000000000000000000000000000000000000000000000000000000000000000000000000000000000000000000000000000000000000000000000000000000000000000000000000000000000000000000000000000000000000000000000000000000000000000000
#0449b0:0000001300000000
#044970:000000000000000000000000000000000000000000000000000000000000000000000000000000000000000000000000000000000000000000000000000000000000000000000000000000000000000000000000000000000000000000000000000000000000000000000000000000000000000000000000000000000000000000000000000000000000000000000000000000000000000000000000000000000000000000000000000000000000000000000000000000000000000000000000000000000000000000000000000000000000000000000000000000000000000000000000000000000000000000000000000000000000000000000000000000000000000000000000000000000000000000000000000000000000000000000000000000000000000000000000000000000000000000000000000000000000000000000000000000000000000000000000000000000000000000000000000000000000000000000000000000000000000000000000000000000000000000000000000000000000000000000000000000000000000000000000000000000000000000000000000000000000000000000000000000000000000000000000000000000000000000000000000000000000000000000000000000000000000000000000000000000000000000000000000000000000000000000000000000000000000000000000000000000000000000000000000000000000000000000000000000000000000000000000000000000000000000000000000000000000000000000000000000000000000000000000000000000000000000000000000000000000000000000000000000000000000000000000000000000000000000000000000000000000000000000000000000000000000000000000000000000000000000000000000000000000000000000000000000000000000000000000000000000000000000000000000000000000000000000000000000000000000000000000000000000000000000000000000000000000000000000000000000000000000000000000000000000000000000000000000000000000000000000000000000000000000000000000000000000000000000000000000000000000000000000000000000000000000000000000000000000000000000000000000000000000000000000000000000000000000000000000000000000000000000000000000000000000000000000000000000000000000000000000000000000000000000000000000000000000000000000000000000000000000000000000000000000000000000000053230000000000000000000000000000000000000000000000000000000000000000000000000000000000000000000000000000000000000000000000000000000000000000000000000000000000000000000000000000000000000000000000000000000000000000000000000000000000000000000000000000000000000000000000000000000000000000000000000000000000000000000000000000000000000000000000000000000000000000000000000000000000000000000000000000000000000000000000000000000000000000000000000000000000000000000000000000000000000000000000000000000000000000000000000000000000000000000000000000000000000000000000000000000000000000000000000000000000000000000000000000000000000000000000000000000000000000000000000000000000000000000000000000000000000000000000000000000000000000000000000000000000000000000000000000000000000000000000000000000000000000000000000000000000000000000000000000000000000000000000000000000000000000000000000000000000000000000000000000000000000000000000000000000000000000000000000000000000000000000000000000000000000000000000000000000000000000000000000000000000000000000000000000000000000000000000000000000000000000000000000000000000000000000000000000000000000000000000000000000000000000000000000000000000000000000000000000000000000000000000000000000000000000000000000000000000000000000000000000000000000000000000000000000000000000000000000000000000000000000000000000000000000000000000000000000000000000000000000000000000000000000000000000000000000000000000000000000000000000000000000000000000000000000000000000000000000000000000000000000000000000000000000000000000000000000000000000000000000000000000000000000000000000000000000000000000000000000000000000000000000000000000000000000000000000000000000000000000000000000000000000000000000000000000000000000000000000000000000000000000000000000000000000000000000000000000000000000000000000000000000000000000000000000000000000000000000000000000000000000000000000000000000000000000000000000000000000000000000000000000
#044920:00000000000000000013000000000000
#044960:000000000000000000000000000000000000000000000000000000000000000000000000000000000000000000000000000000000000000000000000000000000000000000000000000000000000000000000000000000000000000000000000000000000000000000000000000000000000000000000000000000000000000000000000000000000000000000000000000000000000000000000000000000000000000000000000000000000000000000000000000000000000000000000000000000000000000000000000000000000000000000000000000000000000000000000000000000000000000000000000000000000000000000000000000000000000000000000000000000000000000000000000000000000000000000000000000000000000000000000000000000000000000000000000000000000000000000000000000000000000000000000000000000000000000000000000000000000000000000000000000000000000000000000000000000000000000000000000000000000000000000000000000000000000000000000000000000000000000000000000000000000000000000000000000000000000000000000000000000000000000000000000000000000000000000000000000000000000000000000000000000000000000000000000000000000000000000000000000000000000000000000000000000000000000000000000000000000000000000000000000000000000000000000000000000000000000000000000000000000000000000000000000000000000000000000000000000000000000000000000000000000000000000000000000000000000000000000000000000000000000000000000000000000000000000000000000000000000000000000000000000000000000000000000000000000000000000000000000000000000000000000000000000000000000000000000000000000000000000000000000000000000000000000000000000000000000000000000000000000000000000000000000000000000000000000000000000000000000000000000000000000000000000000000000000000000000000000000000000000000000000000000000000000000000000000000000000000000000000000000000000000000000000000000000000000000000000000000000000000000000000000000000000000000000000000000000000000000000000000000000000000000000000000000000000000000000000000000000000000000000000000000000000000000000000000000000000000000000000000000000000000000000000000000000000000000000000000000000000000000000000000000000000000000000000000000000000000000000000000000000000000000000000000000000000000000000000000000000000000000000000000000000000000000000000000000000000000000000000000000000000000000000000000000000000000000000000000000000000000000000000000000000000000000000000000000000000000000000000000000000000000000000000000000000000000000000000000000000000000000000000000000000000000000000000000000000000000000000000000000000000000000000000000000000000000000000000000000000000000000000000000000000000000000000000000000000000000000000000000000000000000000000000000000000000000000000000000000000000000000000000000000000000000000000000000000000000000000000000000053230000000000000000000000000000000000000000000000000000000000000000000000000000000000000000000000000000000000000000000000000000000000000000000000000000000000000000000000000000000000000000000000000000000000000000000000000000000000000000000000000000000000000000000000000000000000000000000000000000000000000000000000000000000000000000000000000000000000000000000000000000000000000000000000000000000000000000000000000000000000000000000000000000000000000000000000000000000000000000000000000000000000000000000000000000000000000000000000000000000000000000000000000000000000000000000000000000000000000000000000000000000000000000000000000000000000000000000000000000000000000000000000000000000000000000000000000000000000000000000000000000000000000000000000000000000000000000000000000000000000000000000000000000000000000000000000000000000000000000000000000000000000000000000000000000000000000000000000000000000000000000000000000000000000000000000000000000000000000000000000000000000000000000000000000000000000000000000000000000000000000000000000000000000000000000000000000000000000000000000000000000000000000000000000000000000000000000000000000000000000000000000000000000000000000000000000000000000000000000000000
#045920:13
#045960:000000000000000000000000000000000000000000000000000000000000000000000000000000000000000000000000000000000000000000000000000000000000000000000000000000000000000000000000000000000000000000000000000000000000000000000000000000000000000000000000000000000000000000000000000000000000000000000000000000000000000000000000000000000000000000000000000000000000000000000000000000000000000000000000000000000000000000000000000000000000000000000000000000000000000000000000000000000000000000000053230000000000000000000000000000000000000000000000000000000000000000000000000000000000000000000000000000000000000000000000000000000000000000000000000000000000000000000000000000000000000000000000000000000000000000000000000000000000000000000000000000000000000000000000000000000000000000000000000000000000000000000000000000000000000000000000000000000000000000000000000000000000000000000000000000000000000000000000000000000000000000000000000000000000000000000000000000000000000000000000000000000000000000000000000000000000000000000000000000000000000000000000000000000000000000000000000000000000000000000000000000000000000000000000000000000000000000000000000000000000000000000000000000000000000000000000000000000000000000000000000000000000000000000000000000000000000000000000000000000000000000000000000000000000000000000000000000000000000000000000000000000000000000000000000000000000000000000000000000000000000000000000000000000000000000000000000000000000000000000000000000000000000000000000000000000000000000000000000000000000000000000000000000000000000000000000000000000000000000000000000000000000000000000000000000000000000000000000000000000000000000000000000000000000000000000000000000000000000000000000000000000000000000000000000000000000000000000000000000000000000000000000000000000000000000000000000000000000000000000000000000000000000000000000000000000000000000000000000000000000000000000000000000000000000000000000000000000000000000000000000000000000000000000000000000000000000000000000000000000000000000000000000000000000000000000000000000000000000000000000000000000000000000000000000000000000000000000000000000000000000000000000000000000000000000000000000000000000000000000000000000000000000000000000000000000000000000000000000000000000000000000000000000000000000000000000000000000000000000000000000000000000000000000000000000000000000000000000000000000000000000000000000000000000000000000000000000000000000000000000000000000000000000000000000000000000000000000000000000000000000000000000000000000000000000000000000000000000000000000000000000000000000000000000000000000000000000000000000000000000000000000000000000000000000000000000000000000000000000000000000000000000000000000000000000000000000000000000000000000000000000000000000000000000000000000000000000000000000000000000000000000000000000000000000000000000000000000000000000000000000000000000000000000000000000000000000000000000000000000000000000000000000000000000000000000000000000000000000000000000000000000000000000000000000000000000000000000000000000000000000000000000000000000000000000000000000000000000000000000000000000000000000000000000000000000000000000000000000000000000000000000000000000000000000000000000000000000000000000000000000000000000000000000000000000000000000000000000000000000000000000000000000000000000000000000000000000000000000000000000000000000000000000000000000000000000000000000000000000000000000000000000000000000000000000000000000000000000000000000000000000000000000000000000000000000000000000000000000000000000000000000000000000000000000000000000000000000000000000000000000000000000000000000000000000000000000000000000000000000000000000000000000000000000000000000000000000000000000000000000000000000000000000000000000000000000000000000000000000000000000000000000000000000000000000000000000000000000000000000000000000000000000000000000000000000000000000000000000000000000
#0459b0:00000013000000000000000000000000
#045970:000000000000000000000000000000000000000000000000000000000000000000000000000000000000000000000000000000000000000000000000000000000000000000000000000000000000000000000000000000000000000000000000000000000000000000000000000000000000000000000000000000000000000000000000000000000000000000000000000000000000000000000000000000000000000000000000000000000000000000000000000000000000000000000000000000000000000000000000000000000000000000000000000000000000000000000000000000000000000000000000000000000000000000000000000000000000000000000000000000000000000000000000000000000000000000000000000000000000000000000000000000000000000000000000000000000000000000000000000000000000000000000000000000000000000000000000000000000000000000000000000000000000000000000000000000000000000000000000000000000000000000000000000000000000000000000000000000000000000000000000000000000000000000000000000000000000000000000000000000000000000000000000000000000000000000000000000000000000000000000000000000000000000000000000000000000000000000000000000000000000000000000000000000000000000000000000000000000000000000000000000000000000000000000000000000000000000000000000000000000000000000000000000000000000000000000000000000000000000000000053230000000000000000000000000000000000000000000000000000000000000000000000000000000000000000000000000000000000000000000000000000000000000000000000000000000000000000000000000000000000000000000000000000000000000000000000000000000000000000000000000000000000000000000000000000000000000000000000000000000000000000000000000000000000000000000000000000000000000000000000000000000000000000000000000000000000000000000000000000000000000000000000000000000000000000000000000000000000000000000000000000000000000000000000000000000000000000000000000000000000000000000000000000000000000000000000000000000000000000000000000000000000000000000000000000000000000000000000000000000000000000000000000000000000000000000000000000000000000000000000000000000000000000000000000000000000000000000000000000000000000000000000000000000000000000000000000000000000000000000000000000000000000000000000000000000000000000000000000000000000000000000000000000000000000000000000000000000000000000000000000000000000000000000000000000000000000000000000000000000000000000000000000000000000000000000000000000000000000000000000000000000000000000000000000000000000000000000000000000000000000000000000000000000000000000000000000000000000000000000000000000000000000000000000000000000000000000000000000000000000000000000000000000000000000000000000000000000000000000000000000000000000000000000000000000000000000000000000000000000000000000000000000000000000000000000000000000000000000000000000000000000000000000000000000000000000000000000000000000000000000000000000000000000000000000000000000000000000000000000000000000000000000000000000000000000000000000000000000000000000000000000000000000000000000000000000000000000000000000000000000000000000000000000000000000000000000000000000000000000000000000000000000000000000000000000000000000000000000000000000000000000000000000000000000000000000000000000000000000000000000000000000000000000000000000000000000000000000000000000000000000000000000000000000000000000000000000000000000000000000000000000000000000000000000000000000000000000000000000000000000000000000000000000000000000000000000000000000000000000000000000000000000000000000000000000000000000000000000000000000000000000000000000000000000000000000000000000000000000000000000000000000000000000000000000000000000000000000000000000000000000000000000000000000000000000000000000000000000000000000000000000000000000000000000000000000000000000000000000000000000000000000000000000000000000000000000000000000000000000000000000000000000000000000000000000000000000000000000000000000000000000000000000000000000000000000000000000000000000000000000000000000000000000000000000000000000000000000000000000000
#045920:0000001300000000
#045960:000000000000000000000000000000000000000000000000000000000000000000000000000000000000000000000000000000000000000000000000000000000000000000000000000000000000000000000000000000000000000000000000000000000000000000000000000000000000000000000000000000000000000000000000000000000000000000000000000000000000000000000000000000000000000000000000000000000000000000000000000000000000000000000000000000000000000000000000000000000000000000000000000000000000000000000000000000000000000000000000000000000000000000000000000000000000000000000000000000000000000000000000000000000000000000000000000000000000000000000000000000000000000000000000000000000000000000000000000000000000000000000000000000000000000000000000000000000000000000000000000000000000000000000000000000000000000000000000000000000000000000000000000000000000000000000000000000000000000000000000000000000000000000000000000000000000000000000000000000000000000000000000000000000000000000000000000000000000000000000000000000000000000000000000000000000000000000000000000000000000000000000000000000000000000000000000000000000000000000000000000000000000000000000000000000000000000000000000000000000000000000000000000000000000000000000000000000000000000000000000000000000000000000000000000000000000000000000000000000000000000000000000000000000000000000000000000000000000000000000000000000000000000000000000000000000000000000000000000000000000000000000000000000000000000000000000000000000000000000000000000000000000000000000000000000000000000000000000000000000000000000000000000000000000000000000000000000000000000000000000000000000000000000000000000000000000000000000000000000000000000000000000000000000000000000000000000000000000000000000000000000000000000000000000000000000000000000000000000000000000000000000000000000000000000000000000000000000000000000000000000000000000000000000000000000000000000000000000000000000000000000000000000000000000000000000000000000000000000000000053230000000000000000000000000000000000000000000000000000000000000000000000000000000000000000000000000000000000000000000000000000000000000000000000000000000000000000000000000000000000000000000000000000000000000000000000000000000000000000000000000000000000000000000000000000000000000000000000000000000000000000000000000000000000000000000000000000000000000000000000000000000000000000000000000000000000000000000000000000000000000000000000000000000000000000000000000000000000000000000000000000000000000000000000000000000000000000000000000000000000000000000000000000000000000000000000000000000000000000000000000000000000000000000000000000000000000000000000000000000000000000000000000000000000000000000000000000000000000000000000000000000000000000000000000000000000000000000000000000000000000000000000000000000000000000000000000000000000000000000000000000000000000000000000000000000000000000000000000000000000000000000000000000000000000000000000000000000000000000000000000000000000000000000000000000000000000000000000000000000000000000000000000000000000000000000000000000000000000000000000000000000000000000000000000000000000000000000000000000000000000000000000000000000000000000000000000000000000000000000000000000000000000000000000000000000000000000000000000000000000000000000000000000000000000000000000000000000000000000000000000000000000000000000000000000000000000000000000000000000000000000000000000000000000000000000000000000000000000000000000000000000000000000000000000000000000000000000000000000000000000000000000000000000000000000000000000000000000000000000000000000000000000000000000000000000000000000000000000000000000000000000000000000000000000000000000000000000000000000000000000000000000000000000000000000000000000000000000000000000000000000000000000000000000000000000000000000000000000000000000000000000000000000000000000000000000000000000000000000000000000000000000000000000000000000000000000000000000000000000000
#0459b0:00000000000000000013000000000000
#045970:000000000000000000000000000000000000000000000000000000000000000000000000000000000000000000000000000000000000000000000000000000000000000000000000000000000000000000000000000000000000000000000000000000000000000000000000000000000000000000000000000000000000000000000000000000000000000000000000000000000000000000000000000000000000000000000000000000000000000000000000000000000000000000000000000000000000000000000000000000000000000000000000000000000000000000000000000000000000000000000000000000000000000000000000000000000000000000000000000000000000000000000000000000000000000000000000000000000000000000000000000000000000000000000000000000000000000000000000000000000000000000000000000000000000000000000000000000000000000000000000000000000000000000000000000000000000000000000000000000000000000000000000000000000000000000000000000000000000000000000000000000000000000000000000000000000000000000000000000000000000000000000000000000000000000000000000000000000000000000000000000000000000000000000000000000000000000000000000000000000000000000000000000000000000000000000000000000000000000000000000000000000000000000000000000000000000000000000000000000000000000000000000000000000000000000000000000000000000000000000000000000000000000000000000000000000000000000000000000000000000000000000000000000000000000000000000000000000000000000000000000000000000000000000000000000000000000000000000000000000000000000000000000000000000000000000000000000000000000000000000000000000000000000000000000000000000000000000000000000000000000000000000000000000000000000000000000000000000000000000000000000000000000000000000000000000000000000000000000000000000000000000000000000000000000000000000000000000000000000000000000000000000000000000000000000000000000000000000000000000000000000000000000000000000000000000000000000000000000000000000000000000000000000000000000000000000000000000000000000000000000000000000000000000000000000000000000000000000000000000000000000000000000000000000000000000000000000000000000000000000000000000000000000000000000000000000000000000000000000000000000000000000000000000000000000000000000000000000000000000000000000000000000000000000000000000000000000000000000000000000000000000000000000000000000000000000000000000000000000000000000000000000000000000000000000000000000000000000000000000000000000000000000000000000000000000000000000000000000000000000000000000000000000000000000000000000000000000000000000000000000000000000000000000000000000000000000000000000000000000000000000000000000000000000000000000000000000000000000000000000000000000000000000000000000000000000000000000000000000000000000000000000000000000000000000000000000000000000000000000053230000000000000000000000000000000000000000000000000000000000000000000000000000000000000000000000000000000000000000000000000000000000000000000000000000000000000000000000000000000000000000000000000000000000000000000000000000000000000000000000000000000000000000000000000000000000000000000000000000000000000000000000000000000000000000000000000000000000000000000000000000000000000000000000000000000000000000000000000000000000000000000000000000000000000000000000000000000000000000000000000000000000000000000000000000000000000000000000000000000000000000000000000000000000000000000000000000000000000000000000000000000000000000000000000000000000000000000000000000000000000000000000000000000000000000000000000000000000000000000000000000000000000000000000000000000000000000000000000000000000000000000000000000000000000000000000000000000000000000000000000000000000000000000000000000000000000000000000000000000000000000000000000000000000000000000000000000000000000000000000000000000000000000000000000000000000000000000000000000000000000000000000000000000000000000000000000000000000000000000000000000000000000000000000000000000000000000000000000000000000000000000000000000000000000000000000000000000000000000000000
#046970:13
#0469b0:000000000000000000000000000000000000000000000000000000000000000000000000000000000000000000000000000000000000000000000000000000000000000000000000000000000000000000000000000000000000000000000000000000000000000000000000000000000000000000000000000000000000000000000000000000000000000000000000000000000000000000000000000000000000000000000000000000000000000000000000000000000000000000000000000000000000000000000000000000000000000000000000000000000000000000000000000000000000000000000053230000000000000000000000000000000000000000000000000000000000000000000000000000000000000000000000000000000000000000000000000000000000000000000000000000000000000000000000000000000000000000000000000000000000000000000000000000000000000000000000000000000000000000000000000000000000000000000000000000000000000000000000000000000000000000000000000000000000000000000000000000000000000000000000000000000000000000000000000000000000000000000000000000000000000000000000000000000000000000000000000000000000000000000000000000000000000000000000000000000000000000000000000000000000000000000000000000000000000000000000000000000000000000000000000000000000000000000000000000000000000000000000000000000000000000000000000000000000000000000000000000000000000000000000000000000000000000000000000000000000000000000000000000000000000000000000000000000000000000000000000000000000000000000000000000000000000000000000000000000000000000000000000000000000000000000000000000000000000000000000000000000000000000000000000000000000000000000000000000000000000000000000000000000000000000000000000000000000000000000000000000000000000000000000000000000000000000000000000000000000000000000000000000000000000000000000000000000000000000000000000000000000000000000000000000000000000000000000000000000000000000000000000000000000000000000000000000000000000000000000000000000000000000000000000000000000000000000000000000000000000000000000000000000000000000000000000000000000000000000000000000000000000000000000000000000000000000000000000000000000000000000000000000000000000000000000000000000000000000000000000000000000000000000000000000000000000000000000000000000000000000000000000000000000000000000000000000000000000000000000000000000000000000000000000000000000000000000000000000000000000000000000000000000000000000000000000000000000000000000000000000000000000000000000000000000000000000000000000000000000000000000000000000000000000000000000000000000000000000000000000000000000000000000000000000000000000000000000000000000000000000000000000000000000000000000000000000000000000000000000000000000000000000000000000000000000000000000000000000000000000000000000000000000000000000000000000000000000000000000000000000000000000000000000000000000000000000000000000000000000000000000000000000000000000000000000000000000000000000000000000000000000000000000000000000000000000000000000000000000000000000000000000000000000000000000000000000000000000000000000000000000000000000000000000000000000000000000000000000000000000000000000000000000000000000000000000000000000000000000000000000000000000000000000000000000000000000000000000000000000000000000000000000000000000000000000000000000000000000000000000000000000000000000000000000000000000000000000000000000000000000000000000000000000000000000000000000000000000000000000000000000000000000000000000000000000000000000000000000000000000000000000000000000000000000000000000000000000000000000000000000000000000000000000000000000000000000000000000000000000000000000000000000000000000000000000000000000000000000000000000000000000000000000000000000000000000000000000000000000000000000000000000000000000000000000000000000000000000000000000000000000000000000000000000000000000000000000000000000000000000000000000000000000000000000000000000000000000000000000000000000000000000000000000000000000000000000000000000000000000000000000000000000000000000000000000000000000000000000000000
#046960:00000013000000000000000000000000
#046920:000000000000000000000000000000000000000000000000000000000000000000000000000000000000000000000000000000000000000000000000000000000000000000000000000000000000000000000000000000000000000000000000000000000000000000000000000000000000000000000000000000000000000000000000000000000000000000000000000000000000000000000000000000000000000000000000000000000000000000000000000000000000000000000000000000000000000000000000000000000000000000000000000000000000000000000000000000000000000000000000000000000000000000000000000000000000000000000000000000000000000000000000000000000000000000000000000000000000000000000000000000000000000000000000000000000000000000000000000000000000000000000000000000000000000000000000000000000000000000000000000000000000000000000000000000000000000000000000000000000000000000000000000000000000000000000000000000000000000000000000000000000000000000000000000000000000000000000000000000000000000000000000000000000000000000000000000000000000000000000000000000000000000000000000000000000000000000000000000000000000000000000000000000000000000000000000000000000000000000000000000000000000000000000000000000000000000000000000000000000000000000000000000000000000000000000000000000000000000000000053230000000000000000000000000000000000000000000000000000000000000000000000000000000000000000000000000000000000000000000000000000000000000000000000000000000000000000000000000000000000000000000000000000000000000000000000000000000000000000000000000000000000000000000000000000000000000000000000000000000000000000000000000000000000000000000000000000000000000000000000000000000000000000000000000000000000000000000000000000000000000000000000000000000000000000000000000000000000000000000000000000000000000000000000000000000000000000000000000000000000000000000000000000000000000000000000000000000000000000000000000000000000000000000000000000000000000000000000000000000000000000000000000000000000000000000000000000000000000000000000000000000000000000000000000000000000000000000000000000000000000000000000000000000000000000000000000000000000000000000000000000000000000000000000000000000000000000000000000000000000000000000000000000000000000000000000000000000000000000000000000000000000000000000000000000000000000000000000000000000000000000000000000000000000000000000000000000000000000000000000000000000000000000000000000000000000000000000000000000000000000000000000000000000000000000000000000000000000000000000000000000000000000000000000000000000000000000000000000000000000000000000000000000000000000000000000000000000000000000000000000000000000000000000000000000000000000000000000000000000000000000000000000000000000000000000000000000000000000000000000000000000000000000000000000000000000000000000000000000000000000000000000000000000000000000000000000000000000000000000000000000000000000000000000000000000000000000000000000000000000000000000000000000000000000000000000000000000000000000000000000000000000000000000000000000000000000000000000000000000000000000000000000000000000000000000000000000000000000000000000000000000000000000000000000000000000000000000000000000000000000000000000000000000000000000000000000000000000000000000000000000000000000000000000000000000000000000000000000000000000000000000000000000000000000000000000000000000000000000000000000000000000000000000000000000000000000000000000000000000000000000000000000000000000000000000000000000000000000000000000000000000000000000000000000000000000000000000000000000000000000000000000000000000000000000000000000000000000000000000000000000000000000000000000000000000000000000000000000000000000000000000000000000000000000000000000000000000000000000000000000000000000000000000000000000000000000000000000000000000000000000000000000000000000000000000000000000000000000000000000000000000000000000000000000000000000000000000000000000000000000000000000000000000000000000000000000000000000000000000000
#046970:0000001300000000
#0469b0:000000000000000000000000000000000000000000000000000000000000000000000000000000000000000000000000000000000000000000000000000000000000000000000000000000000000000000000000000000000000000000000000000000000000000000000000000000000000000000000000000000000000000000000000000000000000000000000000000000000000000000000000000000000000000000000000000000000000000000000000000000000000000000000000000000000000000000000000000000000000000000000000000000000000000000000000000000000000000000000000000000000000000000000000000000000000000000000000000000000000000000000000000000000000000000000000000000000000000000000000000000000000000000000000000000000000000000000000000000000000000000000000000000000000000000000000000000000000000000000000000000000000000000000000000000000000000000000000000000000000000000000000000000000000000000000000000000000000000000000000000000000000000000000000000000000000000000000000000000000000000000000000000000000000000000000000000000000000000000000000000000000000000000000000000000000000000000000000000000000000000000000000000000000000000000000000000000000000000000000000000000000000000000000000000000000000000000000000000000000000000000000000000000000000000000000000000000000000000000000000000000000000000000000000000000000000000000000000000000000000000000000000000000000000000000000000000000000000000000000000000000000000000000000000000000000000000000000000000000000000000000000000000000000000000000000000000000000000000000000000000000000000000000000000000000000000000000000000000000000000000000000000000000000000000000000000000000000000000000000000000000000000000000000000000000000000000000000000000000000000000000000000000000000000000000000000000000000000000000000000000000000000000000000000000000000000000000000000000000000000000000000000000000000000000000000000000000000000000000000000000000000000000000000000000000000000000000000000000000000000000000000000000000000000000000000000000000000000000000000053230000000000000000000000000000000000000000000000000000000000000000000000000000000000000000000000000000000000000000000000000000000000000000000000000000000000000000000000000000000000000000000000000000000000000000000000000000000000000000000000000000000000000000000000000000000000000000000000000000000000000000000000000000000000000000000000000000000000000000000000000000000000000000000000000000000000000000000000000000000000000000000000000000000000000000000000000000000000000000000000000000000000000000000000000000000000000000000000000000000000000000000000000000000000000000000000000000000000000000000000000000000000000000000000000000000000000000000000000000000000000000000000000000000000000000000000000000000000000000000000000000000000000000000000000000000000000000000000000000000000000000000000000000000000000000000000000000000000000000000000000000000000000000000000000000000000000000000000000000000000000000000000000000000000000000000000000000000000000000000000000000000000000000000000000000000000000000000000000000000000000000000000000000000000000000000000000000000000000000000000000000000000000000000000000000000000000000000000000000000000000000000000000000000000000000000000000000000000000000000000000000000000000000000000000000000000000000000000000000000000000000000000000000000000000000000000000000000000000000000000000000000000000000000000000000000000000000000000000000000000000000000000000000000000000000000000000000000000000000000000000000000000000000000000000000000000000000000000000000000000000000000000000000000000000000000000000000000000000000000000000000000000000000000000000000000000000000000000000000000000000000000000000000000000000000000000000000000000000000000000000000000000000000000000000000000000000000000000000000000000000000000000000000000000000000000000000000000000000000000000000000000000000000000000000000000000000000000000000000000000000000000000000000000000000000000000000000000000000000000000
#046960:00000000000000000013000000000000
#046920:000000000000000000000000000000000000000000000000000000000000000000000000000000000000000000000000000000000000000000000000000000000000000000000000000000000000000000000000000000000000000000000000000000000000000000000000000000000000000000000000000000000000000000000000000000000000000000000000000000000000000000000000000000000000000000000000000000000000000000000000000000000000000000000000000000000000000000000000000000000000000000000000000000000000000000000000000000000000000000000000000000000000000000000000000000000000000000000000000000000000000000000000000000000000000000000000000000000000000000000000000000000000000000000000000000000000000000000000000000000000000000000000000000000000000000000000000000000000000000000000000000000000000000000000000000000000000000000000000000000000000000000000000000000000000000000000000000000000000000000000000000000000000000000000000000000000000000000000000000000000000000000000000000000000000000000000000000000000000000000000000000000000000000000000000000000000000000000000000000000000000000000000000000000000000000000000000000000000000000000000000000000000000000000000000000000000000000000000000000000000000000000000000000000000000000000000000000000000000000000000000000000000000000000000000000000000000000000000000000000000000000000000000000000000000000000000000000000000000000000000000000000000000000000000000000000000000000000000000000000000000000000000000000000000000000000000000000000000000000000000000000000000000000000000000000000000000000000000000000000000000000000000000000000000000000000000000000000000000000000000000000000000000000000000000000000000000000000000000000000000000000000000000000000000000000000000000000000000000000000000000000000000000000000000000000000000000000000000000000000000000000000000000000000000000000000000000000000000000000000000000000000000000000000000000000000000000000000000000000000000000000000000000000000000000000000000000000000000000000000000000000000000000000000000000000000000000000000000000000000000000000000000000000000000000000000000000000000000000000000000000000000000000000000000000000000000000000000000000000000000000000000000000000000000000000000000000000000000000000000000000000000000000000000000000000000000000000000000000000000000000000000000000000000000000000000000000000000000000000000000000000000000000000000000000000000000000000000000000000000000000000000000000000000000000000000000000000000000000000000000000000000000000000000000000000000000000000000000000000000000000000000000000000000000000000000000000000000000000000000000000000000000000000000000000000000000000000000000000000000000000000000000000000000000000000000000000000000000000000000053230000000000000000000000000000000000000000000000000000000000000000000000000000000000000000000000000000000000000000000000000000000000000000000000000000000000000000000000000000000000000000000000000000000000000000000000000000000000000000000000000000000000000000000000000000000000000000000000000000000000000000000000000000000000000000000000000000000000000000000000000000000000000000000000000000000000000000000000000000000000000000000000000000000000000000000000000000000000000000000000000000000000000000000000000000000000000000000000000000000000000000000000000000000000000000000000000000000000000000000000000000000000000000000000000000000000000000000000000000000000000000000000000000000000000000000000000000000000000000000000000000000000000000000000000000000000000000000000000000000000000000000000000000000000000000000000000000000000000000000000000000000000000000000000000000000000000000000000000000000000000000000000000000000000000000000000000000000000000000000000000000000000000000000000000000000000000000000000000000000000000000000000000000000000000000000000000000000000000000000000000000000000000000000000000000000000000000000000000000000000000000000000000000000000000000000000000000000000000000000000
