This file was generated by Ched 2.7.0.0.
#TITLE ""
#ARTIST ""
#DESIGNER ""
#DIFFICULTY 0
#PLAYLEVEL
#SONGID ""
#WAVE ""
#WAVEOFFSET 0
#JACKET ""
#REQUEST "ticks_per_beat 480"
#00002: 4
#BPM01: 160
#00008: 01
#TIL00: ""
#VOLUME: ""
#HISPEED 00
#MEASUREHS 00
#0011b:0013
#00115:0000000000130013
#00118:00000013
#00012:0013
#00018:0000000000130013
#00015:00000013
#0001a:24
#00212:0013
#00218:0000000000130013
#00215:00000013
#0031b:0013
#00315:0000000000130013
#00318:00000013
#00415:0013
#00418:0000000000130000
#00412:00000013
#0041b:0000000000000013
#00518:0013
#00515:0000000000130000
#0051b:00000013
#00512:0000000000000013
#00615:0013
#00618:0000000000130000
#00612:00000013
#0061b:0000000000000013
#00712:1400001400002400
#00716:0014000000000000
#0071a:0000140000000014
#00718:0000000013130000
#00715:00000000000000000013000000000000
#0081b:00130013
#00815:0000001300130013
#00818:0013
#00812:26
#00810:41
#00918:13000000000000331300000000000000
#0091b:0000130000330000
#01012:13000000000000330000000000000000
#01018:0013000000130013
#01015:00130013
#01112:13000000000000331300000000003300
#01115:0000130000331300
#0121b:00130000
#01215:0000001300130013
#01218:00001313
#0131b:13000000000000331300000000000000
#01318:00000033130000000000330000000000
#01412:13
#01418:0013001300000013
#01415:00131300
#01512:1300000000130000
#01515:00001300000000000000000000130000
#01518:0000130000001313
#0151b:0000001300000000
#0161b:00000033330033331333003333330000
#01618:0013000000000000
#01612:26
#01610:41
#01712:00000000330033331333333333330000
#01715:0013000000000000
#0181b:0013000000000000
#01812:00130000
#01818:0000001300001300
#01815:0000000000130013
#01819:00000000000000530000000000000000
#0181a:0053
#01918:00130000
#01915:0000001300000000
#0191a:00001414
#01912:0000000000140014
#02018:14
#02016:0013
#02012:0013000000000000
#02015:00000000330033000033330033330000
#02118:0000000000130013
#02115:00000013
#0211a:0014140000000000
#02112:0000001414000000
#02212:14
#02218:0013000000000000
#02214:00140000
#0221a:0000001300000000
#02215:00000014
#02213:0014
#02219:0000000000130000
#0221b:0000000000000013
#02312:14
#02316:0014000000000000
#0231a:00140000
#02314:0000001400000000
#02412:0013
#02418:0000000000130000
#02415:00000013
#0241a:2400000000000014
#02410:41
#02516:0014000000000000
#02515:0000000000130000
#02518:00000013
#0251a:00340000
#0261b:0013
#02615:0000000000130000
#02618:00000013
#02612:2400000000000014
#02716:0014000000000000
#02718:0000000000130000
#02715:00000013
#02712:00340000
#02916:0014000000000000
#02912:0000000000130000
#02918:00000013
#02915:0000000000000013
#0281a:2400000000000014
#02812:0013
#02818:0000000000130000
#02815:00000013
#0301a:14
#03015:0013000000000000
#03018:00140000
#03013:0000001300000000
#03019:0014
#03014:0000000000130000
#03017:00000014
#03012:0000000000000013
#0311b:1300000000130000
#03118:00001300000000000000000000130000
#03115:0000130000001313
#03112:0000001300000000
#03217:1400000000000014
#0321a:0014
#03216:0000000000140000
#03212:24000014
#0331a:0014000000000000
#03312:0000000000130013
#03318:00000013
#0341a:14240000
#03415:0014000013000000
#03418:0000000000130000
#0341b:00000013
#03412:0000000000000014
#03514:14
#03516:0014000000000000
#03518:0000140000001313
#0351a:0000001400000000
#03512:0000000000140000
#03515:00000000000000000000000000130000
#03615:1400000000000014
#03612:0014
#03616:0000000000140000
#0361a:24000014
#03712:0014000000000000
#0371b:0000000000130013
#03716:00000013
#03812:1414000000000000
#03818:0000141400000000
#03814:0000000014140000
#0381a:0000000000001414
#03912:13
#03915:0013000000000000
#03918:00000000130000000000001400000000
#0391b:0000001300000000
#03914:0000000014000014
#04018:0000001400000000
#0401a:2400000000140000
#04010:41
#04118:0014000000000000
#0411a:0014
#04214:0000000000140000
#04212:24000014
#04314:0014
#0441a:1400005400005400
#04419:00540000005400540000005400000000
#04418:0054540054540000
#04417:00000054000000000054000000000000
#04512:1400005400005400
#04513:00540000005400540000005400000000
#04514:0054540054540000
#04515:00000054000000000054000000000000
#04615:1400005400005400
#0461a:1400005400005400
#04614:00540000005400540000005400000000
#04613:0054540054540000
#04612:00000054000000000054000000000000
#04619:00540000005400540000005400000000
#04618:0054540054540000
#04617:00000054000000000054000000000000
#04817:1300000013000013
#04816:00130013
#0481f:11
#04812:2300000023000023
#0481b:00230023
#04919:0013000000000000
#0491b:0000001300000000
#04912:0000000000140000
#04917:00000014
#04914:0023000000000000
#04916:0000002300000000
#05016:1300000013000013
#05017:0000130000130000
#0501b:2300000023000023
#05012:0000230000230000
#05114:0013000000000000
#05112:0000001300000023
#05116:0000000000130000
#05117:0000002300000013
#05119:0023000000000000
#0511b:0000000000230000
#05216:1400140014001414
#0521a:2400000024000024
#05212:00240024
#05314:0014000000000000
#05312:0000001400000000
#0531a:0000000000140000
#0531a:0000000000140000
#05315:00000014
#05318:0024000000000000
#05316:0000002400000000
#05416:1400140014140000
#05412:2400000024000024
#0541a:0000240000240024
#05514:0014000000000000
#0551b:00000000000000003300133333333333
#05518:00140000
#0561b:0013
#05618:1400000000130000
#05615:00000013
#05612:0000000000000014
#05614:24
#0561f:00210000
#05712:0014000000000000
#05715:14140000
#05718:0000000000140000
#05714:00000014
#05710:41
#05814:14
#05812:0013
#05815:0000000000130000
#05818:24000013
#0581a:0000000000000014
#0591a:0014000000000000
#05917:14140000
#05914:0000000000140000
#05918:00000014
#0601a:14
#06015:0000000013000014
#06018:0000000000130000
#0601b:00000013
#06012:24
#06115:0014000000000000
#06112:14140000
#0611a:0000000000140000
#06114:00000014
#06118:0000000000000014
#06212:1414000000000000
#06218:0000141400000000
#06214:0000000014140000
#0621a:0000000000001414
#06314:14
#06318:0014000000000000
#06312:00140000
#0631a:0000001400000000
#06317:00000000000000000014000000000000
#06412:14
#06415:0013000000001300
#06418:0013000000130000
#0641b:0013
#0641a:2400000000000014
#06512:0014001400000000
#06517:00140000
#0651a:0000000000140000
#06515:00000014
#0661a:14
#06618:0013000000001300
#06615:0013000000130000
#06612:2400000013000014
#0671a:0014001400000000
#06715:00140000
#06712:0000000000140000
#06717:00000014
#06814:14
#06812:0013000000000000
#0681b:0013000013000000
#06818:2400000000130000
#06815:00000013
#0681a:0000000000000014
#06912:0014000000140000
#06918:00000014
#06914:0000000000000014
#0701a:1414000000000000
#07014:0000141400000000
#07018:0000000014140000
#07012:0000000000001414
#0711b:13
#07118:0013000024000024
#07115:00130000
#07112:0000001300000000
#07114:00000000000000000000002400000000
#07212:14240000
#07217:00140000
#0721a:00001424
#07215:00000014
#07210:41
#07312:14240000
#07317:00140000
#0731a:00001424
#07315:0000000000140000
#07412:14240000
#07417:00140000
#0741a:00001424
#07415:00000014
#07512:1400000000240000
#07518:0014000000000000
#07514:00140000
#0751a:0000002400000024
#07516:00002424
#07616:00130013
#07617:0000000013000013
#07612:2600000023000023
#0761b:00230023
#07719:0013000000000000
#0771b:0000001300000000
#07712:0000000000140000
#07717:00000014
#07714:0023000000000000
#07716:0000002300000000
#07816:1300000013000013
#07817:0000130000130000
#0781b:2300000023000023
#07812:0000230000230000
#07914:0013000000000000
#07912:0000001300000023
#07916:0000000000130000
#07917:0000002300000013
#07919:0023000000000000
#0791b:0000000000230000
#08016:1400140014001414
#0801a:2400000024000024
#08012:00240024
#08114:0014000000000000
#08112:0000001400000000
#0811a:0000000000140000
#0811a:0000000000140000
#08115:00000014
#08118:0024000000000000
#08116:0000002400000000
#08216:1400140014140000
#08212:2400000024000024
#0821a:0000240000240024
#08314:0014000000000000
#08318:00140000
#08312:00000000000000002500002500002500
#08319:00000000000000002500002500002500
#08414:0014000000000000
#08418:00240000
#04712:23
#0471b:00230000
#04714:0063000024240000
#04718:00000000000000630024000000000000
#0471a:00000000006300000000000024000000
#04713:00630000000000000000000000000000
#04715:00000063000000000000000000000000
#04719:0000006300000000
#00958:5353
#0095b:00530013
#01055:00530000
#01152:5353
#01155:00530053
#01252:13
#0135b:6363
#01358:00630013
#01455:0063
#00852:36
#01652:36
#0165b:0023
#01658:0063000000000013
#01752:0023
#01755:0053000000000013
#01855:0000000000000063
#02058:14
#02056:0023
#02052:0063000000000013
#02354:0000006400000000
#02455:00140000
#0245a:0000140000000064
#0255a:0000001400000000
#02556:0064000000000000
#02652:0000140000000054
#02657:00140000
#02756:0054000000000000
#02752:0000001400000000
#02956:0064000000000000
#0295a:0000001400000000
#0285a:0000140000000064
#02855:00140000
#03255:00140000
#0325a:00140000
#03252:64
#03257:6400000000000054
#0335a:0054000000000000
#03357:0000001400000000
#0345a:00140000
#0355a:0000001400000000
#03655:5400000000000064
#0365a:54
#03657:00140000
#03652:00140000
#03152:0000001300000000
#03752:0064000000000000
#03755:0000001400000000
#03954:0000000014000014
#03958:00000000000000000000001400000000
#0405a:6400000000640000
#04058:0000006400000000
#04158:0064000000001400
#0415a:0064
#04254:0000000000540000
#04252:54000064
#04354:0054
#04352:00000014
#0445a:00000014
#04552:00000014
#04655:00000014
#0465a:00000014
#0475a:00000014
#04956:0000001300000000
#0495b:0000001300000000
#04957:00000014
#05152:0000001300000000
#05157:0000001300000000
#05356:0000001400000000
#05352:0000001400000000
#05355:00000014
#0555b:0000000000230000
#05558:00640000
#05652:0000140000000064
#0565a:00140000
#05658:64
#05654:64
#05752:0064003400000000
#05755:24240000
#0585a:0000140000000054
#05854:64
#05852:00140000
#05858:64
#0595a:0054004400000000
#05957:24240000
#0605a:64
#06052:64
#06054:00140000
#06058:00140000
#06055:0000000000000054
#06155:0054001400000000
#06152:24240000
#0635a:0000006400004400
#06357:00000000000000000024000000000000
#0645a:6400440000000014
#06452:64340000
#06455:0023000000000000
#06458:0023000000000000
#06552:0000001400000000
#06555:00000014
#0665a:54440000
#06658:0023000000000000
#06655:0023000000000000
#06652:5400340000000014
#0675a:0000001400000000
#06757:00000014
#06854:64140000
#06858:64140000
#06852:0023000000000000
#0685b:0023000000000000
#0685a:0000000000000064
#06958:0000001400000000
#06954:0000001400000000
#06952:0064000000000000
#07158:0000000014000014
#07154:00000000000000000000001400000000
#07652:36
#0775b:0000001300000000
#07757:00000014
#07756:0000001300000000
#07952:0000001300000000
#07957:0000001300000000
#08152:0000001400000000
#08155:00000014
#08156:0000001400000000
#08354:0014000000000000
#08358:00140000
#08458:00140000
#0003a0:14240000
#001320:14240000
#0023a0:14240000
#003320:14240000
#004380:14240000
#005340:14240000
#006380:14240000
#009380:13000000000000333300000000000000
#0093b0:0000330000332300
#010350:00130000
#010320:00000000000000332300000000000000
#011320:13000000000000333300000000003300
#011350:0000330000333300
#012320:23
#0133b0:13000000000000333300000000000000
#013380:00000033330000000000330023000000
#014350:0013
#014320:00000023
#016380:0013000000000023
#0163b0:00000033330033335333003333330000
#017350:0013000000000023
#017320:00000000330033333333333333330000
#018350:0000000000000013
#019320:0023000000000000
#020320:0013000000000023
#020350:00000000330033000033330033330000
#020360:0033
#023340:0000001400000000
#023320:00000024
#0243a0:14240000
#024351:14240000
#0243a1:0000000000000014
#025361:0034000000000000
#0253a1:0000342400000000
#026321:14240000
#026370:14240000
#026320:0000000000000014
#027360:0034000000000000
#027320:0000342400000000
#0283a0:14240000
#028351:14240000
#0283a1:0000000000000014
#029361:0034000000000000
#0293a1:0000002400000000
#032321:14
#032351:00240000
#032370:14
#0323a0:00240000
#032370:0000000000000014
#0333a0:0034000000000000
#033370:0000002400000000
#0363a0:14
#036370:00240000
#036351:14
#036321:00240000
#036351:0000000000000014
#037321:0034000000000000
#037351:0000002400000000
#0403a1:14000000000000540000340000000000
#040381:00540000000034000000005400000000
#041381:00003400000000000054000024000000
#0413a1:00000054000000003400000000000000
#042321:14000000000000000000005434000000
#042341:00540000000000000000340000540000
#043341:0034
#043321:00000000000000000054000024000000
#055381:00140000
#0553b1:00000000000000003300333333333333
#056381:34
#0563a1:00240000
#056340:14
#056320:00240000
#056320:0000000000000014
#057350:54340000
#057320:0034002400000000
#058380:14
#0583a0:00240000
#058341:14
#058321:00240000
#0583a1:0000000000000014
#059371:54340000
#0593a1:0034002400000000
#060321:14
#060341:00240000
#0603a0:14
#060380:00240000
#060350:0000000000000014
#061320:54340000
#061350:0034002400000000
#0633a0:0000001400002400
#063370:00000000000000000054000000000000
#064320:14240000
#064350:0053000000000000
#0643a1:14240000
#064381:0053000000000000
#0663a1:14240000
#066381:0053000000000000
#066320:14240000
#066350:0053000000000000
#068380:14240000
#0683b0:0053000000000000
#068341:14240000
#068321:0053000000000000
#0683a1:0000000000000014
#069381:5400002400000000
#069320:0014000000000000
#069340:0000542400000000
#018980:0000001300000000
#0189a0:000000000000000000000000000000000000000000000000000000000000000000000000000000000000000000000000000000000000000000000000000000000000000000000000000000000000000000000000000000000000000000000000000000000000000000000000000000000000000000000000000000000000000000000000000000000000000000000000000000000000000000000000000000000000000000000000000000000000000000000000000000000000000000000000000000000000000000000000000000000000000000000000000000000000000000000000000000000000000000000000000000000000000000000000000000000000000000000000000000000000000000000000000000000000000000000000000000000000000000000000000000000000000000000000000000000000000000000000000000000000000000000000000000000000000000000000000000000000000000000000000000000000000000000000000000000000000000000000000000000000000000000000000000000000000000000000000000000000000000000000000000000000000000000000000000000000000000000000000000000000000000000000000000000000000000000000000000000000000000000000000000000000000000000000000000000000000000000000000000000000000000000000000000000000000000000000000000000000000000000000000000000000000000000000000000000000000000000000000000000000000000000000000000000000000000000000000000000000000000000000000000000000000000000000000000000000000000000000000000000000000000000000000000000000000000000000000000000000000000000000000000000000000000000000000000000000000000000000000000000000000000000000000000000000000000000000000000000000000000000000000000000000000000000000000000000000000000000000000000000000000000000000000000000000000000000000000000000000000000000000000000000000000000000000000000000000000000000000000000000000000000000000000000000000000000000000000000000000000000000000000000000000000000000000000000000000000000000000000000000000000000000000000000000000000000000000000000000000000000000000000000000000000000000000000000000000000000000000000000000000000000000000000000000000000000000000000000000000000000000053230000000000000000000000000000000000000000000000000000000000000000000000000000000000000000000000000000000000000000000000000000000000000000000000000000000000000000000000000000000000000000000000000000000000000000000000000000000000000000000000000000000000000000000000000000000000000000000000000000000000000000000000000000000000000000000000000000000000000000000000000000000000000000000000000000000000000000000000000000000000000000000000000000000000000000000000000000000000000000000000000000000000000000000000000000000000000000000000000000000000000000000000000000000000000000000000000000000000000000000000000000000000000000000000000000000000000000000000000000000000000000000000000000000000000000000000000000000000000000000000000000000000000000000000000000000000000000000000000000000000000000000000000000000000000000000000000000000000000000000000000000000000000000000000000000000000000000000000000000000000000000000000000000000000000000000000000000000000000000000000000000000000000000000000000000000000000000000000000000000000000000000000000000000000000000000000000000000000000000000000000000000000000000000000000000000000000000000000000000000000000000000000000000000000000000000000000000000000000000000000000000000000000000000000000000000000000000000000000000000000000000000000000000000000000000000000000000000000000000000000000000000000000000000000000000000000000000000000000000000000000000000000000000000000000000000000000000000000000000000000000000000000000000000000000000000000000000000000000000000000000000000000000000000000000000000000000000000000000000000000000000000000000000000000000000000000000000000000000000000000000000000000000000000000000000000000000000000000000000000000000000000000000000000000000000000000000000000000000000000000000000000000000000000000000000000000000000000000000000000000000000000000000000000000000000000000000000000000000000000000000000000000000000000000000000000000000000000000000000000000
#0449a0:140000000000000000000000000000000000000000000000000000000000000000000000000000000000000000000000000000000000000000000000000000000000000000000000000000000000000000000000000000000000000000000000000000000000000000000000000000000000000000000000000000000000000000000000000000000000000000000000000000000000000000000000000000000000000000000000000000000000000000000000000000000000000000000000000000000000000000000000000000000000000000000000000000000000000000000000000000000000000000000000000000000000000000000000000000000000000000000000000000000000000000000000000000000000000000000000000000000000000000000000000000000000000000000000000000000000000000000000000000000000000000000000000000000000000000000000000000000000000000000000000000000000000000000000000000000000000000000000000000000000000000000000000000000000000000000000000000000000000000000000000000000000000000000000000000000000000000000000000000000000000000000000000000000000000000000000000000000000000000000000000000000000000000000000000000000000000000000000000000000000000000000000000000000000000000000000000000000000000000000000000000000000000000000000000000000000000000000000000000000000000000000000000000000000000000000000000000000000000000000000000000000000000000000000000000000000000000000000000000000000000000000000000000000000000000000000000000000000000000000000000000000000000000000000000000000000000000000000000000000000000000000000000000000000000000000000000000000000000000000000540000000000000000000000000000000000000000000000000000000000000000000000000000000000000000000000000000000000000000000000000000000000000000000000000000000000000000000000000000000000000000000000000000000000000000000000000000000000000000000000000000000000000000000000000000000000000000000000000000000000000000000000000000000000000000000000000000000000000000000000000000000000000000000000000000000000000000000000000000000000000000000000000000000000000000000000000000000000000000000000000000000000000000000000000000000000000000000000000000000000000000000000000000000000000000000000000000000000000000000000000000000000000000000000000000000000000000000000000000000000000000000000000000000000000000000000000000000000000000000000000000000000000000000000000000000000000000000000000000000000000000000000000000000000000000000000000000000000000000000000000000000000000000000000000000000000000000000000000000000000000000000000000000000000000000000000000000000000000000000000000000000000000000000000000000000000000000000000000000000000000000000000000000000000000000000000000000000000000000000000000000000000000000000000000000000000000000000000000000000000000000000000000000000000000000000000000000000000000000000000000000000000000000000000000000000000000000000000000000000000000000000000000000000000000000000000000000000000000000000000000000000000000000000000000000000000000000000000000000000000000000000000000000000000000000000000000000000000005454545454240000000000000000000000000000000000000000000000000000000000000000000000000000000000000000000000000000000000000000000000000000000000000000000000000000000000000000000000000000000000000000000000000000000000000000000000000000000000000000000000000000000000000000000000000000000000000000000000000000000000000000000000000000000000000000000000000000000000000000000000000000000000000000000000000000000000000000000000000000000000000000000000000000000000000000000000000000000000000000000000000000000000000000000000000000000000000000000000000000000000000000000000000000000000000000000000000000000000000000000000000000000000000000000000000000000000000000000000000000000000000000000000000000000000000000000000000000000000000000000000000000000000000000000000000000000000000000000000000000000000000000000000000000000000000000000000000000000000000000000000000000000000000000000000000000000000000000000000000000000000000000000000000000000000000000000000000000000000000000000000
#044970:00000054000000000054000000000000
#045920:140000000000000000000000000000000000000000000000000000000000000000000000000000000000000000000000000000000000000000000000000000000000000000000000000000000000000000000000000000000000000000000000000000000000000000000000000000000000000000000000000000000000000000000000000000000000000000000000000000000000000000000000000000000000000000000000000000000000000000000000000000000000000000000000000000000000000000000000000000000000000000000000000000000000000000000000000000000000000000000000000000000000000000000000000000000000000000000000000000000000000000000000000000000000000000000000000000000000000000000000000000000000000000000000000000000000000000000000000000000000000000000000000000000000000000000000000000000000000000000000000000000000000000000000000000000000000000000000000000000000000000000000000000000000000000000000000000000000000000000000000000000000000000000000000000000000000000000000000000000000000000000000000000000000000000000000000000000000000000000000000000000000000000000000000000000000000000000000000000000000000000000000000000000000000000000000000000000000000000000000000000000000000000000000000000000000000000000000000000000000000000000000000000000000000000000000000000000000000000000000000000000000000000000000000000000000000000000000000000000000000000000000000000000000000000000000000000000000000000000000000000000000000000000000000000000000000000000000000000000000000000000000000000000000000000000000000000000000000000000000540000000000000000000000000000000000000000000000000000000000000000000000000000000000000000000000000000000000000000000000000000000000000000000000000000000000000000000000000000000000000000000000000000000000000000000000000000000000000000000000000000000000000000000000000000000000000000000000000000000000000000000000000000000000000000000000000000000000000000000000000000000000000000000000000000000000000000000000000000000000000000000000000000000000000000000000000000000000000000000000000000000000000000000000000000000000000000000000000000000000000000000000000000000000000000000000000000000000000000000000000000000000000000000000000000000000000000000000000000000000000000000000000000000000000000000000000000000000000000000000000000000000000000000000000000000000000000000000000000000000000000000000000000000000000000000000000000000000000000000000000000000000000000000000000000000000000000000000000000000000000000000000000000000000000000000000000000000000000000000000000000000000000000000000000000000000000000000000000000000000000000000000000000000000000000000000000000000000000000000000000000000000000000000000000000000000000000000000000000000000000000000000000000000000000000000000000000000000000000000000000000000000000000000000000000000000000000000000000000000000000000000000000000000000000000000000000000000000000000000000000000000000000000000000000000000000000000000000000000000000000000000000000000000000000000000000000000000000005454545454240000000000000000000000000000000000000000000000000000000000000000000000000000000000000000000000000000000000000000000000000000000000000000000000000000000000000000000000000000000000000000000000000000000000000000000000000000000000000000000000000000000000000000000000000000000000000000000000000000000000000000000000000000000000000000000000000000000000000000000000000000000000000000000000000000000000000000000000000000000000000000000000000000000000000000000000000000000000000000000000000000000000000000000000000000000000000000000000000000000000000000000000000000000000000000000000000000000000000000000000000000000000000000000000000000000000000000000000000000000000000000000000000000000000000000000000000000000000000000000000000000000000000000000000000000000000000000000000000000000000000000000000000000000000000000000000000000000000000000000000000000000000000000000000000000000000000000000000000000000000000000000000000000000000000000000000000000000000000000000000
#045950:00000054000000000054000000000000
#046950:140000000000000000000000000000000000000000000000000000000000000000000000000000000000000000000000000000000000000000000000000000000000000000000000000000000000000000000000000000000000000000000000000000000000000000000000000000000000000000000000000000000000000000000000000000000000000000000000000000000000000000000000000000000000000000000000000000000000000000000000000000000000000000000000000000000000000000000000000000000000000000000000000000000000000000000000000000000000000000000000000000000000000000000000000000000000000000000000000000000000000000000000000000000000000000000000000000000000000000000000000000000000000000000000000000000000000000000000000000000000000000000000000000000000000000000000000000000000000000000000000000000000000000000000000000000000000000000000000000000000000000000000000000000000000000000000000000000000000000000000000000000000000000000000000000000000000000000000000000000000000000000000000000000000000000000000000000000000000000000000000000000000000000000000000000000000000000000000000000000000000000000000000000000000000000000000000000000000000000000000000000000000000000000000000000000000000000000000000000000000000000000000000000000000000000000000000000000000000000000000000000000000000000000000000000000000000000000000000000000000000000000000000000000000000000000000000000000000000000000000000000000000000000000000000000000000000000000000000000000000000000000000000000000000000000000000000000000000000000000000540000000000000000000000000000000000000000000000000000000000000000000000000000000000000000000000000000000000000000000000000000000000000000000000000000000000000000000000000000000000000000000000000000000000000000000000000000000000000000000000000000000000000000000000000000000000000000000000000000000000000000000000000000000000000000000000000000000000000000000000000000000000000000000000000000000000000000000000000000000000000000000000000000000000000000000000000000000000000000000000000000000000000000000000000000000000000000000000000000000000000000000000000000000000000000000000000000000000000000000000000000000000000000000000000000000000000000000000000000000000000000000000000000000000000000000000000000000000000000000000000000000000000000000000000000000000000000000000000000000000000000000000000000000000000000000000000000000000000000000000000000000000000000000000000000000000000000000000000000000000000000000000000000000000000000000000000000000000000000000000000000000000000000000000000000000000000000000000000000000000000000000000000000000000000000000000000000000000000000000000000000000000000000000000000000000000000000000000000000000000000000000000000000000000000000000000000000000000000000000000000000000000000000000000000000000000000000000000000000000000000000000000000000000000000000000000000000000000000000000000000000000000000000000000000000000000000000000000000000000000000000000000000000000000000000000000000000000000005454545454240000000000000000000000000000000000000000000000000000000000000000000000000000000000000000000000000000000000000000000000000000000000000000000000000000000000000000000000000000000000000000000000000000000000000000000000000000000000000000000000000000000000000000000000000000000000000000000000000000000000000000000000000000000000000000000000000000000000000000000000000000000000000000000000000000000000000000000000000000000000000000000000000000000000000000000000000000000000000000000000000000000000000000000000000000000000000000000000000000000000000000000000000000000000000000000000000000000000000000000000000000000000000000000000000000000000000000000000000000000000000000000000000000000000000000000000000000000000000000000000000000000000000000000000000000000000000000000000000000000000000000000000000000000000000000000000000000000000000000000000000000000000000000000000000000000000000000000000000000000000000000000000000000000000000000000000000000000000000000000000
#046920:00000054000000000054000000000000
#0469a1:140000000000000000000000000000000000000000000000000000000000000000000000000000000000000000000000000000000000000000000000000000000000000000000000000000000000000000000000000000000000000000000000000000000000000000000000000000000000000000000000000000000000000000000000000000000000000000000000000000000000000000000000000000000000000000000000000000000000000000000000000000000000000000000000000000000000000000000000000000000000000000000000000000000000000000000000000000000000000000000000000000000000000000000000000000000000000000000000000000000000000000000000000000000000000000000000000000000000000000000000000000000000000000000000000000000000000000000000000000000000000000000000000000000000000000000000000000000000000000000000000000000000000000000000000000000000000000000000000000000000000000000000000000000000000000000000000000000000000000000000000000000000000000000000000000000000000000000000000000000000000000000000000000000000000000000000000000000000000000000000000000000000000000000000000000000000000000000000000000000000000000000000000000000000000000000000000000000000000000000000000000000000000000000000000000000000000000000000000000000000000000000000000000000000000000000000000000000000000000000000000000000000000000000000000000000000000000000000000000000000000000000000000000000000000000000000000000000000000000000000000000000000000000000000000000000000000000000000000000000000000000000000000000000000000000000000000000000000000000000000540000000000000000000000000000000000000000000000000000000000000000000000000000000000000000000000000000000000000000000000000000000000000000000000000000000000000000000000000000000000000000000000000000000000000000000000000000000000000000000000000000000000000000000000000000000000000000000000000000000000000000000000000000000000000000000000000000000000000000000000000000000000000000000000000000000000000000000000000000000000000000000000000000000000000000000000000000000000000000000000000000000000000000000000000000000000000000000000000000000000000000000000000000000000000000000000000000000000000000000000000000000000000000000000000000000000000000000000000000000000000000000000000000000000000000000000000000000000000000000000000000000000000000000000000000000000000000000000000000000000000000000000000000000000000000000000000000000000000000000000000000000000000000000000000000000000000000000000000000000000000000000000000000000000000000000000000000000000000000000000000000000000000000000000000000000000000000000000000000000000000000000000000000000000000000000000000000000000000000000000000000000000000000000000000000000000000000000000000000000000000000000000000000000000000000000000000000000000000000000000000000000000000000000000000000000000000000000000000000000000000000000000000000000000000000000000000000000000000000000000000000000000000000000000000000000000000000000000000000000000000000000000000000000000000000000000000000000000005454545454240000000000000000000000000000000000000000000000000000000000000000000000000000000000000000000000000000000000000000000000000000000000000000000000000000000000000000000000000000000000000000000000000000000000000000000000000000000000000000000000000000000000000000000000000000000000000000000000000000000000000000000000000000000000000000000000000000000000000000000000000000000000000000000000000000000000000000000000000000000000000000000000000000000000000000000000000000000000000000000000000000000000000000000000000000000000000000000000000000000000000000000000000000000000000000000000000000000000000000000000000000000000000000000000000000000000000000000000000000000000000000000000000000000000000000000000000000000000000000000000000000000000000000000000000000000000000000000000000000000000000000000000000000000000000000000000000000000000000000000000000000000000000000000000000000000000000000000000000000000000000000000000000000000000000000000000000000000000000000000000
#046971:00000054000000000054000000000000
#047921:13
#047951:000000000000000000000000000000000000000000000000000000000000000000000000000000000000000000000000000000000000000000000000000000000000000000000000000000000000000000000000000000000000000000000000000000000000000000000000000000000000000000000000000000000000000000000000000000000000000000000000000000000000000000000000000000000000000000000000000000000000000000000000000000000000000000000000000000000000000000000000000000000000000000000000000000000000000000000000000000000000000000000000000000000000000000000000000000000000000000000000000000000000000000000000000000000000000000000000000000000000000000000000000000000000000000000000000000000000000000000000000000000000000000000000000000000000000000000000000000000000000000005353230000000000000000000000000000000000000000000000000000000000000000000000000000000000000000000000000000000000000000000000000000000000000000000000000000000000000000000000000000000000000000000000000000000000000000000000000000000000000000000000000000000000000000000000000000000000000000000000000000000000000000000000000000000000000000000000000000000000000000000000000000000000000000000000000000000000000000000000000000000000000000000000000000000000000000000000000000000000000000000000000000000000000000000000000000000000000000000000000000000000000000000000000000000000000000000000000000000000000000000000000000000000000000000000000000000000000000000000000000000000000000000000000000000000000000000000000000000000000000000000000000000000000000000000000000000000000000000000000000000000000000000000000000000000000000000000000000000000000000000000000000000000000000000000000000000000000000000000000000000000000000000000000000000000000000000000000000000000000000000000000000000000000000000000000000000000000000000000000000000000000000000000000000000000000000000000000000000000000000000000000000000000000000000000000000000000000000000000000000000000000000000000000000000000000000000000000000000000000000000000000000000000000000000000000000000000000000000000000000000000000000000000000000000000000000000000000000000000000000000000000000000000000000000000000000000000000000000000000000000000000000000000000000000000000000000000000000000000000000000000000000000000000000000000000000000000000000000000000000000000000000000000000000000000000000000000000000000000000000000000000000000000000000000000000000000000000000000000000000000000000000000000000000000000000000000000000000000000000000000000000000000000000000000000000000000000000000000000000000000000000000000000000000000000000000000000000000000000000000000000000000000000000000000000000000000000000000000000000000000000000000000000000000000000000000000000000000000000000000000000000000000000000000000000000000000000000000000000000000000000000000000000000000000000000000000000000000000000000000000000000000000000000000000000000000000000000000000000000000000000000000000000000000000000000000000000000000000000000000000000000000000000000000000000000000000000000000000000000000000000000000000000000000000000000000000000000000000000000000000000000000000000000000000000000000000000000000000000000000000000000000000000000000000000000000000000000000000000000000000000000000000000000000000000000000000000000000000000000000000000000000000000000000000000000000000000000000000000000000000000000000000000000000000000000000000000000000000000000000000000000000000000000000000000000000000000000000000000000000000000000000000000000000000000000000000000000000000000000000000000000000000000000000000000000000000000000000000000000000000000000000000000000000000000000000000000000000000000000000000000000000000000000000000000000000000000000000000000000000000000000000000000000000000000000000000000000000000000000000000000000000000000000000000000000000000000000000000000000000000000000000000000000000000000000000000000000000000000000000000000000000000000000000000000000000000000000000000000000000000000
#0479b1:00130000
#047981:000000000000000000000000000000000000000000000000000000000000000000000000000000000000000000000000000000000000000000000000000000000000000000000000000000000000000000000000000000000000000000000000000000000000000000000000000000000000000000000000000000000000000000000000000000000000000000000000000000000000000000000000000000000000000000000000000000000000000000000000000000000000000000000000000000000000000000000000000000000000000000000000000000000000000000000000000000000000000000000000000000000000000000000000000000000000000000000000000000000000000000000000000000000000000000000000000000000000000000000000000000000000000000000000000000000000000000000000000000000000000000000000000000000000000000000000000000000000000000000000000000000000000000000000000000000000000000000000000000000000000000000000000000000000000000000000000000000000000000000000000000000000000000000000000000000000000000000000000000000000000000000000000000000000000000000000000000000000000000000000000000000000000000000000000000000000000000000000000000000000000000000000000000000000000000000000000000000000000000000000000000000000000000000000000000000000000000000000000000000000000000000000000000000000000000000000000000000000000000000000000000000000000000000000000000000000000000000000000000000000000000000000000000000000000000000000000000000000000000000000000000000000000000000000000000000000000000000000000000000000000000000000000000000000000000000000000000000000000000000000000000000000000000000000000000000000000000000000000000000000000000000000000000000000000000000000000000000000000000000000000000000000000000000000000000000000000000000000000000000000000000000000000000000000000000000000000000000000000000005353230000000000000000000000000000000000000000000000000000000000000000000000000000000000000000000000000000000000000000000000000000000000000000000000000000000000000000000000000000000000000000000000000000000000000000000000000000000000000000000000000000000000000000000000000000000000000000000000000000000000000000000000000000000000000000000000000000000000000000000000000000000000000000000000000000000000000000000000000000000000000000000000000000000000000000000000000000000000000000000000000000000000000000000000000000000000000000000000000000000000000000000000000000000000000000000000000000000000000000000000000000000000000000000000000000000000000000000000000000000000000000000000000000000000000000000000000000000000000000000000000000000000000000000000000000000000000000000000000000000000000000000000000000000000000000000000000000000000000000000000000000000000000000000000000000000000000000000000000000000000000000000000000000000000000000000000000000000000000000000000000000000000000000000000000000000000000000000000000000000000000000000000000000000000000000000000000000000000000000000000000000000000000000000000000000000000000000000000000000000000000000000000000000000000000000000000000000000000000000000000000000000000000000000000000000000000000000000000000000000000000000000000000000000000000000000000000000000000000000000000000000000000000000000000000000000000000000000000000000000000000000000000000000000000000000000000000000000000000000000000000000000000000000000000000000000000000000000000000000000000000000000000000000000000000000000000000000000000000000000000000000000000000000000000000000000000000000000000000000000000000000000000000000000000000000000000000000000000000000000000000000000000000000000000000000000000000000000000000000000000000000000000000000000000000000000000000000000000000000000000000000000000000000000000000000000000000000000000000000000000000000000000000000000000000000000000000000000000000000000000000000000000000000000000000000000000000000000000000000000000000000000000000000000000000000000000000000000000000000000000000000000000000000000000000000000000000000000000000000000000000000000000000000000000000000000000000000000000000000000000
