This file was generated by Ched 2.7.0.0.
#TITLE ""
#ARTIST ""
#DESIGNER ""
#DIFFICULTY 0
#PLAYLEVEL
#SONGID ""
#WAVE ""
#WAVEOFFSET 0
#JACKET ""
#REQUEST "ticks_per_beat 480"
#00002: 4
#BPM01: 160
#00008: 01
#TIL00: ""
#VOLUME: ""
#HISPEED 00
#MEASUREHS 00
#0001a:14
#00112:14
#0021a:14
#00312:14
#0241a:14
#02410:41
#0251a:14
#02614:14
#02714:14
#02818:14
#02918:14
#03014:14
#03114:14
#0361a:2414
#03712:1414
#03818:1414
#0641a:14
#0641f:11
#06514:14
#08312:14
#0831a:0014
#01014:14
#00618:14
#01318:14
#01412:14
#01514:14
#04012:0016
#04018:26
#04010:41
#04118:16
#04112:0016
#04412:0016
#04418:26
#04612:16
#04618:0016
#04712:16
#04718:0016
#04818:0016
#04812:26
#04912:16
#04918:0016
#05218:0016
#05212:26
#05210:41
#05418:16
#05412:0016
#05518:16
#05512:0016
#06812:14
#06918:14
#07318:0016
#07312:26
#0731f:21
#07310:0041
#07412:1616
#07418:00160000
#07712:0016
#07718:26
#07818:1616
#07812:00160000
#08112:16
#0821a:0014
#08412:14
#08418:0014
#08414:00000024
#0121a:24
#01210:41
#03914:2424
#07218:26
#06310:41
#00658:54
#01054:54
#08152:56
#0043a0:1424
#005320:1424
#006380:14
#0073a0:24
#008320:1424
#0093a0:1424
#010340:14
#011320:24
#0163a0:14
#0173a0:24
#018340:14
#019340:24
#020380:14
#021380:24
#022320:14
#023320:24
#0323a0:1424
#033340:1424
#034380:1424
#035320:1424
#042380:1626
#043320:1626
#045380:1626
#050320:1626
#051380:1626
#053320:1626
#0563a0:14
#057380:34
#0583a0:34
#059380:24
#060320:14
#061340:34
#062320:34
#063340:24
#0663a0:14
#0673a0:24
#070320:14
#071320:24
#075380:1626
#076320:1626
#079320:1626
#080380:1626
#081320:16
#082340:26
