This file was generated by Ched 2.7.0.0.
#TITLE ""
#ARTIST ""
#DESIGNER ""
#DIFFICULTY 0
#PLAYLEVEL
#SONGID ""
#WAVE ""
#WAVEOFFSET 0
#JACKET ""
#REQUEST "ticks_per_beat 480"
#00002: 4
#BPM01: 160
#00008: 01
#TIL00: ""
#VOLUME: ""
#HISPEED 00
#MEASUREHS 00
#00518:00130000
#00515:1300001300002300
#0051b:13001313
#01118:00001313
#01115:0000000000130013
#01212:00130013
#01218:2300001300130000
#01210:41
#02015:0013000000130000
#02018:00130000
#0201b:13
#02012:0000001300000013
#04012:0000130000000013
#04015:0013
#04018:00130000
#0401b:0000000000130000
#0401a:14
#04014:14
#04010:41
#04414:00130000
#04419:0000001300000000
#04416:0013
#0441b:0000000000130000
#04412:0000000000000013
#04618:00131300
#04615:0000001300000000
#04714:0014000000000000
#04718:14
#04712:0000001500000000
#04719:00150000
#07318:13130000
#07315:0000000000130000
#0731b:0000000000130000
#07312:23230000
#0731f:21
#07310:0041
#08318:1300001300130000
#08312:00130000
#08313:00000025
#00115:1323000000000000
#00314:1424000000000000
#00018:1323000000000000
#00819:13
#0081a:00130000
#00816:0000001300000000
#0081b:0013
#00815:0013000000000000
#05617:00130000
#05618:0000005300000000
#05619:0053
#0561a:0000000000530000
#0561b:00000053
#05816:13
#0581b:13
#0771b:0000000000000013
#07718:13
#07712:23230000
#07715:0000000033000023
#07714:0000003300000000
#0781b:0013
#07812:0023
#07818:0033000000000000
#07819:33
#07918:0000000000130000
#0791b:00130000
#07915:0000000000230023
#07912:00230000
#08018:13
#0801b:00130000
#08012:00000013
#08015:0023
#00218:1424000000000000
#0331b:13131300
#03316:0013001300000000
#04516:0000001300001400
#04512:0000000000000014
#0451a:0000130000140000
#04518:13
#04514:0013000000000000
#0751b:1300130000003313
#07518:0000003313000000
#07512:0000003313000000
#07516:0000000000003313
#07515:23230000
#07514:0000000000330000
#0751a:0000000000330000
#0381b:1313
#03818:0000130000331333
#03815:1313
#03812:0000130000331333
#05519:0000001300000000
#05516:0000002300000000
#0361b:1313
#03616:0013001300000000
#03619:00130000
#03112:0014
#0311a:00000014
#04115:0013000000000000
#0411b:00130000
#04118:13
#04112:0000002300000000
#00612:13
#00615:0013
#00618:13
#0061b:0013
#05112:0000001300000000
#05115:23
#00718:00000013
#00712:00000013
#0101b:13
#01018:0013
#01015:13
#01012:0013
#00918:0023000000001300
#00914:23
#00913:00230000
#00917:0000002300000000
#00912:00002323
#01415:1300001300130000
#0141b:00130013
#02112:0013
#02118:0013
#02818:13
#02815:0013000000000015
#0281b:00130000
#02812:0000001400000000
#02814:0000000000140000
#02915:0013
#02912:00000013
#0291b:00000013
#02918:0000001300000000
#0191b:0013
#01915:0013
#02212:0013000000130000
#0221b:00130000
#02218:13
#02215:0000001300000013
#02712:0013
#02718:0013
#0271b:00000013
#02715:00000013
#03016:0000000000000015
#03015:13
#03018:0013000000140000
#03012:00130000
#0301a:0000001400000000
#0351a:13131300
#03513:23232300
#03518:00000053
#03515:00000063
#0421b:13
#0421a:00130000
#04219:0000000000000013
#04319:0013000000000000
#04317:14140000
#0491b:0000001300000000
#04915:23
#04918:0023000000000000
#04912:00230000
#06017:00130053
#06012:13
#06019:0000005300530000
#0601b:0053
#06217:13
#06212:13
#06518:0000333313000000
#0651b:13000013
#06519:0033000000000000
#0641b:00130000
#06418:0000000033133300
#0641f:11
#06612:00130000
#06615:0013
#06618:00000013
#0671b:13
#06716:13
#06719:00130000
#06714:00130000
#06812:00230013
#06814:0000003300330000
#06915:0013
#06913:0033003300000000
#08118:13
#08115:13
#08415:0023000000230013
#0841b:23000023
#08418:00232300
#08412:0000002300000000
#07412:13
#07417:13
#07416:0033330000000000
#0741a:0033330000000000
#0161b:0000002300000013
#01618:0000000000130000
#0161a:24
#01615:00230000
#01818:0000002300000013
#0181b:0023000000130000
#01815:23
#01812:00230000
#0531b:0013
#05312:0023
#05316:23
#05319:0023000000000000
#05314:00230000
#03718:00000013
#03712:23002323
#03717:0023002300000000
#03714:00230000
#04814:24
#04815:00230000
#04812:0000000000230000
#0481b:0000230000000023
#04818:2423
#0131b:0023000000000023
#01315:00230023
#01318:0000002300230000
#01312:0023
#05712:23
#05716:00006323
#05713:0063000000000000
#05714:00630000
#05715:0000006300000000
#00415:00230000
#00418:2300002300000000
#00412:2323
#0241b:23
#02415:0023000000000025
#02418:00230000
#02414:0000000000240000
#02412:0000002400000000
#02410:41
#03212:23232300
#03217:0000000000000000000000000000000023000000000000000000000000000000000000000000000000000000000000000023000000000000000000000000000000000000000000000000000000000000000000000000000000000000000000000000000000000000000000000000000000000000000000000000000000000000
#03412:2323
#03417:0023002300002300
#05219:00230000
#05214:0000002300000000
#05217:0023
#05212:0000000000230000
#0521b:0000000000000023
#05210:41
#05414:00230000
#0541b:0000002300000000
#05416:0023
#07012:00230000
#0701b:2323
#07015:2323
#07018:00230000
#07115:23
#0711b:23
#07112:0063
#07118:0063
#05015:2323
#05012:00230023
#01512:0023000000000023
#01518:00230023
#01515:0000002300230000
#0151b:0023
#01712:0023
#01718:0023
#0231a:0024
#02312:0024
#02518:0000002300000000
#02512:0023
#02515:00000023
#0251b:00000023
#06112:23006323
#06114:0063006300000000
#06116:00630000
#08212:0023000000000023
#08218:00230023
#08215:0000002300230000
#0821b:2323
#02612:23
#02618:0023000000240000
#02615:00230000
#02616:0000000000000025
#0261a:0000002400000000
#07617:0033330000000000
#07613:0033330000000000
#07614:33
#07619:33
#06310:41
#07215:63
#0721b:63
#01258:13
#01252:00000053
#07352:13530000
#07358:13530000
#07355:0000000000530000
#0735b:0000000000530000
#08353:00000015
#08358:13
#05856:53
#0585b:53
#07852:0063
#0785b:0053
#07858:0000130000000013
#07855:0000130000000013
#0775b:0000000000000063
#07758:0000000000130000
#07755:0000000000130000
#07752:00530000
#08058:53
#0805b:00230000
#08055:0063
#08052:00000023
#04854:14
#04858:14
#05352:0053
#05358:0000000000000013
#05355:0000000000000013
#0535b:0053
#0385b:6363
#03858:00630023
#03855:6363
#03852:00630023
#05556:0000005300000000
#05559:0000005300000000
#03152:0014
#0315a:00000014
#04752:0000006500000000
#04759:00550000
#05259:13
#05255:13
#00652:63
#00655:0023
#00658:63
#0065b:0023
#0055b:00000053
#00555:00000053
#00752:13
#00758:13
#05152:0000006300000000
#0035b:00000013
#0105b:53
#01058:0023
#01055:53
#01052:0023
#00958:00000053
#00952:00000053
#0115b:13
#01155:13
#01455:13
#0145b:00000063
#0165a:14
#0165b:0000006300000063
#01658:0000000000630000
#02052:0000005300000053
#02055:0000000000530000
#0235a:0064
#02352:0064
#03056:0000000000000055
#04152:0000005300000000
#04357:54540000
#04359:0023000000000000
#04259:0000000000000023
#04455:13
#04459:13
#0495b:0000005300000000
#05657:13
#05654:13
#06257:63
#06252:63
#06052:13
#0655b:53000053
#06558:0053
#0645b:00530000
#06458:0000000000230000
#06852:00000053
#06955:0053
#07456:0000001300000000
#0745a:0000001300000000
#07452:53
#07457:53
#07952:00230000
#0795b:00230000
#08153:00000015
#08158:53000015
#08155:63
#08455:0000000000000013
#0405a:14
#04054:14
#0355a:0063
#03553:0063
#0755b:0000630000000063
#07558:0063
#07552:0063
#07556:0000000000000063
#07555:00630000
#07657:0000001300000000
#07653:0000001300000000
#01858:0000005300000053
#0185b:0000000000530000
#02255:0000006300000063
#02252:0000000000630000
#02855:0000000000000055
#03752:00000063
#03758:00000063
#03952:0014
#03958:0014
#02455:0000000000000065
#02656:0000000000000055
#0033b0:00000000000000001333330023000000
#005350:00000013
#006320:33
#006350:0053
#007320:23
#0053b1:00000013
#006381:33
#0063b1:0053
#007381:23
#009381:00000013
#0103b1:33
#010381:0053
#0113b1:23
#009320:00000013
#010350:33
#010320:0053
#011350:23
#012320:00000013
#013350:23
#0143b0:00000013
#015380:23
#0163b0:0000001300000033
#016380:0000000000330000
#017380:00230000
#018380:0000001300000033
#0183b0:0000000000330000
#0193b0:00230000
#020320:0000001300000033
#020350:0000000000330000
#021350:00230000
#022350:0000001300000033
#022320:0000000000330000
#023320:00230000
#0233a0:0014
#023380:00000024
#023321:0014
#023341:00000024
#024351:0000000000000015
#025321:00240000
#026361:0000000000000015
#0273a1:00240000
#028351:0000000000000015
#029321:00240000
#030361:0000000000000015
#0313a1:00240000
#037381:00000013
#0383b1:3333
#038381:0000330000333333
#0393b1:33
#039381:00540000000000002400000000000000
#037320:00000013
#038350:3333
#038320:0000330000333333
#039350:33
#039320:00540000000000002400000000000000
#041320:0000001300000000
#041350:0000000000530000
#044350:23
#042391:0000000013000053
#043371:34340000
#043391:0053005300000000
#044391:23
#046351:0000000000130023
#047391:00150000
#048381:24
#047320:0000001500000000
#048340:24
#0493b0:0000001300000000
#049390:0000000000530000
#052390:23
#051351:13000053
#051341:0033000000000000
#051331:00330000
#051321:0000003300000000
#052351:23
#053321:0013
#053351:0000000000003323
#0533b0:0013
#053380:0000000000003323
#054360:0000000013000033
#055350:33330000
#055340:0033000000000000
#055360:0000003300000000
#056340:23
#054391:0000000000130000
#055391:0000005300000000
#056371:23
#057361:00000013
#058361:33
#059321:23
#0573b0:00000013
#0583b0:33
#059370:23
#061370:00000013
#062370:33
#0633b0:23
#061321:00000013
#062321:33
#063361:23
#0643b1:00130000
#064381:0000000033333300
#0653b1:33000033
#065391:0033000000000000
#065381:0000333333000000
#066381:23
#067321:00001323
#067370:00001323
#068320:00130033
#068340:0000003300330000
#068350:0033
#069350:3333
#069330:0033003300000000
#069320:00330023
#073320:0000130000000033
#073350:0000000033330000
#074320:33
#074360:0033332300000000
#073381:00130000
#0733b1:0000000033330000
#073371:0000000000000033
#074371:33
#0743a1:0033332300000000
#0753b1:0000130000003333
#075381:0000003333000000
#0753a1:0000000000330000
#076391:33
#076371:0033332300000000
#075350:00130000
#075320:0000003333000000
#075340:0000000000330000
#075360:0000000000003333
#076340:33
#076330:0033332300000000
#077320:00130000
#077340:0000003300000000
#077350:0000000033230000
#077381:0000130000230000
#0773b1:0000000000000013
#078391:33
#078381:0033230000000000
#077350:0000000000000013
#078350:00230000
#078320:0013
#078350:0000000000533323
#0783b1:0013
#078381:0000000000533323
#079321:00130000
#079351:0023
#0793b0:00130000
#079380:0023
#080380:1323
#0803b0:00530000
#080351:0013
#080321:00000053
#081351:33
#081331:00000025
#081380:13000025
#035930:0013
#035950:000000000000000000000000000000000000000000000000000000000000000000000000000000000000000000000000000000000000000000000000000000000000000000000000000000000000000000000000000000000000000000000000000000000000000000000000000000000000000000000000000000000000000000000000000000000000000000000000000000000000000000000000000000000000000000000000000000000000000000000000000000000000000000000000000000000000000000000000000000000000000000000000000000000000000000000000000000000000000000000000000000000000000000000000000000000000000000000000000000000000000000000000000000000000000000000000000000000000000000000000000000000000000000000000000000000000000000000000000000000000000000000000000000000000000000000000000000000000000000000000000000000000000000000000000000000000000000000000000000000000000000000000000000000000000000000000000000000000000000000000000000000000000000000000000000000000000000000000000000000000000000000000000000000000000000000000000000000000000000000000000000000000000000000000000000000000000000000000000000000000000000000000000000000000000000000000000000000000000000000000000000000000000000000000000000000000000000000000000000000000000000000000000000000000000000000000000000000000000000000000000000000000000000000000000000000000000000000000000000000000000000000000000000000000000000000000000000000000000000000000000000000000000000000000000000000000000000000000000000000000000000000000000000000000000000000000000000000000000000000000000000000000000000000000000000000000000000000000000000000000000000000000000000000000000000000000000000000000000000000000000000000000000000000000000000000000000000000000000000000000000000000000000000000000000000000000000000000000000000000000000000000000000000000000000000000000000000000000000000000000000000000000000000000000000000000000000000000000000000000000000000000000000000000000000000000000000000000000000000000000000000000000000000000000000000000000000000000000000000000000000000000000000000000000000000000000000000000000000000000000000000000000000000000000000000000000000000000000000000000000000000000000000000000000000000000000000000000000000000000000000000000000000000000000000000000000000000000000000000000000000000000000000000000000000000000000000000000000000000000000000000000000000000000000000000000000000000000000000000000000000000000000000000000000000000000000000000000000000000000000000000000000000000000000000000000000000000000000000000000000000000000000000000000000000000000000000000000000000000000000000000000000000000000000000000000000000000000000000000000000000000000000000000000000000000000000000000000000000000000000000000000000000000000000000000000000000000000000000000000000000000000000000000000000000000000000000000000000000000000000000000000000000000000000000000000000000000000000000000000000000000000000000000000000000000000000000000000000000000000000000000000000000000000000000000000000000000000000000000535353230000000000000000000000000000000000000000000000000000000000000000000000000000000000000000000000000000000000000000000000000000000000000000000000000000000000000000000000000000000000000000000000000000000000000000000000000000000000000000000000000000000000000000000000000000000000000000000000000000000000000000000000000000000000000000000000000000000000000000000000000000000000000000000000000000000000000000000000000000000000000000000000000000000000000000000000000000000000000000000000000000000000000000000000000000000000000000000000000000000000000000000000000000000000000000000000000000000000000000000000000000000000000000000000000000000000000000000000000000000000000000000000000000000000000000000000000000000000000000000000000000000000000000000000000000000000000000000000000000000000000000000000000000000000000000000000000000000000000000000000000000000000000000000000000000000000000000000000000000000000000000000000000000000000000000000000000000000000000000000000
#0359a1:0013
#035981:000000000000000000000000000000000000000000000000000000000000000000000000000000000000000000000000000000000000000000000000000000000000000000000000000000000000000000000000000000000000000000000000000000000000000000000000000000000000000000000000000000000000000000000000000000000000000000000000000000000000000000000000000000000000000000000000000000000000000000000000000000000000000000000000000000000000000000000000000000000000000000000000000000000000000000000000000000000000000000000000000000000000000000000000000000000000000000000000000000000000000000000000000000000000000000000000000000000000000000000000000000000000000000000000000000000000000000000000000000000000000000000000000000000000000000000000000000000000000000000000000000000000000000000000000000000000000000000000000000000000000000000000000000000000000000000000000000000000000000000000000000000000000000000000000000000000000000000000000000000000000000000000000000000000000000000000000000000000000000000000000000000000000000000000000000000000000000000000000000000000000000000000000000000000000000000000000000000000000000000000000000000000000000000000000000000000000000000000000000000000000000000000000000000000000000000000000000000000000000000000000000000000000000000000000000000000000000000000000000000000000000000000000000000000000000000000000000000000000000000000000000000000000000000000000000000000000000000000000000000000000000000000000000000000000000000000000000000000000000000000000000000000000000000000000000000000000000000000000000000000000000000000000000000000000000000000000000000000000000000000000000000000000000000000000000000000000000000000000000000000000000000000000000000000000000000000000000000000000000000000000000000000000000000000000000000000000000000000000000000000000000000000000000000000000000000000000000000000000000000000000000000000000000000000000000000000000000000000000000000000000000000000000000000000000000000000000000000000000000000000000000000000000000000000000000000000000000000000000000000000000000000000000000000000000000000000000000000000000000000000000000000000000000000000000000000000000000000000000000000000000000000000000000000000000000000000000000000000000000000000000000000000000000000000000000000000000000000000000000000000000000000000000000000000000000000000000000000000000000000000000000000000000000000000000000000000000000000000000000000000000000000000000000000000000000000000000000000000000000000000000000000000000000000000000000000000000000000000000000000000000000000000000000000000000000000000000000000000000000000000000000000000000000000000000000000000000000000000000000000000000000000000000000000000000000000000000000000000000000000000000000000000000000000000000000000000000000000000000000000000000000000000000000000000000000000000000000000000000000000000000000000000000000000000000000000000000000000000000000000000000000000000000000000000000000000000000000000000000000535353230000000000000000000000000000000000000000000000000000000000000000000000000000000000000000000000000000000000000000000000000000000000000000000000000000000000000000000000000000000000000000000000000000000000000000000000000000000000000000000000000000000000000000000000000000000000000000000000000000000000000000000000000000000000000000000000000000000000000000000000000000000000000000000000000000000000000000000000000000000000000000000000000000000000000000000000000000000000000000000000000000000000000000000000000000000000000000000000000000000000000000000000000000000000000000000000000000000000000000000000000000000000000000000000000000000000000000000000000000000000000000000000000000000000000000000000000000000000000000000000000000000000000000000000000000000000000000000000000000000000000000000000000000000000000000000000000000000000000000000000000000000000000000000000000000000000000000000000000000000000000000000000000000000000000000000000000000000000000000000000
#056971:00130000
#0569b1:00000023
#057921:13
#057961:0023
#060971:00130023
#0609b1:0053
#061921:1323
#061961:00530000
#071951:13
#071921:0053
#072951:23
#0719b0:13
#071980:0053
#0729b0:23
