This file was generated by Ched 2.7.0.0.
#TITLE ""
#ARTIST ""
#DESIGNER ""
#DIFFICULTY 0
#PLAYLEVEL
#SONGID ""
#WAVE ""
#WAVEOFFSET 0
#JACKET ""
#REQUEST "ticks_per_beat 480"
#00002: 4
#BPM01: 160
#00008: 01
#TIL00: ""
#VOLUME: ""
#HISPEED 00
#MEASUREHS 00
#00014:14
#0001a:14
#00112:14
#00118:14
#00214:14
#0021a:14
#00312:14
#00318:14
#0051a:1414
#00514:00140000
#00618:14
#00614:0014
#0061a:0014
#00612:24
#00818:14
#00814:00140000
#0081a:0014
#0101a:14
#01018:0014
#01012:0014
#01014:24
#01214:0014
#01218:00000014
#0121a:24
#01210:41
#01418:0014
#01414:00000014
#01412:14
#0161a:1414
#01814:1414
#02018:1414
#02212:1414
#0241a:1414
#02414:00140000
#02410:41
#02512:1414
#02518:00140000
#0261a:14
#02614:00140000
#02618:0014
#02712:14
#02718:00140000
#02714:0014
#02818:1414
#02812:00140000
#02914:1414
#0291a:00140000
#03018:14
#03012:00140000
#0301a:0014
#03114:14
#0311a:00140000
#03112:0014
#0321a:14
#03315:14
#03417:14
#03512:14
#03614:00140014
#0361a:2414
#03712:00140014
#03718:1414
#0381a:1414
#03814:00140014
#03918:14
#03914:0014
#04012:00140000
#0401a:0014
#04014:00000014
#04018:24
#04010:41
#04118:14
#04112:00140000
#0411a:0014
#04114:00000014
#04218:1414
#0421a:00140000
#04312:1414
#04314:00140000
#0441a:2414
#04414:00140000
#04514:1414
#0451a:00140000
#0461a:14
#04614:00140000
#04618:0014
#04612:00000014
#0471a:0014
#04714:00140000
#04718:14
#0481a:00140000
#04812:0014
#04818:00000014
#04814:24
#04914:14
#0491a:00140000
#04912:0014
#04918:00000014
#05014:1414
#05012:00140000
#0511a:1414
#05118:00140000
#05412:14
#05418:00140000
#05414:0014
#0541a:00000014
#05512:0014
#05518:00140000
#05514:14
#05212:2414
#05218:00140000
#05210:41
#05318:1414
#05312:00140000
#0581a:14
#05818:0014
#05812:0014
#05814:24
#0561a:0014
#06212:14
#06214:0014
#0621a:0014
#06218:24
#06012:0014
#06018:14
#06412:14
#06416:0014
#0641f:11
#0651a:14
#06516:0014
#06612:14
#06615:0014
#06712:14
#0711a:14
#07117:0014
#07017:0014
#0701a:24
#0731a:00140000
#07314:00001414
#07312:24
#0731f:21
#07310:0041
#0741a:14
#07412:00140000
#07418:00001414
#07518:0014
#07514:14
#0801a:0014
#08012:24
#0791a:00140000
#07914:0014
#07918:00000014
#07818:0014
#0781a:14
#07814:24
#07812:0024
#07619:14
#07618:00140000
#07614:24
#07613:00240000
#07718:0014
#07712:0024
#0811a:14
#08112:24
#0831a:14
#08312:00140000
#00412:2424
#00418:00240000
#00914:24
#00918:00240000
#00912:0024
#01312:24
#0131a:0024
#0151a:24
#01512:0024
#05718:0024
#05712:24
#06114:0024
#0611a:24
#0681a:24
#06816:0024
#06912:24
#06916:0024
#0821a:24
#08218:0024
#08212:00240000
#08214:00000024
#08412:24
#08414:0000000024000024
#0841a:00240000
#08418:00000024
#06310:41
#0171a:5454
#01914:5454
#02118:5454
#02312:5454
#00654:0024
#0065a:0024
#00652:64
#00658:54
#0105a:64
#01058:0024
#01052:0024
#01054:54
#0125a:14
#01452:14
#03152:0014
#0325a:54
#03355:54
#03457:64
#03552:64
#03958:14
#03954:0014
#04058:14
#04258:5454
#0425a:00540000
#04352:5454
#04354:00540000
#0445a:1464
#04554:0064
#0475a:0064
#04854:14
#05054:6464
#05052:00640000
#0515a:6464
#05158:00640000
#05252:1454
#05552:0054
#05358:0054
#0585a:64
#05858:0024
#05852:0024
#05854:54
#05654:14
#05954:14
#0595a:14
#06252:54
#06254:0024
#0625a:0024
#06258:64
#06352:14
#06358:14
#06058:14
#06755:0014
#06752:54
#06652:54
#06655:0054
#0715a:64
#07157:0064
#07057:0064
#0705a:54
#0725a:14
#07352:14
#07558:0054
#07554:64
#0805a:0064
#08052:54
#07858:0054
#07852:0054
#07755:14
#0775a:14
#07658:00640000
#07653:00640000
#0815a:54
#08152:54
#08358:00000014
#006320:14
#006340:0054
#007320:24
#006381:14
#0063a1:0054
#007381:24
#0103a1:14
#010381:0054
#0113a1:24
#010340:14
#010320:0054
#011340:24
#0323a0:14
#032370:0024
#033350:14
#033320:0024
#034370:14
#0343a0:0024
#035320:14
#035350:0024
#042380:1434
#0423a0:00340024
#043320:1434
#043340:00340024
#0443a0:0014
#044380:00000024
#045340:0014
#045320:00000024
#0473a0:0014
#047380:00000024
#050340:1434
#050320:00340024
#0513a0:1434
#051380:00340024
#052320:0014
#052340:00000024
#053380:0014
#0533a0:00000024
#055320:0014
#056340:24
#0583a0:14
#058380:0054
#0593a0:24
#058341:14
#058321:0054
#059341:24
#062321:14
#062341:0054
#063321:24
#062380:14
#0623a0:0054
#063380:24
#066320:14
#066350:0034
#067320:34
#067350:0024
#0703a0:14
#070370:0034
#0713a0:34
#071370:0034
#0723a0:24
#075340:14
#075320:00240000
#075380:0014
#0753a0:00000024
#076330:00140000
#077350:24
#076381:00140000
#0773a1:24
#078381:0014
#078371:0000000000540000
#079371:24
#078320:0014
#078330:0000000000540000
#079330:24
#080320:14
#080340:0054240000000000
#0803a0:0014
#080380:0000000000542400
#0813a0:14
#081380:0054000000002400
#081321:14
#081341:0054000000002400
#083381:00001424
#0179a0:1424
#019940:1424
#021980:1424
#023920:1424
