This file was generated by Ched 2.7.0.0.
#TITLE ""
#ARTIST ""
#DESIGNER ""
#DIFFICULTY 0
#PLAYLEVEL
#SONGID ""
#WAVE ""
#WAVEOFFSET 0
#JACKET ""
#REQUEST "ticks_per_beat 480"
#00002: 4
#BPM01: 193
#00008: 01
#TIL00: ""
#VOLUME: ""
#HISPEED 00
#MEASUREHS 00
#00118:16
#00212:16
#00318:16
#00412:16
#01914:0014
#0191a:24
#0201a:14
#02112:14
#02118:0014
#02212:14
#02714:14
#02814:14
#02918:14
#03018:14
#03112:14
#03212:14
#0331a:14
#0341a:14
#03512:14
#03510:41
#03618:14
#03614:0014
#0371a:14
#03814:14
#03818:0014
#03912:14
#0401a:14
#04212:14
#04318:0014
#04310:41
#04418:14
#04514:0014
#04614:14
#04912:0014
#05018:14
#05014:0014
#04718:0014
#04818:14
#05712:14
#0571a:0014
#05814:14
#05818:0014
#06312:0016
#06318:26
#06310:41
#06418:16
#06412:0016
#06518:16
#06512:0016
#06618:16
#06612:0016
#06718:1616
#06812:1616
#07118:2616
#07212:16
#07218:0016
#07312:1616
#07418:16
#07412:0016
#07518:1616
#07612:1616
#07918:16
#0791f:11
#0801a:14
#08212:16
#08218:0016
#0871a:0014
#0871f:00210000
#08814:14
#08818:0014
#08810:41
#08912:14
#08918:0014
#09014:14
#0901a:0014
#09714:14
#09818:14
#10012:16
#10018:16
#01112:26
#01318:26
#01514:24
#01618:24
#01712:24
#02318:26
#02310:41
#02412:26
#04114:24
#05912:24
#0591a:0024
#06014:24
#06018:0024
#06112:26
#07718:26
#07812:26
#08312:2626
#08418:2626
#08512:26
#09112:26
#09218:26
#09312:26
#09318:0026
#09414:2424
#09418:00240024
#09913:24
#09919:24
#00510:41
#04154:64
#04252:64
#04458:64
#04654:54
#04858:64
#07958:66
#0805a:24
#09754:64
#09858:54
#10052:66
#10058:56
#005380:14
#006380:24
#007340:14
#008340:24
#0093a0:14
#0103a0:24
#011320:16
#012320:26
#013380:1600003600000000
#014380:26
#015340:1424
#016380:1424
#017320:14343434
#018320:3426
#0253a0:14
#0263a0:24
#041340:14
#042320:34
#043340:24
#044380:14
#0453a0:24
#046340:14
#047320:24
#048380:14
#0493a0:24
#0513a0:14
#052380:34
#0533a0:34
#054380:34
#0553a0:34
#056380:24
#061320:16
#062320:0024
#069380:1626
#070320:1626
#077380:1626
#078320:1626
#079380:16
#0803a0:54
#081380:26
#085320:16
#086330:36
#087320:26
#091320:16000026
#092380:16000026
#095320:1424
#0963a0:1424
#097340:14
#097320:0024
#098380:14
#0983a0:0024
#099330:14
#100320:36
#100330:00240000
#099391:14
#100381:36
#100391:00240000
