This file was generated by Ched 2.7.0.0.
#TITLE ""
#ARTIST ""
#DESIGNER ""
#DIFFICULTY 0
#PLAYLEVEL
#SONGID ""
#WAVE ""
#WAVEOFFSET 0
#JACKET ""
#REQUEST "ticks_per_beat 480"
#00002: 4
#BPM01: 193
#00008: 01
#TIL00: ""
#VOLUME: ""
#HISPEED 00
#MEASUREHS 00
#00118:2600000000000014
#00112:0016
#00214:0014000000000000
#00218:0000001400000000
#00314:0000000000000014
#00318:0016
#00312:26
#00418:0014000000000000
#00414:0000001400000000
#00518:16
#00519:0014
#00510:41
#00712:16
#00713:0014
#00618:0016
#00812:0016
#0101a:14
#01012:14
#01918:00140000
#01914:0014
#01912:24
#0201a:14
#02014:00140000
#02018:0014
#02114:14
#02118:00140000
#02112:0014
#02218:14
#02214:00140000
#0221a:0014
#02212:00000014
#0251a:14
#02512:0014
#02712:14
#02718:0014
#02814:14
#0281a:0014
#02912:14
#02918:0014
#03014:14
#0301a:0014
#03112:1414
#03218:14
#03212:0014
#0331a:1414
#03512:14
#0351a:0014
#03510:41
#03614:1414
#03618:00140000
#0371a:14
#03712:0014
#03818:1414
#03814:00140000
#03912:1414
#0401a:14
#04014:00140000
#04018:0014
#04012:00000014
#04118:2600000000000016
#05112:00003414
#05114:14
#04314:1414
#04310:41
#04518:1414
#04712:1414
#0491a:1414
#0531a:00003414
#05318:14
#05514:00003414
#05512:14
#05718:1414
#05714:00140000
#05812:1414
#0581a:00140000
#05918:1515
#05913:00150000
#06012:1515
#06019:00150000
#06314:00140000
#06318:2614
#06312:00000014
#06310:41
#06418:14
#06414:00140000
#0641a:0014
#06518:00140000
#06514:0014
#0651a:00000014
#06512:14
#06614:14
#06618:00140000
#06612:0014
#0671a:14
#06712:00140000
#06718:0014
#06714:00000014
#0681a:14
#06812:00140000
#06818:0014
#06814:00000014
#07114:00140000
#07118:00001414
#0711a:24
#07218:00140000
#07214:00001414
#07212:14
#07318:14
#07312:00140000
#0731a:00001414
#07414:14
#0741a:00140000
#07412:00001414
#0751a:14140000
#07514:00001414
#07618:14140000
#07612:00001414
#08112:14
#0811a:0014
#08714:0014
#08718:00000014
#0871a:00240000
#0871f:00210000
#08812:14
#08818:00140000
#08814:0014
#0881a:00000014
#08810:41
#08912:14
#08918:00140000
#08914:0014
#0891a:00000014
#09014:14
#09018:00140000
#09012:0014
#0901a:00000014
#09412:14
#09414:00140000
#09418:0014
#0941a:00000014
#09514:14
#09618:14
#09712:14
#0971a:14
#10018:16
#10019:0014000000000000
#0611a:14
#06119:00540000
#06118:00005454
#06212:14
#06213:00540000
#06214:00005454
#0791f:11
#00919:25
#00912:25
#01318:24
#01314:0000002400000000
#0151a:24
#01512:0024
#01618:24
#01614:0024
#01718:2626
#01712:00260026
#01818:26
#03414:24
#0341a:0024
#07718:26
#07813:0024
#07819:0024
#08318:2626
#08412:2626
#08518:24242400
#08514:0024002400000000
#09112:26
#09218:26
#09312:26
#09318:0026
#09918:24242600
#09914:0024002400000000
#05212:34
#0541a:34
#05614:34
#02310:41
#00558:66
#00559:0024
#00752:56
#00753:0024
#01159:15
#01152:15
#00952:65
#00959:65
#0105a:24
#01052:24
#01858:00000016
#02358:0000001400000000
#02454:0000001400000000
#02658:0016
#03552:14
#0425a:0014
#04158:0000000000000066
#05152:00000024
#05154:64
#0535a:00000024
#05358:64
#05554:00000024
#05552:64
#0645a:0014
#06652:0014
#0695a:0014
#07052:0014
#07758:0000000000000016
#07959:14
#07953:14
#08254:0014
#08558:0000000000000014
#08754:14
#09152:00000016
#09258:00000016
#09554:64
#09658:54
#09752:64
#0975a:64
#10058:66160000
#10059:0024000000000000
#06052:0015
#06254:00000014
#005380:16
#005390:0054
#006380:26
#007320:16
#007330:0054
#008320:26
#009390:15
#0103a0:54
#011390:25
#009321:15
#010321:54
#011321:25
#018381:1636363636002600
#023381:1400002400000000
#024341:1400002400000000
#026381:16000036000036002600000000000000
#041381:1600000000000036
#0423a1:0024
#044341:1424
#046381:1424
#048321:1424
#0503a1:1424
#051341:14
#051321:00003454
#052321:34
#052341:0024
#053381:14
#0533a1:00003454
#0543a1:34
#054381:0024
#055321:14
#055341:00003454
#056341:34
#056321:0024
#0693a1:1424
#070321:1424
#077381:1636363636363626
#078391:0014
#079391:24
#078330:0014
#079330:24
#082340:1424
#085380:0000000014000024
#086340:0014
#087340:24
#091320:1636363636362600
#092380:1636363636362600
#095340:14
#095320:0024
#096380:14
#0963a0:0024
#097320:14
#098340:24
#0973a1:14
#098381:24
#099381:0000000016363636
#100381:36260000
#100391:0054000000000000
#0619a0:14
#061980:000000000000000000000000000000000000000000000000000000000000000000000000000000000000000000000000000000000000000000000000000000000000000000000000000000000000000000000000000000000000000000000000000000000000000000000000000000000000000000000000000000000000000000000000000000000000000000000000000000000000000000000000000000000000000000000000000000000000000000000000000000000000000000000000000000000000000000000000000000000000000000000000000000000000000000000000000000000000000000000000000000000000000000000000000000000000000000000000000000000000000000000000000000000000000000000000000000000000000000000000000000000000000000000000000000000000000000000000000000000000000000000000000000000000000000000000000000000000000000000000000000000000000000000000000000000000000000000000000000000000000000000000000000000000000000000000000000000000000000000000000000000000000000000000000000000000000000000000000000000000000000000000000000000000000000000000000000000000000000000000000000000000000000000000000000000000000000000000000000000000000000000000000000000000000000000000000000000000000000000000000000000000000000000000000000000000000000000000000000000000000000000000000000000000000000000000000000000000000000000000000000000000000000000000000000000000000000000000000000000000000000000000000000000000000000000000000000000000000000000000000000000000000000000000000000000000000000000000000000000000000000000000000000000000000000000000000000000000000000000000000000000000000000000000000000000000000000000000000000000000000000000000000000000000000000000000000000000000000000000000000000000000000000000000000000000000000000000000000000000000000000000000000000000000000000000000000000000000000000000000000000000000000000000000000000000000000000000000000000000000000000000000000000000000000000000000000000000000000000000000000000000000000000000000000000000000000000000000000000000000000000000000000000000000000000000000000000000000000000000000540000000000000000000000000000000000000000000000000000000000000000000000000000000000000000000000000000000000000000000000000000000000000000000000000000000000000000000000000000000000000000000000000000000000000000000000000000000000000000000000000000000000000000000000000000000000000000000000000000000000000000000000000000000000000000000000000000000000000000000000000000000000000000000000000000000000000000000000000000000000000000000000000000000000000000000000000000000000000000000000000000000000000000000000000000000000000000000000000000000000000000000000000000000000000000000000000000000000000000000000000000000000000000000000000000000000000000000000000000000000000000000000000000000000000000000000000000000000000000000000000000000000000000000000000000000000000000000000000000000000000000000000000000000000000000000000000000000000000000000000000000000000000000000000000000000000000000000000000000000000000000000000000000000000000000000000000000000000000000545454240000000000000000000000000000000000000000000000000000000000000000000000000000000000000000000000000000000000000000000000000000000000000000000000000000000000000000000000000000000000000000000000000000000000000000000000000000000000000000000000000000000000000000000000000000000000000000000000000000000000000000000000000000000000000000000000000000000000000000000000000000000000000000000000000000000000000000000000000000000000000000000000000000000000000000000000000000000000000000000000000000000000000000000000000000000000000000000000000000000000000000000000000000000000000000000000000000000000000000000000000000000000000000000000000000000000000000000000000000000000000000000000000000000000000000000000000000000000000000000000000000000000000000000000000000000000000000000000000000000000000000000000000000000000000000000000000000000000000000000000000000000000000000000000000000000000000000000000000000000000000000000000000000000000000000000000000000000000000000000000
#062920:14
#062940:000000000000000000000000000000000000000000000000000000000000000000000000000000000000000000000000000000000000000000000000000000000000000000000000000000000000000000000000000000000000000000000000000000000000000000000000000000000000000000000000000000000000000000000000000000000000000000000000000000000000000000000000000000000000000000000000000000000000000000000000000000000000000000000000000000000000000000000000000000000000000000000000000000000000000000000000000000000000000000000000000000000000000000000000000000000000000000000000000000000000000000000000000000000000000000000000000000000000000000000000000000000000000000000000000000000000000000000000000000000000000000000000000000000000000000000000000000000000000000000000000000000000000000000000000000000000000000000000000000000000000000000000000000000000000000000000000000000000000000000000000000000000000000000000000000000000000000000000000000000000000000000000000000000000000000000000000000000000000000000000000000000000000000000000000000000000000000000000000000000000000000000000000000000000000000000000000000000000000000000000000000000000000000000000000000000000000000000000000000000000000000000000000000000000000000000000000000000000000000000000000000000000000000000000000000000000000000000000000000000000000000000000000000000000000000000000000000000000000000000000000000000000000000000000000000000000000000000000000000000000000000000000000000000000000000000000000000000000000000000000000000000000000000000000000000000000000000000000000000000000000000000000000000000000000000000000000000000000000000000000000000000000000000000000000000000000000000000000000000000000000000000000000000000000000000000000000000000000000000000000000000000000000000000000000000000000000000000000000000000000000000000000000000000000000000000000000000000000000000000000000000000000000000000000000000000000000000000000000000000000000000000000000000000000000000000000000000000000000000000000540000000000000000000000000000000000000000000000000000000000000000000000000000000000000000000000000000000000000000000000000000000000000000000000000000000000000000000000000000000000000000000000000000000000000000000000000000000000000000000000000000000000000000000000000000000000000000000000000000000000000000000000000000000000000000000000000000000000000000000000000000000000000000000000000000000000000000000000000000000000000000000000000000000000000000000000000000000000000000000000000000000000000000000000000000000000000000000000000000000000000000000000000000000000000000000000000000000000000000000000000000000000000000000000000000000000000000000000000000000000000000000000000000000000000000000000000000000000000000000000000000000000000000000000000000000000000000000000000000000000000000000000000000000000000000000000000000000000000000000000000000000000000000000000000000000000000000000000000000000000000000000000000000000000000000000000000000000000000000545454240000000000000000000000000000000000000000000000000000000000000000000000000000000000000000000000000000000000000000000000000000000000000000000000000000000000000000000000000000000000000000000000000000000000000000000000000000000000000000000000000000000000000000000000000000000000000000000000000000000000000000000000000000000000000000000000000000000000000000000000000000000000000000000000000000000000000000000000000000000000000000000000000000000000000000000000000000000000000000000000000000000000000000000000000000000000000000000000000000000000000000000000000000000000000000000000000000000000000000000000000000000000000000000000000000000000000000000000000000000000000000000000000000000000000000000000000000000000000000000000000000000000000000000000000000000000000000000000000000000000000000000000000000000000000000000000000000000000000000000000000000000000000000000000000000000000000000000000000000000000000000000000000000000000000000000000000000000000000000000000
