This file was generated by Ched 2.7.0.0.
#TITLE ""
#ARTIST ""
#DESIGNER ""
#DIFFICULTY 0
#PLAYLEVEL
#SONGID ""
#WAVE ""
#WAVEOFFSET 0
#JACKET ""
#REQUEST "ticks_per_beat 480"
#00002: 4
#BPM01: 200
#00008: 01
#TIL00: "90'1437:10000, 90'1438:1"
#VOLUME: ""
#HISPEED 00
#MEASUREHS 00
#00512:14
#00618:14
#01412:0016
#01418:26
#01410:41
#01618:0016
#01612:26
#01812:0016
#01818:26
#01912:0016
#01918:26
#02212:14
#02318:14
#02414:14
#02410:41
#0251a:14
#02612:14
#02718:14
#02814:14
#0291a:14
#03413:14
#03513:14
#03510:41
#03619:14
#03719:14
#03812:14
#0381f:11
#03918:14
#04012:14
#04118:14
#04214:14
#0431a:14
#04714:14
#04818:14
#04914:14
#05012:0016
#05018:26
#0501f:21
#05010:0000000000000041
#05118:16
#05112:0016
#05412:0016
#05418:16
#05518:16
#05512:0016
#05812:0016
#05818:26
#06018:0016
#06012:16
#06212:0016
#06218:16
#06618:16
#06612:0016
#06812:0016
#07118:2616
#07312:2616
#07518:2616
#07912:2616
#08118:2616
#08312:2616
#08418:1616
#08718:16
#00714:24
#01218:26
#01212:0026
#04414:24
#0451a:24
#06412:26
#06418:0026
#06410:41
#06512:26
#07712:26
#07718:0026
#07812:26
#07818:0026
#07410:41
#001390:15
#002370:35
#003390:35
#004370:25
#007340:14
#009340:24
#015380:1626
#017320:1626
#020380:16
#021380:26
#030330:14
#031330:24
#032390:14
#033390:24
#0453a0:14
#0463a0:24
#052380:1626
#053320:1626
#056380:1626
#057320:1626
#059380:1626
#061320:1626
#063380:1626
#065320:1626
#067380:16
#068380:26
#069320:16
#070320:0026
#072380:1626
#074320:1626
#076380:1626
#080320:1626
#082380:1626
#085320:16
#086320:26
#088320:16000026
#0909d0:000000000000000000000000000000000000000000000000000000000000000000000000000000000000000000000000000000000000000000000000000000000000000000000000000000000000000000000000000000000000000000000000000000000000000000000000000000000000000000000000000000000000000000000000000000000000000000000000000000000000000000000000000000000000000000000000000000000000000000000000000000000000000000000000000000000000000000000000000000000000000000000000000000000000000000000000000000000000000000000000000000000000000000000000000000000000000000000000000000000000000000000000000000000000000000000000000000000000000000000000000000000000000000000000000000000000000000000000000000000000000000000000000000000000000000000000000000000000000000000000000000000000000000000000000000000000000000000000000000000000000000000000000000000000000000000000000000000000000000000000000000000000000000000000000000000000000000000000000000000000000000000000000000000000000000000000000000000000000000000000000000000000000000000000000000000000000000000000000000000000000000000000000000000000000000000000000000000000000000000000000000000000000000000000000000000000000000000000000000000000000000000000000000000000000000000000000000000000000000000000000000000000000000000000000000000000000000000000000000000000000000000000000000000000000000000000000000000000000000000000000000000000000000000000000000000000000000000000000000000000000000000000000000000000000000000000000000000000000000000000000000000000000000000000000000000000000000000000000000000000000000000000000000000000000000000000000000000000000000000000000000000000000000000000000000000000000000000000000000000000000000000000000000000000000000000000000000000000000000000000000000000000000000000000000000000000000000000000000000000000000000000000000000000000000000000000000000000000000000000000000000000000000000000000000000000000000000000000000000000000000000000000000000000000000000000000000000000000000000000000000000000000000000000000000000000000000000000000000000000000000000000000000000000000000000000000000000000000000000000000000000000000000000000000000000000000000000000000000000000000000000000000000000000000000000000000000000000000000000000000000000000000000000000000000000000000000000000000000000000000000000000000000000000000000000000000000000000000000000000000000000000000000000000000000000000000000000000000000000000000000000000000000000000000000000000000000000000000000000000000000000000000000000000000000000000000000000000000000000000000000000000000000000000000000000000000000000000000000000000000000000000000000000000000000000000000000000000000000000000000000000000000000000000000000000000000000000000000000000000000000000000000000000000000000000000000000000000000000000000000000000000000000000000000000000000000000000000000000000000000000000000000000000000000000000000000000000000000000000000000000000000000000000000000000000000000000000000000000000001121000000000000000000000000000000000000000000000000000000000000000000000000000000000000000000000000000000000000000000000000000000000000000000000000000000000000000000000000000000000000000000000000000000000000000000000000000000000000000000000000000000000000000000000000000000000000000000000000000000000000000000000000000000000000000000000000000000000000000000000000000000000000000000000000000000000000000000000000000000000000000000000000000000000000000000000000000000000000000000000000000000000000000000000000000000000000000000000000000000000000000000000000000000000000000000000000000000000000000000000000000000000000000000000000000000000000000000000000000000000000000000000000000000000000000000000000000000000000000000000000000000000000000000000000000000000000000000000000000000000000000000000000000000000000000000000000000000000000000000000000000000000000000000000000000000000000000000000000000000000000000000000000000000000000000000000000000000000000000000000000
