This file was generated by Ched 2.7.0.0.
#TITLE ""
#ARTIST ""
#DESIGNER ""
#DIFFICULTY 0
#PLAYLEVEL
#SONGID ""
#WAVE ""
#WAVEOFFSET 0
#JACKET ""
#REQUEST "ticks_per_beat 480"
#00002: 4
#BPM01: 179
#00008: 01
#TIL00: "90'1917:10000, 90'1918:1"
#VOLUME: ""
#HISPEED 00
#MEASUREHS 00
#0001a:14
#0011a:14
#00212:14
#00312:14
#00418:14
#00518:14
#00614:14
#01218:14
#01314:14
#01418:14
#0181a:14
#01810:41
#03418:14
#03514:14
#05812:0016
#05818:26
#0581f:21
#07418:14
#07410:41
#00714:14
#0081a:14
#00912:14
#0101a:14
#01112:14
#0191a:14
#0201a:14
#02114:14
#02118:0014
#02212:14
#02312:14
#02412:14
#02518:14
#02514:0014
#0261a:14
#02719:14
#02818:14
#02810:41
#02914:14
#0291a:0014
#03012:14
#03113:14
#03618:14
#03714:14
#0381a:14
#03810:41
#03912:14
#0401a:14
#04112:14
#04218:14
#04314:14
#0441a:14
#04512:14
#0541a:14
#05512:14
#0551a:0014
#06012:16
#06018:0016
#06218:1616
#06312:1616
#06512:16
#06518:0016
#06618:0016
#06612:26
#06818:16
#06812:0016
#07012:1616
#07118:1616
#07318:16
#07314:0014
#07519:14
#0761a:14
#07712:14
#07718:0014
#07814:14
#07913:14
#08012:14
#0811a:14
#08114:0014
#08218:14
#0831a:14
#08418:14
#08614:14
#08712:14
#08512:14
#0851a:0014
#0491f:11
#01514:24
#01518:0024
#04618:24
#04614:0024
#04718:24
#04714:0024
#05612:24
#01614:24
#05910:41
#04810:41
#016340:14
#017340:24
#032340:14
#033340:0024
#0483a0:1424
#049320:1424
#050380:14
#051380:24
#052340:14
#053340:24
#056320:1435
#057320:26
#059380:1626
#061320:1626
#064380:1626
#067320:1626
#069380:1626
#072320:1626
#088340:1434
#089340:34343424
#0909d0:000000000000000000000000000000000000000000000000000000000000000000000000000000000000000000000000000000000000000000000000000000000000000000000000000000000000000000000000000000000000000000000000000000000000000000000000000000000000000000000000000000000000000000000000000000000000000000000000000000000000000000000000000000000000000000000000000000000000000000000000000000000000000000000000000000000000000000000000000000000000000000000000000000000000000000000000000000000000000000000000000000000000000000000000000000000000000000000000000000000000000000000000000000000000000000000000000000000000000000000000000000000000000000000000000000000000000000000000000000000000000000000000000000000000000000000000000000000000000000000000000000000000000000000000000000000000000000000000000000000000000000000000000000000000000000000000000000000000000000000000000000000000000000000000000000000000000000000000000000000000000000000000000000000000000000000000000000000000000000000000000000000000000000000000000000000000000000000000000000000000000000000000000000000000000000000000000000000000000000000000000000000000000000000000000000000000000000000000000000000000000000000000000000000000000000000000000000000000000000000000000000000000000000000000000000000000000000000000000000000000000000000000000000000000000000000000000000000000000000000000000000000000000000000000000000000000000000000000000000000000000000000000000000000000000000000000000000000000000000000000000000000000000000000000000000000000000000000000000000000000000000000000000000000000000000000000000000000000000000000000000000000000000000000000000000000000000000000000000000000000000000000000000000000000000000000000000000000000000000000000000000000000000000000000000000000000000000000000000000000000000000000000000000000000000000000000000000000000000000000000000000000000000000000000000000000000000000000000000000000000000000000000000000000000000000000000000000000000000000000000000000000000000000000000000000000000000000000000000000000000000000000000000000000000000000000000000000000000000000000000000000000000000000000000000000000000000000000000000000000000000000000000000000000000000000000000000000000000000000000000000000000000000000000000000000000000000000000000000000000000000000000000000000000000000000000000000000000000000000000000000000000000000000000000000000000000000000000000000000000000000000000000000000000000000000000000000000000000000000000000000000000000000000000000000000000000000000000000000000000000000000000000000000000000000000000000000000000000000000000000000000000000000000000000000000000000000000000000000000000000000000000000000000000000000000000000000000000000000000000000000000000000000000000000000000000000000000000000000000000000000000000000000000000000000000000000000000000000000000000000000000000000000000000000000000000000000000000000000000000000000000000000000000000000000000000000000000000000000000000000000000000000000000000000000000000000000000000000000000000000000000000000000000000000000000000000000000000000000000000000000000000000000000000000000000000000000000000000000000000000000000000000000000000000000000000000000000000000000000000000000000000000000000000000000000000000000000000000000000000000000000000000000000000000000000000000000000000000000000000000000000000000000000000000000000000000000000000000000000000000000000000000000000000000000000000000000000000000000000000000000000000000000000000000000000000000000000000000000000000000000000000000000000000000000000000000000000000000000000000000000000000000000000000000000000000000000000000000000000000000000000000000000000000000000000000000000000000000000000000000000000000000000000000000000000000000000000000000000000000000000000000000000000000000000000000000000000000000000000000000000000000000000000000000000000000000000000000000000000000000000000000000000000000000000000000000000000000000000000001121
