This file was generated by Ched 2.7.0.0.
#TITLE ""
#ARTIST ""
#DESIGNER ""
#DIFFICULTY 0
#PLAYLEVEL
#SONGID ""
#WAVE ""
#WAVEOFFSET 0
#JACKET ""
#REQUEST "ticks_per_beat 480"
#00002: 4
#BPM01: 179
#00008: 01
#TIL00: "90'1917:10000, 90'1918:1"
#VOLUME: ""
#HISPEED 00
#MEASUREHS 00
#0491f:11
#04915:0000003200002200
#0491a:0032000022000000
#04917:00000000220000000000003200000000
#0491c:22
#0491b:00320000000000000000000000000000
#04919:00000032000000000032000000000000
#04916:00000000003200000000000000000000
#04914:00000000000000320000000000320000
#04912:00000000000000000000000000000032
#04913:0000000000000032
#04918:0000000000320000
#06718:00000013
#06715:0000000000130013
#06712:13
#0671b:13
#0841a:14
#08412:1313
#08416:0013001300001300
#0841b:0000001300130000
#08417:00000000130000000000000000000013
#08414:0000000000000013
#08419:00000000000000000000000000130000
#07012:0013
#0701b:0000001300130000
#07018:2300000000000013
#07015:23000013
#07118:0000130000130013
#07115:0013001300001300
#07112:2313
#0711b:1323
#0721a:14
#07214:0000140000240000
#07212:2424
#07218:0000240000000024
#07216:00000024
#0281b:1300000000131300
#02817:0000131300000000
#02816:13000013
#02812:0000001300000000
#02810:41
#02818:00000000000000000000000000000053
#02819:0000000000000053
#0281a:00000000000000000000000000530000
#06618:0000001300000013
#06615:00001313
#06612:1300000000130000
#0661b:23130000
#05815:0000001300000013
#05818:00001313
#0581b:1300000000130000
#05812:23130000
#0581f:21
#07417:0000131300000000
#0741b:0013
#07412:1300001300130000
#07415:0000000000001313
#07418:00000000000000000000000000130013
#07416:0013000000000000
#0741a:24
#07410:41
#0821b:1313
#08217:0013001300001300
#08212:2400001300130000
#08219:0000000000000013
#08214:00000000000000000000000000130000
#08216:00000000130000000000000000000013
#08719:0000000000000013
#0871b:00131313
#08712:00001300000013000000130000130000
#08714:00000000000000000000000000000013
#08717:0000001300000000
#08716:13
#08612:24131313
#08616:0000001300000000
#0861b:00001300000013000000130000130000
#08617:13
#08614:0000000000000013
#08619:00000000000000000000000000000013
#08516:00140014
#08514:00001400000000000014000000001400
#0851a:0014
#08518:0000001400140000
#08512:14000000000000000000001400000000
#07715:00000000000000000000001400000000
#07719:0000000000140000
#07714:00000000000000000014000000000000
#07718:0014
#07716:0014000000000014
#0771a:00140014
#07712:1400001400000000
#08317:0013001300000000
#0831b:1300000000130000
#08316:00131300
#08312:0000001300000000
#08318:0000000000000013
#08315:00000013
#08018:0000000000001313
#08015:00000000000000000000000000130013
#08012:1313
#0801b:1300001300130000
#08016:0000131300000000
#08017:0013000000000000
#07915:0000000000000013
#07918:00000013
#0791b:1300001300130000
#07912:0013
#07916:0000131300000000
#07917:0013000000000000
#07818:0000000000001313
#07815:00000000000000000000000000130013
#0781b:1300001300130000
#07812:2413
#07816:0000131300000000
#07817:0013000000000000
#07615:0000000000001313
#07618:00000000000000000000000000130013
#0761b:1313
#07612:1300001300130000
#07617:0000131300000000
#07616:0013000000000000
#07518:0000000000000013
#07515:00000013
#07512:1300001300130000
#0751b:0013
#07517:0000131300000000
#07516:0013000000000000
#06016:0000001400140014
#06013:13131313000000000000000000000000
#06014:0013000000130000000000000000000000000000000000000000000000000000
#06012:0000001300000013000000000000000014000000000000001400000000000000
#0601a:13131313000000001400000014000000
#06019:0013000000130000000000000000000000000000000000000000000000000000
#0601b:0000001300000013000000000000000000000000000000000000000000000000
#0301b:00000013
#03016:1300000000131300
#03012:0000001300000000
#03017:0000131300000000
#0301a:24
#03013:00000000000000000000000000000053
#03014:0000000000000053
#03015:00000000000000000000000000530000
#03112:53000013
#03117:1300000000131300
#0311b:0000001300000000
#03116:0000131300000000
#0311a:00000000000000000000000000000053
#03119:0000000000000053
#03118:00000000000000000000000000530000
#02718:0000000000000013
#02715:00000013
#0271b:1300000000130000
#02717:0000001300000000
#02712:0000131300000000
#02716:53
#02914:00140000
#02912:1400000014141400
#02916:0000000000000014
#0291a:00001400000000000014001400000000
#02918:0000001400000000
#02917:53
#02616:0000131300000000
#02612:2400000000131300
#02617:13000013
#0261b:0000001300000000
#02615:00000000000000000000000000000053
#02614:0000000000000053
#02613:00000000000000000000000000530000
#02012:13000013
#02017:0000000000131300
#0201b:1300131300000000
#02016:0000001300000000
#0201a:00000000000000000000000000000053
#02019:0000000000000053
#02018:00000000000000000000000000530000
#0191b:5300131300130000
#01912:13
#01916:0000001300000000
#01918:00000013
#01915:0000000000000013
#01812:13000013
#01817:0000000000131300
#0181b:2300131300000000
#01816:0000001300000000
#01810:41
#0181a:00000000000000000000000000000053
#01819:0000000000000053
#01818:00000000000000000000000000530000
#02114:1400000014141400
#02118:00001400000000000014001400001400
#02112:00140000
#0211a:0000001400000000
#0211b:53
#0241b:13000013
#02416:0000000000131300
#02412:1300131300000000
#02417:0000001300000000
#02413:00000000000000000000000000000053
#02414:0000000000000053
#02415:00000000000000000000000000530000
#02312:5300131300130000
#0231b:13
#02317:0000001300000000
#02315:00000013
#02318:0000000000000013
#0221b:13000013
#02216:0000000000131300
#02212:2300131300000000
#02217:0000001300000000
#02213:00000000000000000000000000000053
#02214:0000000000000053
#02215:00000000000000000000000000530000
#02518:1424242400240000
#02518:24
#0251a:0024
#02514:00240024002400240000000000002400
#02516:00000024
#02512:53
#04612:0000001600130000
#04618:0000160000001313
#0461b:0013
#04615:00000000000000000000000000130000
#04312:16
#04316:00140014
#04318:2626
#06819:0000001300000013
#0681a:00001313
#0681b:1300000000130000
#06814:0000001300000013
#06813:00001313
#06812:1300000000130000
#06815:00130000
#06415:0013001300160016
#06412:23002316
#06418:00131600
#0641b:23000023
#04112:0000001616000000
#04118:0000000000000000000000000000000016000000000000000000001400000014
#04116:00000000000000000000000014141414
#04114:0000000000000000000000000000000000000000000000000014000000140000
#0411b:13
#04115:23
#00712:2c000000000000000000001600000016
#00718:00000000000000000000000000160000
#00714:0000000000220022
#0071a:00000022
#01216:0000000024000013
#01212:2c000013
#01217:0000000000130000
#0121b:0013
#01215:00130000
#01218:0000001300000000
#06515:0016001600002600
#06512:26260000
#06518:2626
#06312:0013
#06315:0000001300001300
#06318:00000000130000000000001300001300
#0631b:0013000000000000
#06218:0000001314001600
#06215:00000000000000130000000000000000
#06212:2500000000000016
#06214:0000000000140000
#06219:25
#04718:0000130014251600
#04713:0000000000150000
#0471a:14
#04712:14000026
#04715:0013001300000000
#04714:0024
#0421b:0000001300001300
#04212:1313
#04215:0013000000000000
#04218:00130000
#04216:24
#04816:00000012
#0481a:0012
#04818:0013000000120000
#04814:0000000000000012
#04812:0000001300000000
#0481b:13
#04815:00130000
#04810:41
#07318:00002616
#07312:14251626
#07319:00150000
#0731a:24
#06912:00000013
#0691b:00000013
#06918:23
#06915:23
#06116:000000000000000000000000000000000000000000000000000000000000000000000000000000000000000000000000000000000000000000000000000000000000000000000000000000000000000000000000000000000000000000000000000000000000000000000000000000000000000000000000000000000000000000000000000000000000000000000000000000000000000000000000000000000000000000000000000000000000000000000000000000000000000000000000000000000000000000000000000000000000000000000000000000000000000000000000000000000000000000000000000000000000000000000000000000000000000000000000000000000000000000000000000000000000000000000000000000000000000000000000000000000000000000000000000000000000000000000000000000000000000000000000000000000000000000000000000000000000000000000000000000000000000000000000000000000000000000000000000000000000000000000000000000000000000000000000000000000000000000000000000000000000000000000000000000000000000000000000000000000000000000000000000000000000000000000000000000000000000000000000000000000000000000000000000000000000000000000000000000000000000000000000000000000000000000000000000000000000000000000000000000000000000000000000000000000000000000000000000000000000000000000000000000000000000000000000000000000000000000000000000000000000000000000000000000000000000000000000000000000000000000000000000000000000000000000000000000000000000000000000000000000000000000000000000000000000000000000000000000000000000000000000000000000000000000000000000000000000000000000000000000000000000000000000000000000000000000000000000000000000000000000000000000000000000000000000000000000000000000000000000000000000000000000000000000000000000000000000000000000000000000000000000000000000000000000000000000000000000000000000000000000000000000000000000000000000000000000000000000000000000000000000000000000000000000000000000000000000000000000000000000000000000000000000000000000000000000000000000000000000000000000000000000000000000000000000000000000000000000000000000000000000000000000000000000000000000000000000000000000000000000000000000000000000000000000000000000000000000000000000000000000000000000000000000000000000000000000000000000000000000000000000000000000000000000000000000000000000000000000000000000000000000000000000000000000000000000000000000000000000000000000000000000000000000000000000000000000000000000000000000000000000000000000000000000000000000000000000000000000000000000000000000000000000000000000000000000000000000000000000000000000000000000000000000000000000000000000000000000000000000000000000000000000000000000000000000000000000000000000000000000000000000000000000000000000000000000000000000000000000000000000000000000000000000000000000000000000000000000000000000000000000000000000000000000000000000000000000000000000000000000000000000000000000000000000000000000000000000000000000000000000000000000000000000000000000000000000000000000000000000000000000000000000000000000000000000000000000000000000000000000000000000000000000000000000000000000000000000000000000000000000000000000000000000000000000000000000000000000000000000000000000000000000000000000000000000000000000000000000000000000000000000000000000000000000000000000000000000000000000000000000000000000000000000000000000000000000000000000000000000000000000000000000000000000000000000000000000000000000000000000000000000000000000000000000000000000000000000000000000000000000000000000000000000000000000000000000000000000000013000000000000000000000000000000000000000000000000000000000000000000000000000000000000000000000000000000000000000000000000000000000000000000000000000000000000000000000000000000000000000000000000000000000000000000000000000000000000000000000000000000000000000000000000000000000000000000000000000000000000000000000000000000000000000000000000000000000000000000000000000000000000000000000000000000000000000000000000000000000000000000000000000000000000000000000000000000000000000000000000
#06112:0014000000140000001400000014000000000000000000001300000000000000
#06117:0000000000000013
#0611b:00000013
#06118:0000001400000014000000140000001400000000000000000000000000000000
#06119:24141414141414140000000000000000
#0611a:0014000000140000001400000014000000000000000000000000000000000000
#06114:0000001400000014000000140000001400000000000000000000000000000000
#06113:24141414141414140000000000000000
#0591b:13
#05912:13
#05918:0000000000130013
#05915:00000013
#05910:41
#05412:2300001300000014
#05416:00000014
#0541a:0000000000140000
#0541b:13
#05418:0013000000000000
#05415:00130000
#05315:00000013
#05318:00130000
#05312:0013
#0531b:13
#0521b:00130000
#05212:00000013
#05215:0013
#05218:13
#05112:0013
#0511b:13
#05015:0013
#05018:13
#0451a:0014
#04512:14
#04515:0000000000000013
#04518:00000013
#04413:00000013
#0441a:00000013
#04414:0013
#04419:0013
#03916:0014
#03815:00130000000000000000000000000000
#03814:00140000
#03818:1313001400000000
#0381a:0024
#03810:41
#03612:0000130000000013
#03615:00000013
#03618:0000000000130000
#0361b:1313
#03616:13
#0341b:13
#03418:00131300
#03412:23000013
#03415:00000013000013000000000000000000
#03515:00131300
#0351b:13000013
#03512:13
#03518:0013001300000000
#0141a:2414
#01412:1424
#01416:00240024
#01418:0024000000000024
#01414:0000002400240000
#01712:1c00002c
#01012:2600001600000026
#01018:00002616
#00918:00000000000000000000001600000016
#00912:00000000000000001300000000160000
#0091a:0000000000220022
#00914:00000022
#00818:2600001600000026
#00812:00002616
#00618:0013000000000013
#00615:00130013
#0061b:0000001300130000
#00612:1313
#00518:0013000000131300
#00515:0000130000000013
#0051b:0000001300000000
#00512:13
#00418:0013000000130013
#00415:00130013
#0041b:0000001300000000
#00412:13
#00317:0000120000121200
#00315:0012000000000000
#00313:0000001200000000
#00319:12
#00217:00000012
#00219:0000000000120000
#00216:00120000
#00218:0012000000000000
#0021b:0000000000000012
#00215:0012
#0021a:0000001200000000
#00214:12
#00118:0012000000000012
#00116:00120012
#0011a:0000001200120000
#00114:12
#00018:0012000000000012
#00016:00120012
#0001a:0000001200120000
#00014:12
#0131a:00000014000000000000140000000000
#01312:0000001400000014
#01316:24242424
#01518:00000023000023000000230023000000
#01515:00002300230000000000002300002300
#0151a:2424
#01512:2424
#03217:0000000000240000
#03215:00000000000000000024000000000000
#03218:00000000000000240000000000000000
#03214:0000002400000000
#03219:00240000
#03213:00000024000000000000000000000000
#0321a:00240000000000000000000024000000
#03212:2400000000000024
#0321b:53
#03318:23000000250000260000000000000000
#03312:0000002600000000
#03314:0024000000000000
#01113:22
#0111b:22
#03718:00000023
#03715:00000023
#0371a:00343400
#03712:00343400
#08112:00260026002600260000000000002600
#08114:00000026
#08116:0000000000260000
#08118:2626262626000000
#08912:00000000240000260000000000000000
#08918:0000002600000000
#08916:0024000000000000
#0891a:24
#08812:00260000250000240000230000000000
#0881b:00000000000000000023000000000000
#0881a:0000002400000000
#08819:00000025000000000000000000000000
#08818:26000024
#08814:0000000000000024
#0571a:00000024
#05712:00260026002600260000000024000000
#05718:2626262626000000
#05618:0024
#05614:0024
#05612:2c
#01612:24000000240000002400000000000026
#01616:0024002400000000
#0161a:24242400
#01618:0000000000242526
#01613:00000000000000000000000000250000
#01614:00000000000000000000002400000000
#05513:0000002a
#05515:00260000
#05514:0028
#05516:24
#0335c:00000012
#03358:00000000000000560000000000000000
#01156:0012
#01158:0012
#04152:00006613
#04155:13
#04158:0000000000000000000000000000000000000000000000000000002400000024
#04156:00000000000000000000000064546454
#04154:0000000000000000000000000000000000000000000000000024000000240000
#0415b:63
#08957:00000012
#08952:00000000000000560000000000000000
#06552:36563600
#06558:66464600
#06555:0026002600001600
#06159:54645464546454641400000000000000
#06153:64546454645464541400000000000000
#06156:000000000000000000000000000000000000000000000000000000000000000000000000000000000000000000000000000000000000000000000000000000000000000000000000000000000000000000000000000000000000000000000000000000000000000000000000000000000000000000000000000000000000000000000000000000000000000000000000000000000000000000000000000000000000000000000000000000000000000000000000000000000000000000000000000000000000000000000000000000000000000000000000000000000000000000000000000000000000000000000000000000000000000000000000000000000000000000000000000000000000000000000000000000000000000000000000000000000000000000000000000000000000000000000000000000000000000000000000000000000000000000000000000000000000000000000000000000000000000000000000000000000000000000000000000000000000000000000000000000000000000000000000000000000000000000000000000000000000000000000000000000000000000000000000000000000000000000000000000000000000000000000000000000000000000000000000000000000000000000000000000000000000000000000000000000000000000000000000000000000000000000000000000000000000000000000000000000000000000000000000000000000000000000000000000000000000000000000000000000000000000000000000000000000000000000000000000000000000000000000000000000000000000000000000000000000000000000000000000000000000000000000000000000000000000000000000000000000000000000000000000000000000000000000000000000000000000000000000000000000000000000000000000000000000000000000000000000000000000000000000000000000000000000000000000000000000000000000000000000000000000000000000000000000000000000000000000000000000000000000000000000000000000000000000000000000000000000000000000000000000000000000000000000000000000000000000000000000000000000000000000000000000000000000000000000000000000000000000000000000000000000000000000000000000000000000000000000000000000000000000000000000000000000000000000000000000000000000000000000000000000000000000000000000000000000000000000000000000000000000000000000000000000000000000000000000000000000000000000000000000000000000000000000000000000000000000000000000000000000000000000000000000000000000000000000000000000000000000000000000000000000000000000000000000000000000000000000000000000000000000000000000000000000000000000000000000000000000000000000000000000000000000000000000000000000000000000000000000000000000000000000000000000000000000000000000000000000000000000000000000000000000000000000000000000000000000000000000000000000000000000000000000000000000000000000000000000000000000000000000000000000000000000000000000000000000000000000000000000000000000000000000000000000000000000000000000000000000000000000000000000000000000000000000000000000000000000000000000000000000000000000000000000000000000000000000000000000000000000000000000000000000000000000000000000000000000000000000000000000000000000000000000000000000000000000000000000000000000000000000000000000000000000000000000000000000000000000000000000000000000000000000000000000000000000000000000000000000000000000000000000000000000000000000000000000000000000000000000000000000000000000000000000000000000000000000000000000000000000000000000000000000000000000000000000000000000000000000000000000000000000000000000000000000000000000000000000000000000000000000000000000000000000000000000000000000000000000000000000000000000000000000000000000000000000000000000000000000000000000000000000000000000000000000000000000000000000000000000000000000023000000000000000000000000000000000000000000000000000000000000000000000000000000000000000000000000000000000000000000000000000000000000000000000000000000000000000000000000000000000000000000000000000000000000000000000000000000000000000000000000000000000000000000000000000000000000000000000000000000000000000000000000000000000000000000000000000000000000000000000000000000000000000000000000000000000000000000000000000000000000000000000000000000000000000000000000000000000000000000000000
#06152:0024000000240000002400000024000000000000000000005300000000000000
#06157:0000000000000023
#0615b:00000063
#06158:0000002400000024000000240000002400000000000000000000000000000000
#0615a:0024000000240000002400000024000000000000000000000000000000000000
#06154:0000002400000024000000240000002400000000000000000000000000000000
#0565a:00000014
#05652:6c000014
#05656:00140000
#05658:0054
#05654:0064
#04552:3434
#0455a:00444400
#0395a:00000014
#03956:0054
#07055:13
#07058:13
#06958:53
#06955:63
#06952:00000053
#0695b:00000063
#03758:00000013
#03755:00000013
#0385a:0064
#04358:1616
#04352:66
#00754:0000000000220022
#0075a:00000022
#00752:1c000000000000000000006600000066
#00758:00000000000000000000000000560000
#07352:00000016
#07358:00000016
#06252:3500000000000016
#06259:45
#0575a:00000014
#05752:00000014
#04256:14
#04252:0053
#01752:1c00001c
#0095a:0000000000220022
#00954:00000022
#00958:00000000000000000000005600000056
#00952:00000000000000000000000000660000
#05553:0000001a
#05555:00160000
#05554:0018
#05556:14
#05452:1300005300000000
#01252:1c000053
#01256:0000000000000023
#01257:0000000000230000
#0125b:0063
#00858:16
#07457:0000005300000000
#0745b:0023
#07456:0023000000000000
#07452:53
#08452:5323
#08456:0023006300000000
#0825b:6323
#08257:0023005300000000
#0875b:0023
#08757:0000005300000000
#08752:0023000000000000
#08756:63
#08652:0023
#08656:0000006300000000
#0865b:0023000000000000
#08657:53
#08356:0023
#08352:0000005300000000
#08357:0023000000000000
#0835b:63
#08052:0023
#08056:0000006300000000
#08057:0023000000000000
#0805b:63
#07952:0023
#07956:0000006300000000
#07957:0023000000000000
#0795b:63
#07852:0023
#07856:0000006300000000
#07857:0023000000000000
#0785b:63
#0765b:0023
#07657:0000005300000000
#07656:0023000000000000
#07652:53
#0755b:0023
#07557:0000005300000000
#07556:0023000000000000
#07552:53
#06053:53635363000000000000000000000000
#06054:0023000000230000000000000000000000000000000000000000000000000000
#06052:0000002300000023000000000000000014000000000000000000000000000000
#0605a:63536353000000000000000014000000
#06059:0023000000230000000000000000000000000000000000000000000000000000
#0605b:0000002300000023000000000000000000000000000000000000000000000000
#03157:53
#03156:0000006300000000
#03056:63
#03057:0000005300000000
#02752:0000005300000000
#0275b:63
#02852:0000005300000000
#02856:63
#0265b:0000006300000000
#02657:53
#02052:53
#02056:0000006300000000
#01952:53
#01956:0000006300000000
#01852:53
#01856:0000006300000000
#0245b:63
#02457:0000005300000000
#0235b:63
#02357:0000005300000000
#0225b:63
#02257:0000005300000000
#04652:0000001600000000
#04658:00160000
#0685b:53
#06352:0053
#06652:53
#06752:53
#0675b:63
#0585b:63
#0595b:63
#05952:53
#05355:00000023
#05358:00230000
#05352:0053
#0535b:63
#0525b:00230000
#05252:00000023
#05255:0063
#05258:53
#05152:0053
#0515b:63
#05055:0063
#05058:53
#04453:00000033
#0445a:00000043
#04454:0033
#04459:0043
#03652:00530000
#0365b:63
#0345b:63
#03458:0053
#03555:0063
#007340:0000000000122200
#007320:00000000000000000000005600000000
#0073a1:0000000000001222
#007381:00000000000000000000000000560000
#007340:0000000000000012
#007320:00000000000000000000000000000056
#008340:22
#009350:12
#009320:005800000000
#009330:00260000
#009391:00120000
#009361:000000000058000000000000
#009371:0026
#0093a1:0000000000122200
#009381:00000000000000000000005600000000
#009340:0000000000001222
#009320:00000000000000000000000000560000
#0093a1:0000000000000012
#009381:00000000000000000000000000000056
#0103a1:22
#011331:12
#011341:000000000054000000000000000000000000000000000000000000000000000000000000000000000000000000000000
#011351:000000000000000000000000000000000000000000000000000000000000000000000000000000000000000000000000000000000000000000000000000000000000000000000000000000000000000000000000000000000000000000000000000000000000000000000000000000000000000000000000000000000000000000000000000000000000000000000000000000000000000000000000000000000000000000000000000000000000000000000000000000000000000000000000000000000000000000000000000000000000000000000000000000000000000000000000000000000000000000000000000000000000000000000000000000000000000000000000000000000000000000000000000000000000000000000000000000000000000000000000000000000000000000000000000000000000000000000000000000000000000000000000000000000000000000000000000000000000000000000000000000000000000000000000000000000000000000000000000000000000000000000000000000005300000000000000000000000000000000000000000000000000000000000000000000000000000000000000000000000000000000000000000000000000000000000000000000000000000000000000000000000000000000000000000000000000000000000000000000000000000000000000000000000000000000000000000000000000000000000000000000000000000000000000000000000000000000000000000000000000000000000000000000000000000000000000000000000000000000000000000000000000000000000000000000000000000000000000000000000000000000000000000000000053000000000000000000000000000000000000000000000000000000000000000000000000000000000000000000000000000000000000000000000000000000000000000000000000000000000000000000000000000000000000000000000000000000000000000000000000000000000000000000000000000000000000000000000000000000000000000000000000000000000000000000000000000000000000000000000000000000000000000000000000000000000000000000000000000000000000000000000000000000000000000000000000000000000000000000000000000000000000000000000000000000000000000000000000000000000000000000000000000000000000000000000000000000000000000000000000000000000000000000000000000000000000000000000000000000000000000000000000000000000000000000000000000000000000000000000000000000000000000000000000000000000000000000000000000000000000000000000000000000000000000000000000000000000000000000000000000000000000000000000000000000000000000000000000000000000000000000000000000000000000000000000000000000000000000000000000000000000000000000000000000000000000000000000000000000000000000000000000000000000000000000000000000000000000000000000000000000000000000000000000000000000000000000000000000000000000000000000000000000000000000000000000000000000000000000000000000000000000000000000000000000000000000000000000000000000000000000000000000000000000000000000000000000000000000000000000000000000000000000000000000000000000000000000000000000000000000000000000000000000000000000000000000000000000000000000000000000000000000000000000000000000000000000000000000000000000000000000000000000000000000000000000000000000000000000000000000000000000000000000000000000000000000000000000000000000000000000000000000000000000000000000000000000000000000000000000000000000000000000000000000000000000000000000000000000000000000000000000000000000000000000000000000000000000000000000000000000000000000000000000000000000000000000000000000000000000000000000000000000000000000000000000000000000000000000000000000000000000000000000000000000000000000000000000000000000000000000000000000000000000000000000000000000000000000000000000000000000000000000000000000000000000000000000000000000000000000000000000000000000000000000000000000000000000000000000000000000000000000000000000000000000000000000000000000000000000000000000000000000000000000000000000000000000000000000000000000000000000000000000000000000000000000000000000000000000000000000000000000000000000000000000000000000000000000000000000000000000000000000000000000000000000000000000000000000000000000000000000000000000000000000000000000000000000000000000000000000000000000000000000000000000000000000000000000000000000
#011321:005600
#011361:0022
#0113b0:12
#011380:000000000000000000000000000000000000000000000000000000000000000000000000000000000000000000000000000000000000000000000000000000000000000000000000000000000000000000000000000000000000000000000000000000000000000000000000000000000000000000000000000000000000000000000000000000000000000000000000000000000000000000000000000000000000000000000000000000000000000000000000000000000000000000000000000000000000000054000000000000000000000000000000000000000000000000000000000000000000000000000000000000000000000000000000000000000000000000000000000000000000000000000000000000000000000000000000000000000000000000000000000000000000000000000000000000000000000000000000000000000000000000000000000000000000000000000000000000000000000000000000000000000000000000000000000000000000000000000000000000000000000000000000000000005300000000000000000000000000000000000000000000000000000000000000000000000000000000000000000000000000000000000000000000000000000000000000000000000000000000000000000000000000000000000000000000000000000000000000000000000000000000000000000000000000000000000000000000000000000000000000000000000000000000000000000000000000000000000000000000000000000000000000000000000000000000000000000000000000000000000000000000000000000000000000000000000000000000000000000000000000000000000000000000005653000000000000000000000000000000000000000000000000000000000000000000000000000000000000000000000000000000000000000000000000000000000000000000000000000000000000000000000000000000000000000000000000000000000000000000000000000000000000000000000000000000000000000000000000000000000000000000000000000000000000000000000000000000000000000000000000000000000000000000000000000000000000000000000000000000000000000000000000000000000000000000000000000000000000000000000000000000000000000000000000000000000000000000000000000000000000000000000000000000000000000000000000000000000000000000000000000000000000000000000000000000000000000000000000000000000000220000000000000000000000000000000000000000000000000000000000000000000000000000000000000000000000000000000000000000000000000000000000000000000000000000000000000000000000000000000000000000000000000000000000000000000000000000000000000000000000000000000000000000000000000000000000000000000000000000000000000000000000000000000000000000000000000000000000000000000000000000000000000000000000000000000000000000000000000000000000000000000000000000000000000000000000000000000000000000000000000000000000000000000000000000000000000000000000000000000000000000000000000000000000000000000000000000000000000000000000000000000000000000000000000000000000000000000000000000000000000000000000000000000000000000000000000000000000000000000000000000000000000000000000000000000000000000000000000000000000000000000000000000000000000000000000000000000000000000000000000000000000000000000000000000000000000000000000000000000000000000000000000000000000000000000000000000000000000000000000000000000000000000000000000000000000000000000000000000000000000000000000000000000000000000000000000000000000000000000000000000000000000000000000000000000000000000000000000000000000000000000000000000000000000000000000000000000000000000000000000000000000000000000000000000000000000000000000000000000000000000000000000000000000000000000000000000000000000000000000000000000000000000000000000000000000000000000000000000000000000000000000000000000000000000000000000000000000000000000000000000000000000000000000000000000000000000000000000000000000000000000000000000000000000000000000000000000000000000000000000000000000000000000000000000000000000000000000000000000000000000000000000000000000000000000000000000000000000000000000000000000000000000000000000000000000000000000000000000000000000000000000000000000000000000000000000000000000000000000000000000000000000000000000000000000000000000000000000000000000000000000000000000000000000000000000000000000000000000000000
#0123b0:00001323
#012370:0000000000530000
#012321:00000013
#012361:0000000000000053
#013321:23
#018321:13
#018361:00230000
#018361:0000001300000000
#018321:0000000000230000
#019321:13
#019361:00230000
#019361:0000001300000000
#019321:0000000000230000
#020321:13
#020361:00230000
#020361:0000001300000000
#020321:0000000000230000
#0223b1:13
#022371:00230000
#022371:0000001300000000
#0223b1:0000000000230000
#0233b1:13
#023371:00230000
#023371:0000001300000000
#0233b1:0000000000230000
#0243b1:13
#024371:00230000
#024371:0000001300000000
#0243b1:0000000000230000
#026371:13
#0263b1:00230000
#0263b1:0000001300000000
#026371:0000000000230000
#0273b1:13
#027371:00230000
#027321:0000001300000000
#027361:0000000000230000
#028361:13
#028321:00230000
#028321:0000001300000000
#028361:0000000000230000
#030361:13
#030321:00230000
#030371:0000001300000000
#0303b1:0000000000230000
#031371:13
#0313b1:00230000
#031361:0000001300000000
#031321:0000000000230000
#033381:00000000000000160000000000000000
#0333c1:00000022
#0343b1:13
#034381:00000023000000000000000000000000
#034381:0013
#0343b1:00000023
#035351:0013
#035321:00000023
#0363b1:13
#036371:00230000
#036320:00130000
#036360:0023
#037320:14343400
#037350:000000000000000000000000000000000000000000000000000000000000000000000000000000000000000000000000000000000000000000000000000000000000000000000000000000000000000000000000000000000000000000000000000000000000000000000000000000000000000000000000000000000000000000000000000000000000000000000000000000000000000000000000000000000000000000000000000000000000000000000000000000000000000000000000000000000000000000000000000000000000000000000000000000000000000000000000000000000000000000000000000000000000000000000000000000000000000000000000000000000000000000000000000000000000000000000000000000000000000000000000000000000000000000000000000000000000000000000000000000000000000000000000000000000000000000000000000000000000000000000000000000000000000000000000000000000000000000000000000000000000000000000000000000000000000000000000000000000000000000000000000000000000000000000000000000000000000000000000000000000000000000000000000000000000000000000000000000000000000000000000000000000000000000000000000000000000000000000000000000000000000000000000000000000000000000000000000000000000000000000000000000000000000000000000000000000000000000000000000000000000000000000000000000000000000000000000000000000000000000000000000000000000000000000000000000000000000000000000000000000000000000000000000000000000000000000000000000000000000000000000000000000000000000000000000000000000000000000000000000000000000000000000000000000000000000000000000000000000000000000054230000000000000000000000000000000000000000000000000000000000000000000000000000000000000000000000000000000000000000000000000000000000000000000000000000000000000000000000000000000000000000000000000000000000000000000000000000000000000000000000000000000000000000000000000000000000000000000000000000000000000000000000000000000000000000000000000000000000000000000000000000000000000000000000000000000000000000000000000000000000000000000000000000000000000000000000000000000000000000000000
#0373a1:14343400
#037371:000000000000000000000000000000000000000000000000000000000000000000000000000000000000000000000000000000000000000000000000000000000000000000000000000000000000000000000000000000000000000000000000000000000000000000000000000000000000000000000000000000000000000000000000000000000000000000000000000000000000000000000000000000000000000000000000000000000000000000000000000000000000000000000000000000000000000000000000000000000000000000000000000000000000000000000000000000000000000000000000000000000000000000000000000000000000000000000000000000000000000000000000000000000000000000000000000000000000000000000000000000000000000000000000000000000000000000000000000000000000000000000000000000000000000000000000000000000000000000000000000000000000000000000000000000000000000000000000000000000000000000000000000000000000000000000000000000000000000000000000000000000000000000000000000000000000000000000000000000000000000000000000000000000000000000000000000000000000000000000000000000000000000000000000000000000000000000000000000000000000000000000000000000000000000000000000000000000000000000000000000000000000000000000000000000000000000000000000000000000000000000000000000000000000000000000000000000000000000000000000000000000000000000000000000000000000000000000000000000000000000000000000000000000000000000000000000000000000000000000000000000000000000000000000000000000000000000000000000000000000000000000000000000000000000000000000000000000000000000000000000000000000000000000000000000000000000000000000000000000000000000000000000000000000000000000000000000000000000000000000000000000000000000000000000000000000000000000000000000000000000000000000000000000000000000000000000000000000000000000000000000000000000000000000000000000000000000000000000000000000000000000000000000000000000000000000000000000000000000000000000000000000000000000000000000000000000000000000000000000000000000000000000000000000000000000000000000000000000000000000000000000000000000000000000000000000000000000000000000000000000000000000000000000000000000000000000000000000000000000000000000000000000000000000000000000000000000000000000000000000000000000000000000000000000000000000000000000000000000000000000000000000000000000000000000000000000000000000000000000000000000000000000000000000000000000000000000000000000000000000000000000000000000000000000000000000000000000000000000000000000000000000000000000000000000000000000000000000000000000000000000000000000000000000000000000000000000000000000000000000000000000000000000000000000000000000000000000000000000000000000000000000000000000000000000000000000000000000000000000000000000000000000000000000000000000000000000000000000000000000000000000000000000000000000000000000000000000000000000000000000000000000000000000000000000000000000000000000000000000000000000000000000000000000000000000000000000000000000000000000000000000000000000000000000000000000000000000000000000000054000000000000000000000000000000000000000000000000000000000000000000000000000000000000000000000000000000000000000000000000000000000000000000000000000000000000000000000000000000000000000000000000000000000000000000000000000000000000000000000000000000000000000000000000000000000000000000000000000000000000000000000000000000000000000000000000000000000000000000000000000000000000000000000000000000000000000000000000000000000000000000000000000000000000000000000000000000000000000000000000000000000000000000000000000000000000000000000000000000000000000000000000000000000000000000000000000000000000000000000000000000000000000000000000000000000000000000000000000000000000000000000000000000000000000000000000000000000000000000000000000000000000000000000000000000000000000000000000000000000000000000000000000000000000000000000000000000000000000000000000000000000000000000000000000000000000000000000000000000000000000000000000000000000000000000000000000000000000000000000000
#037381:00000023
#038321:0016
#040321:26
#0383a0:0014
#038360:00000054
#039360:34343400
#0393a0:00000024
#0403a0:1323000000000000
#040390:0055005500000000000000000000000000000000000000000000000000000000
#040331:0013230000000000
#040321:0000000000550055000000000000000000000000000000000000000000000000
#0403a0:0000132300000000
#040390:0000000000000000005500550000000000000000000000000000000000000000
#040331:0000001323000000
#040321:0000000000000000000000000055005500000000000000000000000000000000
#040380:0000000013230000
#040370:0000000000000000000000000000000000550055000000000000000000000000
#040351:0000000000132300
#040341:0000000000000000000000000000000000000000005500550000000000000000
#040380:0000000000001323
#040370:0000000000000000000000000000000000000000000000000055005500000000
#040351:0000000000000013
#040341:0000000000000000000000000000000000000000000000000000000000550055
#041351:23
#0413b0:13
#041380:0000002600000000
#041320:00001623
#041361:00000000000000000000000014545454
#041341:0000000000000000000000000000000000000000000000000054000000540000
#041381:0000000000000000000000000000000000000000000000000000005400000054
#042361:24
#042321:0013
#042361:00000023
#043321:1654000000002400
#044341:13000000000000000000000000000000000000000000000000000000000000000000000000000000000000000000000000000000005300000000000000000000000000000000000000000000000000000000000000000000000000000000000000000000000000000000000000000000000000000000000000000000000000000000000000000000000000000000000000000000000000000000000000000000000000000000000000000000000000000000000000000000000000000000000000000000000000000000000000000000000000000000000000000000000000000000000000000000000000000000000000000000000000000000000000000000000000000000000000000000000000000000000000000000000000000000000000000000000000000000000000000000000000000000000000000000000000000000000000000000000000000000000000000000000000000000000000000000000000000000000000000000000000000000000000000000000000000000000000000000000000000000000000000000000000000000000000000000000000000000000000000000000000000000000000000000000000000000000000000000000000000000000000000000000000000000000000000000000000000000000000000000000000000000000000000000000000000000000000000000000000000000000000000000000000000000000000000000000000000000000000000000000000000000000000000000000000000000000000000000000000000000000000000000000000000000000000000000000000000000000000000000000000000000000000000000000000000000000000000000000000000000000000000000
#044321:000055250000000000000000000000000000000000000000
#044390:130000000000000000000000000000000000000000000000000000000000000000000000000000000000000000000000000000000000000000000000000000000000000000000000000000000000000000000000000000000000000000000000000000000000000000000000000000000000000000000000000000000000000000000000000000000000000000000000000000000000000000000000000000535500000000000000000000000000000000000000000000000000000000000000000000000000000000000000000000000000000000000000000000000000000000000000000000000000000000000000250000000000000000000000000000000000000000000000000000000000000000000000000000000000000000000000000000000000000000000000000000000000000000000000000000000000000000000000000000000000000000000000000000000000000000000000000000000000000000000000000000000000000000000000000000000000000000000000000000000000000000000000000000000000000000000000000000000000000000000000000000000000000000000000000000000000000000000000000000000000000000000000000000000000000000000000000000000000000000000000000000000000000000000000000000000000000000000000000000000000000000000000000000000000000000000000000000000000000000000000000000000000000000000000000000000000000000000000000000000000000000000000000000000000000000000000000000000000000000000000000000000000000000000000000000000000000000000000000000000000000000000000000000000000000000000000000000000000000000000000000000000000000000000000000000000000000000000000000000000000000000000000000000000000000000000000000000000000000000000000000000000000000000000000000000000000000000000000000000000000000000000000000000000000000000000000000000000000000000000000000000000000000000000000000000000000000000000000000000000000000000000000000000000000000000000000000000000000000000000000000000000000000000000000000000000000000000000000000000000000000000000000000000000000000000000000000000000000000000000000000000000000000000000000000000000000000000000000000000000000000000000000000000000000000000000000000000000000000000000000000000000000000000000000000000000000000000000000000000000000000000000000000000000000000000000000000000000000000000000000000000000000000000000000000000000000000000000000000000000000000000000000000000000000000000000000000000000000000000000000000000000000000000000000000000000000000000000000000000000000000000000000000000000000000000000000000000000000000000000000000000000000000000000000000000000000000000000000000000000000000000000000000000000000000000000000000000000000000000000000000000000000000000000000000000000000000000000000000000000000000000000000000000000000000000000000000000000000000000000000000000000000000000000000000000000000000000000000000000000000000000000000000000000000000000000000000000000000000000000000000000000000000000000000000000000000000000000000000000000000000000000000000000000000000000000000000000000000000000000000000000000000000000000000000000000000000000000000000000000000000000000000000000000000000000000000000000000000000000000000000000000000000000000000000000000000000000000000000000000000000000000000000000000000000000000000000000000000000000000000000000000000000000000000000000000000000000000000000000000000000000000000000000000000000000000000000000000000000000000000000000000000000000000000000000000000000000000000000000000000000000000000000000000000000000000000000000000000000000000000000000000000000000000000000000000000000000000000000000000000000000000000000000000000000000000000000000000000000000000000000000000000000000000000000000000000000000000000000000000000000000000000000000000000000000000000000000000000000000000000000000000000000000000000000000000000000000000000000000000000000000000000000000000000000000000000000000000000000000000000000000000000000000000000000000000000000000000000000000000000000000000000000000000000000000000000000000000000000000000000000000000000000000000000000000000000000000000000000000000000000000000000000000000000000000000000000000000000000000000000
#044320:000000000000155500000000000000000000000000000000
#044340:00000000000000000000000000000000000000000000000000000000000000000000000000000000000000000000000000000000000000000000000000000000000000000000000000000000000000000000000000000000000000000000000000000000000000000000000000000000000000000000000000000000000000000000000000000000000000000000000000000000000000000000000000000000000000000000000000000000000000000000000000000000000000530000000000000000000000000000000000000000000000000000000000000000000000000000000000000000000000000000000023000000000000000000000000000000000000000000000000000000000000000000000000000000000000000000000000000000000000000000000000000000000000000000000000000000000000000000000000000000000000000000000000000000000000000000000000000000000000000000000000000000000000000000000000000000000000000000000000000000000000000000000000000000000000000000000000000000000000000000000000000000000000000000000000000000000000000000000000000000000000000000000000000000000000000000000000000000000000000000000000000000000000000000000000000000000000000000000000000000000000000000000000000000000000000000000000000000000000000000000000000000000000000000000000000000000000000000000000000000000000000000000000000000000000000000000000000000000000000000000000000000000000000000000000000000000000000000000000000000000000000000000000000000
#044391:000000000000000000000000000000000000000000000000000000000000000000000000000000000000000000000000000000000000000000000000000000000000000000000000000000000000000000000000000000000000000000000000000000000000000000000000000000000000000000000000000000000000000000000000000000000000000000000000000000000000000000000000000000000000000000000000000000000000000000000000000000000000000000000000000000000000000000000000000000000000000000000000000000000000000000000000000000000000000000000000000000000000000000000000000000000000000000000000000000000000000000000000000000000000000000000000000000000000000000000000000000000000000000000000000000000000000000000000000000000000000000000000000000000000000000000000000000000000000000000000000000000000000000000000000000000000000000000000000000000000000000000000000000000000000000000000000000000000000000000000000000000000000000000000000000000000000000000000000000000000000000000000000000000000000000000000000000000000000000000000150000000000000000000000000000000000000000000000000000000000000000000000000000000000000000000000000000000000000000000000000000000000000000000000000000000000000055530000000000000000000000000000000000000000000000000000000000000000000000000000000000000000000000000000000000000000000000000000000000000000000000000000000000000000000000000000000000000000000000000000000000000000000000000000000000000000000000000000000000000000000000000000000000000000000000000000000000000000000000000000230000000000000000000000000000000000000000000000000000000000000000000000000000000000000000000000000000000000000000000000000000000000000000000000000000000000000000000000000000000000000000000000000000000000000000000000000000000000000000000000000000000000000000000000000000000000000000000000000000000000000000000000000000000000000000000000000000000000000000000000000000000000000000000000000000000000000000000000000000000000000000000000000000000000000000000000000000000000000000000000000000000000000000000000000000000000000000000000000000000000000000000000000000000000000000000000000000000000000000000000000000000000000000000000000000000000000000000000000000000000000000000000000000000000000000000000000000000000000000000000000000000000000000000000000000000000000000000000000000000000000000000000000000000000000000000000000000000000000000000000000000000000000000000000000000000000000000000000000000000000000000000000000000000000000000000000000000000000000000000000000000000000000000000000000000000000000000000000000000000000000000000000000000000000000000000000000000000000000000000000000000000000000000000000000000000000000000000000000000000000000000000000000000000000000000000000000000000000000000000000000000000000000000000000000000000000000000000000000000000000000000000000000000000000000000000000000000000000000000000000000000000000000000000000000000000000000000000000000000000000000000000000000000000000000000000000000000000000000000000000000000000000000000000000000000000000000000000000000000000000000000000000000000000000000000000000000000000000000000000000000000000000000000000000000000000000000000000000000000000000000000000000000000000000000000000000000000000000000000000000000000000000000000000000000000000000000000000000000000000000000000000000000000000000000000000000000000000000000000000000000000000000000000000000000000000000000000000000000000000000000000000000000000000000000000000000000000000000000000000000000000000000000000000000000000000000000000000000000000000000000000000000000000000000000000000000000000000000000000000000000000000000000000000000000000000000000000000000000000000000000000000000000000000000000000000000000000000000000000000000000000000000000000000000000000000000000000000000000000000000000000000000000000000000000000000000000000000000000000000000000000000000000000000000000000000000000000000000000000000000000000000000000000000000000000000000000000000000000000000000
#0453a1:14240000
#045361:00540054000000000000000000000000
#045320:00142400
#045360:00000000005400540000000000000000
#046380:1626000000000000
#046321:0016260000000000
#0493c1:12
#0493b1:00320000000000000000000000000000
#0493a1:0032000000000000
#049391:00000032220000000000000000000000
#049370:00120000
#049360:00000000003200000000000000000000
#049350:0000003200000000
#049340:00000000000000322200000000000000
#0493a1:0012
#049391:00000000000000000032000000000000
#049381:0000000000320000
#049371:00000000000000000000003222000000
#049350:00000012
#049340:00000000000000000000000000320000
#049330:0000000000000032
#049320:00000000000000000000000000000032
#050320:22
#050381:13
#0503b1:0023
#050350:0013
#051320:23
#0513b1:13
#051381:0023
#051320:0013
#052350:23
#052381:1323
#0523b1:00530000
#052350:0013
#052320:00000053
#053350:23
#0533b1:1323
#053381:00530000
#053320:0013
#053350:00000053
#054320:23
#054320:0000001300000000
#054360:0000000000240000
#056320:1c
#056360:00240000
#056380:0014
#0563a0:00000024
#056341:0014
#056321:00000024
#0583b1:13
#058371:00230000
#059321:13
#059351:0023
#0593b0:13
#059380:0023
#060330:13535353230000000000000000000000
#060340:0053000000530000000000000000000000000000000000000000000000000000
#060320:0000005300000053000000000000000000000000000000000000000000000000
#0603a1:13535353230000000000000000000000
#060391:0053000000530000000000000000000000000000000000000000000000000000
#0603b1:0000005300000053000000000000000000000000000000000000000000000000
#061391:14545454545454542400000000000000
#0613a1:0054000000540000005400000054000000000000000000000000000000000000
#061381:0000005400000054000000540000005400000000000000000000000000000000
#061330:14545454545454542400000000000000
#061320:0054000000540000005400000054000000000000000000000000000000000000
#061340:0000005400000054000000540000005400000000000000000000000000000000
#061320:00000013
#061360:000000000000000000000000000000000000000000000000000000000000000000000000000000000000000000000000000000000000000000000000000000000000000000000000000000000000000000000000000000000000000000000000000000000000000000000000000000000000000000000000000000000000000000000000000000000000000000000000000000000000000000000000000000000000000000000000000000000000000000000000000000000000000000000000000000000000000000000000000000000000000000000000000000000000000000000000000000000000000000000000000000000000000000000000000000000000000000000000000000000000000000000000000000000000000000000000000000000000000000000000000000000000000000000000000000000000000000000000000000000000000000000000000000000000000000000000000000000000000000000000000000000000000000000000000000000000000000000000000000000000000000000000000000000000000000000000000000000000000000000000000000000000000000000000000000000000000000000000000000000000000000000000000000000000000000000000000000000000000000000000000000000000000000000000000000000000000000000000000000000000000000000000000000000000000000000000000000000000000000000000000000000000000000000000000000000000000000000000000000000000000000000000000000000000000000000000000000000000000000000000000000000000000000000000000000000000000000000000000000000000000000000000000000000000000000000000000000000000000000000000000000000000000000000000000000000000000000000000000000000000000000000000000000000000000000000000000000000000000000000000000000000000000000000000000000000000000000000000000000000000000000000000000000000000000000000000000000000000000000000000000000000000000000000000000000000000000000000000000000000000000000000000000000000000000000000000000000000000000000000000000000000000000000000000000000000000000000000000000000000000000000000000000000000000000000000000000000000000000000000000000000000000000000000000000000000000000000000000000000000000000000000000000000000000000000000000000000000000000000000000000000000000000000000000000000000000000000000000000000000000000000000000000000000000000000000000000000000000000000000000000000000000000000000000000000000000000000000000000000000000000000000000000000000000000000000000000000000000000000000000000000000000000000000000000000000000000000000000000000000000000000000000000000000000000000000000000000000000000000000000000000000000000000000000000000000000000000000000000000000000000000000000000000000000000000000000000000000000000000000000000000000000000000000000000000000000000000000000000000000000000000000000000000000000000000000000000000000000000000000000000000000000000000000000000000000000000000000000000000000000000000000000000000000000000000000000000000000000000000000000000000000000000000000000000000000000000000000000000000000000000000000000000000000000000000000000000000000000000000000000000000000000000000000000000000000000000000000000000000000000000000000000000000000000000000000000000000000000000000000000000000000000000000000000000000000000000000000000000000000000000000000000000000000000000000000000000000000000000000000000000000000000000000000000000000000000000000000000000000000000000000000000000000000000000000000000000000000000000000000000000000000000000000000000000000000000000000000000000000000000000000000000000000000000000000000000000000000000000000000000000000000000000000000000000000000000000000000000000000000000000000000000000000000000000000000000000000000000000000000053000000000000000000000000000000000000000000000000000000000000000000000000000000000000000000000000000000000000000000000000000000000000000000000000000000000000000000000000000000000000000000000000000000000000000000000000000000000000000000000000000000000000000000000000000000000000000000000000000000000000000000000000000000000000000000000000000000000000000000000000000000000000000000000000000000000000000000000000000000000000000000000000000000000000000000000000000000000000000000000000
#062320:25
#0613b1:00000013
#061371:0000000000000053
#062391:25
#063321:0013
#063351:00000000000000000000002300000000
#065381:16260000
#065351:0056000000000000
#065320:00162600
#065350:0000005600000000
#066320:13
#066360:00230000
#0673b0:13
#067380:0023
#067321:13
#067351:0023
#0683b1:13
#068381:00230000
#069381:13
#0693b1:0023
#069350:13
#069320:0023
#069320:00000013
#070350:23
#0693b1:00000013
#070381:23
#074321:13230000
#074361:0053000000000000
#074371:0000001300230000
#0743b1:0053
#075321:13230000
#075361:0053000000000000
#075371:0000001300230000
#0753b1:0053
#076321:13230000
#076361:0053000000000000
#076371:0000001300230000
#0763b1:0053
#0783b1:13230000
#078371:0053000000000000
#078361:0000001300230000
#078321:0053
#0793b1:13230000
#079371:0053000000000000
#079361:0000001300230000
#079321:0053
#0803b1:13230000
#080371:0053000000000000
#080361:0000001300230000
#080321:0053
#0823b1:13230000
#082371:0053000000000000
#082371:0000001300230000
#0823b1:0053
#0833b1:13230000
#083371:0053000000000000
#083321:0000001300230000
#083361:0053
#084321:13230000
#084361:0053000000000000
#084361:0000001300230000
#084321:0053
#086371:13230000
#0863b1:0053000000000000
#086361:0000001300230000
#086321:0053
#087361:13230000
#087321:0053000000000000
#087371:0000001300230000
#0873b1:0053
#089321:00000000000000160000000000000000
#089371:00000022
#018970:00000013
#0199b0:23
#020970:00000013
#0219b0:23
#022960:00000013
#023920:23
#024960:00000013
#025920:23
#026920:00000013
#027960:23
#0289b0:00000013
#029970:23
#030960:00000013
#031920:23
#031970:00000013
#0329b0:23
#0909d0:000000000000000000000000000000000000000000000000000000000000000000000000000000000000000000000000000000000000000000000000000000000000000000000000000000000000000000000000000000000000000000000000000000000000000000000000000000000000000000000000000000000000000000000000000000000000000000000000000000000000000000000000000000000000000000000000000000000000000000000000000000000000000000000000000000000000000000000000000000000000000000000000000000000000000000000000000000000000000000000000000000000000000000000000000000000000000000000000000000000000000000000000000000000000000000000000000000000000000000000000000000000000000000000000000000000000000000000000000000000000000000000000000000000000000000000000000000000000000000000000000000000000000000000000000000000000000000000000000000000000000000000000000000000000000000000000000000000000000000000000000000000000000000000000000000000000000000000000000000000000000000000000000000000000000000000000000000000000000000000000000000000000000000000000000000000000000000000000000000000000000000000000000000000000000000000000000000000000000000000000000000000000000000000000000000000000000000000000000000000000000000000000000000000000000000000000000000000000000000000000000000000000000000000000000000000000000000000000000000000000000000000000000000000000000000000000000000000000000000000000000000000000000000000000000000000000000000000000000000000000000000000000000000000000000000000000000000000000000000000000000000000000000000000000000000000000000000000000000000000000000000000000000000000000000000000000000000000000000000000000000000000000000000000000000000000000000000000000000000000000000000000000000000000000000000000000000000000000000000000000000000000000000000000000000000000000000000000000000000000000000000000000000000000000000000000000000000000000000000000000000000000000000000000000000000000000000000000000000000000000000000000000000000000000000000000000000000000000000000000000000000000000000000000000000000000000000000000000000000000000000000000000000000000000000000000000000000000000000000000000000000000000000000000000000000000000000000000000000000000000000000000000000000000000000000000000000000000000000000000000000000000000000000000000000000000000000000000000000000000000000000000000000000000000000000000000000000000000000000000000000000000000000000000000000000000000000000000000000000000000000000000000000000000000000000000000000000000000000000000000000000000000000000000000000000000000000000000000000000000000000000000000000000000000000000000000000000000000000000000000000000000000000000000000000000000000000000000000000000000000000000000000000000000000000000000000000000000000000000000000000000000000000000000000000000000000000000000000000000000000000000000000000000000000000000000000000000000000000000000000000000000000000000000000000000000000000000000000000000000000000000000000000000000000000000000000000000000000000000000000000000000000000000000000000000000000000000000000000000000000000000000000000000000000000000000000000000000000000000000000000000000000000000000000000000000000000000000000000000000000000000000000000000000000000000000000000000000000000000000000000000000000000000000000000000000000000000000000000000000000000000000000000000000000000000000000000000000000000000000000000000000000000000000000000000000000000000000000000000000000000000000000000000000000000000000000000000000000000000000000000000000000000000000000000000000000000000000000000000000000000000000000000000000000000000000000000000000000000000000000000000000000000000000000000000000000000000000000000000000000000000000000000000000000000000000000000000000000000000000000000000000000000000000000000000000000000000000000000000000000000000000000000000000000000000000000000000000000000000000000000000000000000000000000000000000000000000000000000000000000000000000000000000000000000000000000000000000000000000001121
