This file was generated by Ched 2.7.0.0.
#TITLE ""
#ARTIST ""
#DESIGNER ""
#DIFFICULTY 0
#PLAYLEVEL
#SONGID ""
#WAVE ""
#WAVEOFFSET 0
#JACKET ""
#REQUEST "ticks_per_beat 480"
#00002: 4
#BPM01: 179
#00008: 01
#TIL00: "90'1917:10000, 90'1918:1"
#VOLUME: ""
#HISPEED 00
#MEASUREHS 00
#00117:0000000000120012
#00114:00000012
#00119:12120000
#00115:0012001200000000
#00215:12120000
#00219:0012001200000000
#00217:00001212
#0021b:0000000000120012
#00315:12120000
#00319:0012001200000000
#00316:0000000000120000
#00318:00000012
#00414:13130000
#00419:0013001300000000
#00412:0000000000130013
#00417:00000013
#0051b:0000000000130013
#00519:13130000
#00514:0013001300000000
#00516:00000013
#00614:13130000
#00619:0013001300000000
#00612:00001313
#00617:0000000000130013
#05415:00130013
#05418:0000001300000013
#0541b:2300000000130000
#03415:0013001300000000
#03418:23131300
#03518:0013001300000000
#03515:13131300
#0421b:0000001300000000
#04212:1313
#04215:00130000
#04218:0013000000000000
#05812:23000013
#05818:0000001300000013
#05815:0013
#0581b:2300000000130000
#0581f:21
#01015:00000016
#0101a:0024
#01012:0024
#0211b:1300000013000013
#02112:0000001300000000
#02115:0013000000130000
#02118:00130013
#0181b:13
#01815:0000001300000000
#01810:41
#0361b:13130000
#03618:00001313
#03615:0000000000130013
#03612:0013001300000000
#0691a:00000014
#06912:14
#06916:00140000
#07112:0013
#07118:0000001300130000
#07115:00130013
#0711b:0013000000000013
#04618:00001313
#04612:0000000000130013
#0461b:13130000
#04615:0013001300000000
#04715:0013000000000000
#04718:00132424
#04712:0000001300000000
#0471b:13
#04714:0000000000240000
#06218:0000001300130013
#06215:00001313
#06212:24
#06418:0013001300000000
#06415:23130000
#06412:00001414
#0641a:0000000000140014
#00015:12120000
#00019:0012001200000000
#00014:0000000000120012
#00017:00000012
#00815:00000016
#00812:0024
#0081a:0024
#00912:0000000000000016
#00914:00000022
#00718:0000000000000016
#00712:26
#0071a:00000022
#01215:0000001300000000
#01218:0013
#01212:23
#0121b:23
#01315:1300000000130013
#01318:00001313
#0191b:13
#01915:0000001300000000
#0201b:13
#02015:0000001300000000
#02212:13
#02218:0000001300000000
#02312:13
#02318:0000001300000000
#02412:13
#02418:0000001300000000
#02618:13
#02612:0000001300000000
#02718:13
#02712:0000001300000000
#02818:13
#02812:0000001300000000
#02810:41
#0331a:00000000000014340000000000000000
#03312:00000000000014340000000000000000
#03319:00340000
#03318:0034000000000000
#03313:00340000
#03314:0034000000000000
#0371b:13
#0371a:00130000
#03712:13
#03713:00130000
#03719:0013
#03714:0013
#03715:00000023
#03718:00000023
#03815:0013001300000000
#0381b:13131300
#03810:41
#03918:0013001300000000
#03912:13131300
#0401b:00001313
#04012:0000000000130013
#04018:13130000
#04015:0013001300000000
#04418:13
#04415:00130000
#0441a:0014
#04412:00000014
#04518:16
#04515:00160000
#04512:0016
#04812:13130000
#0481b:0013001300000000
#04815:00001313
#04818:0000000000130013
#04810:41
#04912:13
#0491f:11
#0411b:13
#04118:0013
#0501b:13
#05112:13
#05315:13
#05218:13
#0591b:0000000000130000
#05912:0000000000130000
#05918:00000000000000000000000033133300
#05915:13000000000000000000000033133300
#05910:41
#0601b:00000013
#06015:0000001300000013
#06018:0013
#06012:0000000000130000
#06119:00140000
#0611a:0014000000000000
#06118:2400001400000000
#06114:00000014
#06312:0013000000000000
#06318:00130000
#06315:0000001300000000
#0631b:0013
#06515:00260013
#06512:26
#06518:0026
#0661b:23000013
#06612:2300001300000000
#06615:0000000013000013
#06618:0000000000130000
#0671b:13
#06715:0000000000000013
#06712:0000000000130000
#06718:00000013
#06812:00000013
#0681b:1300001300000000
#06818:0000000013000013
#06815:0000000000130000
#07718:1300000013000013
#07715:0013001300001300
#07712:00130000
#0771b:0000000000130000
#0741b:13
#07412:0000001300000000
#07410:41
#0761b:13
#07612:0000001300000000
#07518:13
#07515:0000001300000000
#07812:13
#0781b:0000001300000000
#08012:13
#0801b:0000001300000000
#07915:13
#07918:0000001300000000
#0821a:14
#08219:0014000000000000
#08212:0000001400000000
#08213:0014
#08312:0000001400000000
#08314:0014
#0831a:14
#08318:0014000000000000
#0891a:00000000000014340000000000000000
#08912:00000000000014340000000000000000
#07016:2400000000000013
#07012:0000001300000000
#07019:00000013
#07014:0000000000130000
#07017:0013
#01418:0000130000130013
#01415:00001313
#01412:24
#0141a:24
#01518:0000001300000000
#01515:00131300
#01512:24
#0151a:24
#01615:13
#01618:13
#08417:0014000000000000
#0841a:14
#08415:0014
#08412:0000001400000000
#03118:0000001300000000
#03115:13
#03018:0000001300000000
#03015:13
#02918:00130013
#02915:0013000000130000
#0291b:1300000013000013
#02912:0000001300000000
#08518:1300000013000013
#08515:0013001300001300
#08512:00130000
#0851b:0000000000130000
#08612:14
#08615:0014000000000000
#0861a:0000001400000000
#08617:0014
#08712:14
#08716:0014000014000000
#0871a:0000001400000000
#07214:24
#07212:00002424
#07218:00240000
#0721a:0000000000240024
#01712:00000026
#01718:00000026
#02512:24000024
#0251a:0024
#0561a:0024
#05615:26
#05612:0024
#0431a:24
#04318:0024
#04315:00230000
#04312:00000023
#0321a:24340034340000000000000000000000
#03212:24340034340000000000000000000000
#03218:00000000000000340034340000000000
#03214:00000000000000340034340000000000
#05714:28
#08112:26000026
#08118:0026
#0881a:24340000000000340000000000000000
#08812:24340000000000340000000000000000
#08818:0000340000340000
#08814:0000340000340000
#01113:23
#0111a:23
#05518:00000026
#05512:23
#05514:00240000
#05516:0025
#07314:28
#01252:13
#01258:0053
#0125b:13000013
#0545b:13
#00752:16
#00758:0000000000000056
#0075a:00000022
#01752:14000016
#01758:00000016
#0175a:14
#0185b:63
#01858:00130000
#01855:0000006300000000
#01852:0000000000130000
#03458:0053
#03555:0063
#05655:00160000
#0565a:00000014
#05652:00000014
#0695a:00000064
#06952:5414
#06956:00240000
#04252:0053
#0435a:14
#04358:0014
#00954:00000022
#00952:0000000000000066
#01054:12
#0085a:12
#01355:63
#01352:00130000
#0195b:63
#01955:0000006300000000
#01958:00130000
#01952:0000000000130000
#0205b:63
#02055:0000006300000000
#02058:00130000
#02052:0000000000130000
#02252:53
#02258:0000005300000000
#02255:00130000
#0225b:0000000000130000
#02352:53
#02358:0000005300000000
#02355:00130000
#0235b:0000000000130000
#02452:53
#02458:0000005300000000
#02455:00130000
#0245b:0000000000130000
#02658:53
#0265b:00130000
#02652:0000005300000000
#02655:0000000000130000
#02758:53
#02752:0000005300000000
#0275b:00130000
#02755:0000000000130000
#02858:53
#02852:0000005300000000
#0285b:00130000
#02855:0000000000130000
#0335a:0000006400000000
#03352:0000005400000000
#03355:00000013
#03358:00000013
#03759:0063
#03754:0053
#03755:00000013
#03758:00000013
#0385b:0063
#03952:0053
#04558:16
#04555:00160000
#04552:0016
#04952:53
#04955:0013
#0415b:63000013
#04158:0053
#0505b:63
#05152:53
#05355:63
#05258:53
#05754:0018
#0595b:0000000000630000
#05952:0000130000530000
#05958:00000000000000000000000000230000
#05955:63000000000000000000000000230000
#0605b:43
#06052:33
#0585b:13
#05852:13
#0615a:0024000014000000
#06159:00640000
#06158:5400002400000000
#06154:00000064
#06252:14
#0635b:0063
#06552:16
#06555:00160000
#06558:0016
#0665b:13
#06652:13
#0675b:63
#06758:00130000
#0685b:13
#0745b:63
#07458:00130000
#07452:0000005300000000
#07455:0000000000130000
#0765b:63
#07658:00130000
#07652:0000005300000000
#07655:0000000000130000
#07558:53
#0755b:00130000
#07555:0000006300000000
#07552:0000000000130000
#07852:53
#0785b:0000006300000000
#07855:00130000
#07858:0000000000130000
#08052:53
#0805b:0000006300000000
#08055:00130000
#08058:0000000000130000
#07955:63
#07958:0000005300000000
#07952:00130000
#0795b:0000000000130000
#0825a:64140000
#08259:0024000000000000
#08252:0000005400140000
#08253:0024
#08352:0000005400140000
#08354:0024
#0835a:64140000
#08358:0024000000000000
#0895a:0000006400000000
#08958:00000013
#08952:0000005400000000
#08955:00000013
#01655:63
#01658:53
#01156:0012
#01158:0012
#07354:18
#0845a:64140000
#08457:0024000000000000
#08455:0024
#08452:0000005400140000
#03158:0000005300000000
#03155:63
#0315b:0000000000130000
#03152:00130000
#03058:0000005300000000
#03055:63
#0305b:0000000000130000
#03052:00130000
#08652:54140000
#08655:0024000000000000
#0865a:0000006400140000
#08657:0024
#08752:54140000
#08756:0024000024000000
#0875a:0000006400140000
#07056:14
#0073a0:00000012
#007380:0000000000000056
#0083a0:22
#009360:14
#009330:0000005a00000000
#009340:0028
#009340:00000012
#009320:0000000000000056
#010340:22
#011330:13
#011340:000000000054000000000000000000000000000000000000000000000000000000000000000000000000000000000000
#011350:000000000000000000000000000000000000000000000000000000000000000000000000000000000000000000000000000000000000000000000000000000000000000000000000000000000000000000000000000000000000000000000000000000000000000000000000000000000000000000000000000000000000000000000000000000000000000000000000000000000000000000000000000000000000000000000000000000000000000000000000000000000000000000000000000000000000000000000000000000000000000000000000000000000000000000000000000000000000000000000000000000000000000000000000000000000000000000000000000000000000000000000000000000000000000000000000000000000000000000000000000000000000000000000000000000000000000000000000000000000000000000000000000000000000000000000000000000000000000000000000000000000000000000000000000000000000000000000000000000000000000000000000000000005300000000000000000000000000000000000000000000000000000000000000000000000000000000000000000000000000000000000000000000000000000000000000000000000000000000000000000000000000000000000000000000000000000000000000000000000000000000000000000000000000000000000000000000000000000000000000000000000000000000000000000000000000000000000000000000000000000000000000000000000000000000000000000000000000000000000000000000000000000000000000000000000000000000000000000000000000000000000000000000000053000000000000000000000000000000000000000000000000000000000000000000000000000000000000000000000000000000000000000000000000000000000000000000000000000000000000000000000000000000000000000000000000000000000000000000000000000000000000000000000000000000000000000000000000000000000000000000000000000000000000000000000000000000000000000000000000000000000000000000000000000000000000000000000000000000000000000000000000000000000000000000000000000000000000000000000000000000000000000000000000000000000000000000000000000000000000000000000000000000000000000000000000000000000000000000000000000000000000000000000000000000000000000000000000000000000000000000000000000000000000000000000000000000000000000000000000000000000000000000000000000000000000000000000000000000000000000000000000000000000000000000000000000000000000000000000000000000000000000000000000000000000000000000000000000000000000000000000000000000000000000000000000000000000000000000000000000000000000000000000000000000000000000000000000000000000000000000000000000000000000000000000000000000000000000000000000000000000000000000000000000000000000000000000000000000000000000000000000000000000000000000000000000000000000000000000000000000000000000000000000000000000000000000000000000000000000000000000000000000000000000000000000000000000000000000000000000000000000000000000000000000000000000000000000000000000000000000000000000000000000000000000000000000000000000000000000000000000000000000000000000000000000000000000000000000000000000000000000000000000000000000000000000000000000000000000000000000000000000000000000000000000000000000000000000000000000000000000000000000000000000000000000000000000000000000000000000000000000000000000000000000000000000000000000000000000000000000000000000000000000000000000000000000000000000000000000000000000000000000000000000000000000000000000000000000000000000000000000000000000000000000000000000000000000000000000000000000000000000000000000000000000000000000000000000000000000000000000000000000000000000000000000000000000000000000000000000000000000000000000000000000000000000000000000000000000000000000000000000000000000000000000000000000000000000000000000000000000000000000000000000000000000000000000000000000000000000000000000000000000000000000000000000000000000000000000000000000000000000000000000000000000000000000000000000000000000000000000000000000000000000000000000000000000000000000000000000000000000000000000000000000000000000000000000000000000000000000000000000000000000000000000000000000000000000000000000000000000000000000000000000000000000000000000000000000000000
#011320:005600
#011360:0022
#0113a1:13
#011381:000000000000000000000000000000000000000000000000000000000000000000000000000000000000000000000000000000000000000000000000000000000000000000000000000000000000000000000000000000000000000000000000000000000000000000000000000000000000000000000000000000000000000000000000000000000000000000000000000000000000000000000000000000000000000000000000000000000000000000000000000000000000000000000000000000000000000054000000000000000000000000000000000000000000000000000000000000000000000000000000000000000000000000000000000000000000000000000000000000000000000000000000000000000000000000000000000000000000000000000000000000000000000000000000000000000000000000000000000000000000000000000000000000000000000000000000000000000000000000000000000000000000000000000000000000000000000000000000000000000000000000000000000000005300000000000000000000000000000000000000000000000000000000000000000000000000000000000000000000000000000000000000000000000000000000000000000000000000000000000000000000000000000000000000000000000000000000000000000000000000000000000000000000000000000000000000000000000000000000000000000000000000000000000000000000000000000000000000000000000000000000000000000000000000000000000000000000000000000000000000000000000000000000000000000000000000000000000000000000000000000000000000000000005653000000000000000000000000000000000000000000000000000000000000000000000000000000000000000000000000000000000000000000000000000000000000000000000000000000000000000000000000000000000000000000000000000000000000000000000000000000000000000000000000000000000000000000000000000000000000000000000000000000000000000000000000000000000000000000000000000000000000000000000000000000000000000000000000000000000000000000000000000000000000000000000000000000000000000000000000000000000000000000000000000000000000000000000000000000000000000000000000000000000000000000000000000000000000000000000000000000000000000000000000000000000000000000000000000000000000220000000000000000000000000000000000000000000000000000000000000000000000000000000000000000000000000000000000000000000000000000000000000000000000000000000000000000000000000000000000000000000000000000000000000000000000000000000000000000000000000000000000000000000000000000000000000000000000000000000000000000000000000000000000000000000000000000000000000000000000000000000000000000000000000000000000000000000000000000000000000000000000000000000000000000000000000000000000000000000000000000000000000000000000000000000000000000000000000000000000000000000000000000000000000000000000000000000000000000000000000000000000000000000000000000000000000000000000000000000000000000000000000000000000000000000000000000000000000000000000000000000000000000000000000000000000000000000000000000000000000000000000000000000000000000000000000000000000000000000000000000000000000000000000000000000000000000000000000000000000000000000000000000000000000000000000000000000000000000000000000000000000000000000000000000000000000000000000000000000000000000000000000000000000000000000000000000000000000000000000000000000000000000000000000000000000000000000000000000000000000000000000000000000000000000000000000000000000000000000000000000000000000000000000000000000000000000000000000000000000000000000000000000000000000000000000000000000000000000000000000000000000000000000000000000000000000000000000000000000000000000000000000000000000000000000000000000000000000000000000000000000000000000000000000000000000000000000000000000000000000000000000000000000000000000000000000000000000000000000000000000000000000000000000000000000000000000000000000000000000000000000000000000000000000000000000000000000000000000000000000000000000000000000000000000000000000000000000000000000000000000000000000000000000000000000000000000000000000000000000000000000000000000000000000000000000000000000000000000000000000000000000000000000000000000000000000000000000000000000000
#012381:0013
#0123b1:00000023
#013351:13
#013321:00230000
#015381:00000013
#016381:53
#0173a1:24
#016350:13
#017320:24
#0183b0:13
#018380:00230000
#018350:0000001300000000
#018320:0000000000230000
#0193b0:13
#019380:00230000
#019350:0000001300000000
#019320:0000000000230000
#0203b0:13
#020380:00230000
#020350:0000001300000000
#020320:0000000000230000
#022320:13
#022350:00230000
#022380:0000001300000000
#0223b0:0000000000230000
#023320:13
#023350:00230000
#023380:0000001300000000
#0233b0:0000000000230000
#024320:13
#024350:00230000
#024380:0000001300000000
#0243b0:0000000000230000
#025320:1434343424000000
#025330:00340034003400340000000000000000
#026380:13
#0263b0:00230000
#026320:0000001300000000
#026350:0000000000230000
#027380:13
#0273b0:00230000
#027320:0000001300000000
#027350:0000000000230000
#028380:13
#0283b0:00230000
#028320:0000001300000000
#028350:0000000000230000
#030350:13
#030320:00230000
#030380:0000001300000000
#0303b0:0000000000230000
#031350:13
#031320:00230000
#031380:0000001300000000
#0313b0:0000000000230000
#0323a0:14340034340000000000000034000000
#032380:00000000000034340034340000000000
#032390:0000000000000034
#033380:3434000000002300
#033390:00340000
#0333a0:00000000000034340000000000000000
#032321:14340034340000000000000034000000
#032341:00000000000034340034340000000000
#032331:0000000000000034
#033341:3434000000000000
#033331:00340000
#033321:00000000000034340000000000000000
#033351:00000023
#034381:0013
#0343b1:00000023
#035351:0013
#035321:00000023
#037391:0013
#037381:00000023
#037340:0013
#037350:00000023
#0383b0:0013
#038380:00000023
#039320:0013
#039350:00000023
#0413b0:13000023
#041380:0033
#042320:0013
#042350:00000023
#049320:13
#049350:0000003323000000
#0503b0:13
#050380:0023
#051320:13
#051350:0023
#052380:13
#0523b0:0023
#053350:13
#053320:0023
#056350:16260000
#0563a0:00001424
#056321:00001424
#057341:1800380038003800380038003838383828000000000000000000000000000000
#059351:13
#059321:00230000
#0593b1:0000000000130000
#059381:00000000000000000000000033533300
#0603b1:23
#059320:0000000000130000
#059350:00000000000000000000000033533300
#060320:23
#061380:1400005400000000
#0613a0:0054000024000000
#061390:00540000
#061340:00000014
#062320:24
#0633b0:0013
#063380:00000023
#0673b0:13
#067380:00230000
#069320:1424
#069360:00540000
#0693a0:00000014
#070360:24
#0743b0:13
#074380:00230000
#074320:0000001300000000
#074350:0000000000230000
#075380:13
#0753b0:00230000
#075350:0000001300000000
#075320:0000000000230000
#0763b0:13
#076380:00230000
#076320:0000001300000000
#076350:0000000000230000
#078320:13
#078350:00230000
#0783b0:0000001300000000
#078380:0000000000230000
#079350:13
#079320:00230000
#079380:0000001300000000
#0793b0:0000000000230000
#080320:13
#080350:00230000
#0803b0:0000001300000000
#080380:0000000000230000
#081320:1636363626000000
#081340:00360036003600360000000000000000
#0823a0:14240000
#082390:0054000000000000
#082320:0000001400240000
#082330:0054
#0833a0:14240000
#083380:0054000000000000
#083320:0000001400240000
#083340:0054
#0843a0:14240000
#084370:0054000000000000
#084320:0000001400240000
#084350:0054
#086320:14240000
#086350:0054000000000000
#0863a0:0000001400240000
#086370:0054
#087320:14240000
#087360:0054000000000000
#0873a0:0000001400240000
#087360:0054
#0883a0:14340000000034340000000034000000
#088380:00000034340000000034340000000000
#088390:0000000000000034
#089380:34340023
#0893a0:00003400000034340000000000000000
#088321:14340000000034340000000034000000
#088341:00000034340000000034340000000000
#088331:0000000000000034
#089341:34340000
#089321:00003400000034340000000000000000
#089351:00000023
#0909d0:000000000000000000000000000000000000000000000000000000000000000000000000000000000000000000000000000000000000000000000000000000000000000000000000000000000000000000000000000000000000000000000000000000000000000000000000000000000000000000000000000000000000000000000000000000000000000000000000000000000000000000000000000000000000000000000000000000000000000000000000000000000000000000000000000000000000000000000000000000000000000000000000000000000000000000000000000000000000000000000000000000000000000000000000000000000000000000000000000000000000000000000000000000000000000000000000000000000000000000000000000000000000000000000000000000000000000000000000000000000000000000000000000000000000000000000000000000000000000000000000000000000000000000000000000000000000000000000000000000000000000000000000000000000000000000000000000000000000000000000000000000000000000000000000000000000000000000000000000000000000000000000000000000000000000000000000000000000000000000000000000000000000000000000000000000000000000000000000000000000000000000000000000000000000000000000000000000000000000000000000000000000000000000000000000000000000000000000000000000000000000000000000000000000000000000000000000000000000000000000000000000000000000000000000000000000000000000000000000000000000000000000000000000000000000000000000000000000000000000000000000000000000000000000000000000000000000000000000000000000000000000000000000000000000000000000000000000000000000000000000000000000000000000000000000000000000000000000000000000000000000000000000000000000000000000000000000000000000000000000000000000000000000000000000000000000000000000000000000000000000000000000000000000000000000000000000000000000000000000000000000000000000000000000000000000000000000000000000000000000000000000000000000000000000000000000000000000000000000000000000000000000000000000000000000000000000000000000000000000000000000000000000000000000000000000000000000000000000000000000000000000000000000000000000000000000000000000000000000000000000000000000000000000000000000000000000000000000000000000000000000000000000000000000000000000000000000000000000000000000000000000000000000000000000000000000000000000000000000000000000000000000000000000000000000000000000000000000000000000000000000000000000000000000000000000000000000000000000000000000000000000000000000000000000000000000000000000000000000000000000000000000000000000000000000000000000000000000000000000000000000000000000000000000000000000000000000000000000000000000000000000000000000000000000000000000000000000000000000000000000000000000000000000000000000000000000000000000000000000000000000000000000000000000000000000000000000000000000000000000000000000000000000000000000000000000000000000000000000000000000000000000000000000000000000000000000000000000000000000000000000000000000000000000000000000000000000000000000000000000000000000000000000000000000000000000000000000000000000000000000000000000000000000000000000000000000000000000000000000000000000000000000000000000000000000000000000000000000000000000000000000000000000000000000000000000000000000000000000000000000000000000000000000000000000000000000000000000000000000000000000000000000000000000000000000000000000000000000000000000000000000000000000000000000000000000000000000000000000000000000000000000000000000000000000000000000000000000000000000000000000000000000000000000000000000000000000000000000000000000000000000000000000000000000000000000000000000000000000000000000000000000000000000000000000000000000000000000000000000000000000000000000000000000000000000000000000000000000000000000000000000000000000000000000000000000000000000000000000000000000000000000000000000000000000000000000000000000000000000000000000000000000000000000000000000000000000000000000000000000000000000000000000000000000000000000000000000000000000000000000000000000000000000000000000000000000000000000000000000001121
