This file was generated by Ched 2.7.0.0.
#TITLE ""
#ARTIST ""
#DESIGNER ""
#DIFFICULTY 0
#PLAYLEVEL
#SONGID ""
#WAVE ""
#WAVEOFFSET 0
#JACKET ""
#REQUEST "ticks_per_beat 480"
#00002: 4
#BPM01: 179
#00008: 01
#TIL00: "90'1917:10000, 90'1918:1"
#VOLUME: ""
#HISPEED 00
#MEASUREHS 00
#06114:00000014
#06112:00140000
#06118:14
#0611a:0014
#0001a:14
#00112:14
#00218:14
#00214:0014
#00318:14
#00412:14
#0051a:14
#00614:14
#00618:0014
#00918:14
#00812:0014
#0081a:24
#01114:14
#0101a:0014
#01012:24
#01214:00140014
#01218:2414
#0131a:1414
#01312:00140014
#01418:1414
#01414:00140014
#0181a:14
#01814:00140000
#01810:41
#01913:14
#01919:00140000
#02018:14
#02012:00140000
#02114:1414
#02118:00140014
#02212:14
#02218:00140000
#02319:14
#02313:00140000
#02414:14
#0241a:00140000
#0261a:14
#02612:00140000
#02713:14
#02719:00140000
#02818:14
#02814:00140000
#02810:41
#02912:1414
#0291a:00140014
#03014:14
#03018:00140000
#03119:14
#03113:00140000
#0341a:1414
#03414:00140000
#03512:1414
#03518:00140000
#03618:1414
#03614:00140014
#0371a:1414
#03712:00140000
#03812:1414
#03818:00140000
#03810:41
#0391a:1414
#03914:00140000
#04014:1414
#04018:00140014
#04112:14
#0421a:14
#04214:00140000
#04218:0014
#04312:14
#04318:00140000
#04314:0014
#0441a:14
#04412:00140000
#04418:0014
#04414:00000014
#0451a:14
#04516:00140000
#04512:0014
#04812:14
#0481a:00140000
#04818:00000014
#04814:0014
#04810:41
#04914:14
#0491f:11
#05414:00140014
#05418:2414
#05814:00140000
#05818:0014
#05812:00000014
#0581a:24
#0581f:21
#05918:14
#0591a:0014
#05914:00140000
#05912:00000014
#05910:41
#06018:14
#06014:00140014
#0601a:0014
#0621a:0014
#06212:24000014
#06318:14
#06314:00140000
#0631a:0014
#06312:00000014
#06416:1414
#0641a:00140000
#06412:00000014
#06918:00000014
#0691a:00140000
#06914:14
#06912:0014
#06618:00140000
#06614:0014
#0661a:00000014
#06612:24
#06714:14
#06712:0014
#06718:00140000
#0671a:00000014
#06814:14
#06818:00140014
#06812:0014
#07012:0014
#0701a:24000014
#07114:14
#07118:00140000
#07112:0014
#0711a:00000014
#07418:14
#07414:00140000
#07410:41
#07712:14
#07716:00140014
#0771a:0014
#07812:14
#07818:00140000
#07514:14
#07518:00140000
#07618:14
#07614:00140000
#0791a:14
#07914:00140000
#08012:14
#08018:00140000
#08212:14
#08218:00140000
#0851a:14
#08516:00140014
#08512:0014
#0861a:14
#08614:00140000
#0831a:14
#08314:00140000
#08412:14
#08418:00140000
#08712:14
#08718:00140000
#03312:00140000
#0891a:00140000
#04718:00002424
#04714:0000000000240000
#0471a:24
#04712:24
#01712:00000024
#05719:25
#05712:25
#0551a:2424
#05512:00240024
#07312:26
#00714:24
#01518:2626
#01512:00260026
#01618:26
#01619:0035
#0251a:24
#02512:00240000
#02518:0024
#02514:00000024
#0461a:24
#04612:24
#04613:0024
#04619:0024
#05615:26
#05613:0024
#05619:0024
#06518:2626
#06512:00260000
#07216:2424
#07212:00240000
#0721a:00000024
#0811a:24
#08118:00240000
#08116:0024
#08114:00000024
#0881a:24
#03212:24
#01752:00000014
#0175a:14
#05759:0015
#05752:0015
#06252:14
#06154:00000064
#07352:16
#00754:14
#00958:54
#01154:64
#01658:56
#04152:54
#04154:0014
#04954:64
#04952:0014
#06558:0016
#06958:00000054
#0705a:14
#08958:00000014
#0895a:00640000
#03354:00000014
#03352:00540000
#009380:14
#0093a0:0024
#011340:14
#011320:0024
#016380:16
#016390:0035
#0173a0:24
#0183a0:00001424
#019330:00001424
#020380:00001424
#022320:00001424
#023390:00001424
#024340:00001424
#0263a0:00001424
#027330:00001424
#028380:00001424
#030340:00001424
#031390:00001424
#032320:14000034
#032340:0000003400000000
#033340:34000024
#033320:00340000
#041320:14
#041340:0024
#049340:14
#049320:0024
#0503a0:14
#050380:0034
#051380:34
#0513a0:0024
#052320:14
#052340:0034
#053340:34
#053320:0024
#056350:16260000
#056330:00001424
#056391:00001424
#057391:1525
#057320:1525
#061340:00000014
#062320:24
#069380:00000014
#0703a0:24
#0743a0:00001424
#075320:00001424
#0763a0:00001424
#078340:00001424
#079380:00001424
#080340:00001424
#082320:0014
#082340:00000024
#0833a0:0014
#083380:00000024
#084320:0014
#084340:00000024
#086380:0014
#0863a0:00000024
#087340:0014
#087320:00000024
#0883a0:14000034
#088380:0000003400000000
#089380:34000024
#0893a0:00340000
#0909d0:000000000000000000000000000000000000000000000000000000000000000000000000000000000000000000000000000000000000000000000000000000000000000000000000000000000000000000000000000000000000000000000000000000000000000000000000000000000000000000000000000000000000000000000000000000000000000000000000000000000000000000000000000000000000000000000000000000000000000000000000000000000000000000000000000000000000000000000000000000000000000000000000000000000000000000000000000000000000000000000000000000000000000000000000000000000000000000000000000000000000000000000000000000000000000000000000000000000000000000000000000000000000000000000000000000000000000000000000000000000000000000000000000000000000000000000000000000000000000000000000000000000000000000000000000000000000000000000000000000000000000000000000000000000000000000000000000000000000000000000000000000000000000000000000000000000000000000000000000000000000000000000000000000000000000000000000000000000000000000000000000000000000000000000000000000000000000000000000000000000000000000000000000000000000000000000000000000000000000000000000000000000000000000000000000000000000000000000000000000000000000000000000000000000000000000000000000000000000000000000000000000000000000000000000000000000000000000000000000000000000000000000000000000000000000000000000000000000000000000000000000000000000000000000000000000000000000000000000000000000000000000000000000000000000000000000000000000000000000000000000000000000000000000000000000000000000000000000000000000000000000000000000000000000000000000000000000000000000000000000000000000000000000000000000000000000000000000000000000000000000000000000000000000000000000000000000000000000000000000000000000000000000000000000000000000000000000000000000000000000000000000000000000000000000000000000000000000000000000000000000000000000000000000000000000000000000000000000000000000000000000000000000000000000000000000000000000000000000000000000000000000000000000000000000000000000000000000000000000000000000000000000000000000000000000000000000000000000000000000000000000000000000000000000000000000000000000000000000000000000000000000000000000000000000000000000000000000000000000000000000000000000000000000000000000000000000000000000000000000000000000000000000000000000000000000000000000000000000000000000000000000000000000000000000000000000000000000000000000000000000000000000000000000000000000000000000000000000000000000000000000000000000000000000000000000000000000000000000000000000000000000000000000000000000000000000000000000000000000000000000000000000000000000000000000000000000000000000000000000000000000000000000000000000000000000000000000000000000000000000000000000000000000000000000000000000000000000000000000000000000000000000000000000000000000000000000000000000000000000000000000000000000000000000000000000000000000000000000000000000000000000000000000000000000000000000000000000000000000000000000000000000000000000000000000000000000000000000000000000000000000000000000000000000000000000000000000000000000000000000000000000000000000000000000000000000000000000000000000000000000000000000000000000000000000000000000000000000000000000000000000000000000000000000000000000000000000000000000000000000000000000000000000000000000000000000000000000000000000000000000000000000000000000000000000000000000000000000000000000000000000000000000000000000000000000000000000000000000000000000000000000000000000000000000000000000000000000000000000000000000000000000000000000000000000000000000000000000000000000000000000000000000000000000000000000000000000000000000000000000000000000000000000000000000000000000000000000000000000000000000000000000000000000000000000000000000000000000000000000000000000000000000000000000000000000000000000000000000000000000000000000000000000000000000000000000000000000000000000000000000000000000000000000000000000000000000000000000000000000001121
