This file was generated by Ched 2.7.0.0.
#TITLE ""
#ARTIST ""
#DESIGNER ""
#DIFFICULTY 0
#PLAYLEVEL
#SONGID ""
#WAVE ""
#WAVEOFFSET 0
#JACKET ""
#REQUEST "ticks_per_beat 480"
#00002: 4
#BPM01: 152
#00008: 01
#TIL00: ""
#VOLUME: ""
#HISPEED 00
#MEASUREHS 00
#07217:0013000000000013
#07214:00130000
#07219:0000001300000000
#07212:13000013
#07216:0013
#0721b:0000000000130000
#07314:13000013
#07319:0013000000000013
#07317:0000000000130000
#07312:0013
#07316:00130000
#0731b:0000001300000000
#07415:0014000000140000
#07418:00140014
#0741a:0000001400000014
#07412:1414
#07515:14
#07512:00530000
#04417:00000034140034000000000000000000
#0441a:1414
#04412:0014
#00115:13
#00112:0013
#00619:00000014
#00616:14
#00617:00140000
#00618:0014
#0071a:1414
#00718:00140014
#00712:1414
#00714:00140014
#00215:13
#00512:14
#00513:00140000
#00514:0014
#00515:00000014
#01018:00000013
#01015:1300000000000013
#01012:00000033000000000000000000000000
#01215:00000013
#01218:0000000000000013
#01618:0000001300000000
#01615:0000000000000013
#01612:24
#01614:0024
#01514:00000014
#0151a:0000000000140000
#01518:1300000000000014
#01512:00000033130033000000000000000000
#01515:13
#0151b:00000033130033000000000000000000
#01912:00000013
#01918:00000013000000000000000013000000
#0191b:2313
#01915:0023
#03615:13000013
#03618:1300000000000013
#0361a:0024
#03612:0024
#04217:00000014
#0421a:0014
#04212:14
#04318:0013
#04315:0000001300000013
#0431b:00000000000000000000333300000000
#04715:00000013
#04718:0000000000000013
#04717:14
#0471a:00000034000000000000000000000000
#04112:14
#0411a:0014
#04812:13
#0481b:0023
#04815:00000033000033000000000000000000
#04818:00000000000000000000333333000000
#04915:13000013
#04918:1300000000000013
#04912:00000013000000000000000000000000
#0491b:00000013000000000000000000000000
#0521a:00140000
#05212:00000014
#05214:00141400
#05218:14000014
#05518:0013002600001400
#05512:0000000026000014
#05514:24000024000000000000000000000000
#0611a:14
#06116:0014
#0621b:00000013
#06215:0000001300000000
#06218:0023
#0171b:00130000
#01712:0013000000000000
#01715:0000001300000000
#01718:24
#01717:00000025
#06318:13000013
#06315:0000000000130013
#06312:23
#0571a:1400000000000014
#05714:00000014
#00318:13
#0031b:0013
#00418:13
#0081a:14
#00812:14
#00818:0023
#00815:0023
#00915:0013
#00912:00000013
#0091b:0000000000000013
#00918:0000000000130000
#00910:41
#01115:00001313
#01118:0000000000130000
#01318:0013
#0131b:00000013
#01312:0000000000000013
#01315:0000000000130000
#01818:0013
#0181b:13000013
#01812:13
#01815:0000130000230023
#02015:13
#02012:00000013
#0201b:13
#02018:0000000000230023
#02010:41
#02318:00000013
#02317:00000014000000000000000000000000
#0231a:2414
#02315:00000013
#02312:0024
#0221a:00000014
#02218:13
#02212:13
#02214:0000000000240024
#0241a:14
#02415:0013
#02418:0013
#02412:14000000000000000033333313333333
#0241b:00000000000000000033333313333333
#02813:00000014
#02814:0014
#02818:0000000000140000
#02816:14
#02815:00140000
#02917:00140000
#0291a:143434000000000000000000000000000000000000000000000000000000000000000000240000000000000000000000
#02912:00000024
#02910:41
#03215:00140000
#03212:143434000000000000000000000000000000000000000000000000000000240000000000240000000000000000000000
#0321a:0000000000242400
#03518:13
#0351b:00130000
#03515:0013
#03512:00000013
#03715:13
#03718:00000013
#03712:00130000
#03815:00000013
#03818:13
#0381b:00130000
#03810:41
#04518:13
#04515:13
#04512:0025
#04519:0025
#05118:00000014
#05114:0000000000000014
#05115:24
#05112:00000034000000000000000000000000
#0531a:00140024
#05318:14
#05314:0014
#05312:00000024
#04614:0000000000140000
#0461a:24
#04616:00000024000000000000000000000000
#04612:0000002400003400
#04618:0024
#0461f:21
#04613:00000000000000000000003400000000
#04610:0041
#05018:0000000000140000
#05012:24
#05016:00000024000000000000000000000000
#0501a:0000002400003400
#05014:0024
#05019:00000000000000000000003400000000
#05415:0013000000000000
#05418:24000014000000000000000000000000
#05414:0000001400000000
#0541a:0000000014000014
#05412:0000000000140000
#05416:00000014
#05615:0013000000000000
#05612:0000001400000014
#0561a:0014
#05614:0000000000140000
#05618:14000014000000000000000014000000
#05915:0013000000000000
#0591a:0000000000000014
#05914:00000014
#05918:24000024000000002600000000000000
#05912:0000002600000000
#05818:0013001400000000
#05814:14000014000000000000000000000000
#05812:0000000014000014
#0581a:0000000000140000
#05816:00000014
#05810:41
#0601a:0000001400000000
#06018:0013000014000000
#06016:0000000000140000
#06014:14000014000000000000000014000000
#06012:0000000000000014
#06412:00000013
#06418:23
#06415:0023
#06515:13000013
#06518:0000000000130013
#0651b:23
#0661b:00000013
#06615:23
#06618:0023
#06718:13
#06712:00000024
#0671a:00000024
#06715:23
#06812:13
#06818:0013
#06815:00000053000053000000000000000000
#0681b:00000000000000000000005300005300
#06912:1300000000130000
#0691b:0013
#06918:00000013
#06915:00000053000053000000000000001300
#0701b:13
#07015:0013
#07018:00000053000053000000000000000000
#07012:00000000000000000000005300005300
#0711b:13
#07115:0013
#0711a:00000024
#07112:00000024
#07118:00000053000053000000000000000000
#0211b:00000013
#02115:00000013000000000000000013000000
#02112:2313
#02118:0023
#02519:00140000
#02518:0014
#02517:00000014
#02616:14
#02615:00140000
#02614:0014
#02613:00000014
#02712:14
#0271a:14
#02719:00140000
#02718:0014
#02717:00000014
#03319:1313
#03314:0013000000130000
#03312:0000001300000013
#03317:00230023
#0341b:1313
#03416:0013000000130000
#03414:0000001300000013
#03419:00230023
#03918:14
#0391f:11
#03914:0024000000640000
#03912:0000006400000064
#03012:00140024
#03015:143434000000000000000000000000000000000000000000000000000000000000000000000000000000000000000000
#0301a:00000024
#0311a:00140024
#03117:143434000000000000000000000000000000000000000000000000000000000000000000000000000000000000000000
#03112:00000024
#01418:23
#0141b:00000033000000000000000000000000
#04018:0024000000640000
#0401a:0000006400000064
#04457:00240000
#0445a:5454
#04452:0064
#00155:53
#00152:0063
#00758:00240024
#0075a:6464
#00752:5454
#00754:00240024
#00255:53
#00252:0013
#0145b:0013
#01458:63
#0195b:5353
#01952:00000053
#01958:00000023000000000000000053000000
#01955:0053
#04257:00000064
#0425a:0064
#04252:64
#04358:0053
#0435a:14
#04152:64
#0415a:0054
#04955:6313
#04958:6313
#0495b:00000023000000000000000000000000
#04952:00000023000000000000000000000000
#0525a:00240000
#05252:00000024
#05258:64
#05254:0054
#06156:0024
#0615a:54
#0625b:00000053
#06258:0053
#0625a:44
#07555:54
#01652:14
#06358:53
#06352:63
#04852:53
#0485b:0063
#00358:63
#0035b:0053
#00458:63
#0045b:0013
#0085a:54
#00858:0013
#00852:64
#00855:0013
#01055:53
#01052:0013
#01555:63
#01552:00230000
#0155b:00230000
#01558:53
#01757:00000015
#02055:53
#0205b:53
#02358:00000053
#02357:00000024000000000000000000000000
#0235a:5454
#02352:0064
#02355:00000063
#0245a:54
#02455:0053
#02458:0063
#02452:64000023
#0245b:00000023
#02559:15
#02552:15
#02853:00000014
#02957:00240000
#0295a:54
#03255:00240000
#03252:64
#03558:63
#03555:0053
#03552:00000023
#0355b:00230000
#03658:63
#03655:63
#0365a:0014
#03652:0014
#03755:6313
#03752:00630000
#03858:5313
#0385b:00530000
#04558:23
#04555:23
#04559:0015
#04552:0015
#04757:64
#0475a:0014
#05155:54
#05152:0014
#0535a:00240014
#05358:64
#05352:00000014
#04654:0000000000540000
#05058:0000000000640000
#0575a:54
#05757:0014
#05958:0016
#06452:00000063
#06455:0063
#06555:63
#0655b:53
#0665b:00000053
#06658:0053
#06758:53
#0675a:00000014
#06752:00000014
#06755:63
#06852:53
#06858:0053
#06952:53
#0705b:63
#07055:0063
#0715b:63
#07152:00000014
#0715a:00000014
#0215b:00000063
#02155:00000023000000000000000063000000
#02152:6363
#02158:0063
#02258:63
#02252:63
#03052:00240000
#03055:54
#0315a:00240000
#03157:64
#05552:0016
#01255:0013
#01258:0013
#001350:13
#001320:0033
#002350:33
#002320:0023
#003380:13
#0033b0:0033
#004380:33
#0043b0:0023
#0073a0:1434
#007380:00540054
#0083a0:34
#008380:0023
#007321:1434
#007341:00540054
#008321:34
#008351:0023
#0093b1:1300002300000000
#009381:00000033000000000000000000000000
#010351:13
#010321:00000033000033002300000000000000
#011381:13000033000023000000000000000000
#011381:0000000000000013
#012381:0023
#012350:1323
#013320:1300002300000000
#013350:00000033000000000000000000000000
#014380:13
#0143b0:00000033000033002300000000000000
#014350:00000013
#015350:3323
#015320:00000033530033000000000000000000
#015381:1323
#0153b1:00000033530033000000000000000000
#017381:0013
#017371:00000025
#0193b1:1300003333000000
#019381:00000033000000000000000033000000
#0203b1:33
#020381:0023
#019350:0013
#019320:00000033
#020350:33
#020320:0023
#021320:1300003333000000
#021350:00000033000000000000000033000000
#022320:33
#022350:0023
#021381:0013
#0213b1:00000033
#022381:33
#0223b1:0023
#0233a1:1400003434000000
#023371:00000034000000000000000000000000
#023381:00000033
#0243a1:34
#024381:0033
#0243b1:00000000000000000033333333333333
#025391:25
#023320:0014
#023350:00000033
#024320:34000000000000000033333333333333
#024350:0033
#025320:25
#0293a0:143434000000000000000000000000000000000000000000240000000000000000000000000000000000000000000000
#029370:00540000
#030350:143434000000000000000000000000000000000000000000240000000000000000000000000000000000000000000000
#030320:00540000
#031370:143434000000000000000000000000000000000000000000240000000000000000000000000000000000000000000000
#0313a0:00540000
#032320:143434000000000000000000000000000000000000000000240000000000000000000000000000000000000000000000
#032350:00540000
#035380:1323
#0353b0:00330000
#035351:0013
#035321:00000033
#036351:33
#036321:0024
#036380:13
#0363a0:0024
#037350:1323
#037320:00330000
#038380:1323
#0383b0:00330000
#041320:14
#041340:00240000
#0413a0:0014
#041380:00000024
#042320:14
#042340:00240000
#0423a0:0014
#042370:00000034
#0433a0:24
#043380:0013
#0433b0:00000000000000000000333323000000
#0443a0:1434
#044370:00000034540034000000000000000000
#045380:53
#045390:0025
#044321:0014
#045351:53
#045321:0025
#046341:0000000000140000
#046331:00000000000000000000003400000000
#046321:0000000000003434
#047321:24
#047370:14
#0473a0:00000034000034002400000000000000
#048320:13
#048350:00000033000033000000000000000000
#049350:3300005323000000
#049320:00000053000000000000000000000000
#0483b1:0013
#048381:00000000000000000000333333000000
#049381:3300005323000000
#0493b1:00000053000000000000000000000000
#050381:0000000000140000
#050391:00000000000000000000003400000000
#0503a1:0000000000003434
#0513a1:24
#051350:14
#051320:00000034000034002400000000000000
#052380:1424
#0523a0:00540000
#052341:0014
#052321:00000054
#053341:24
#053380:1424
#0533a0:00540000
#0573a0:14
#057370:0024
#0613a0:14
#061360:0054
#0623a0:24
#062380:0013
#0623b0:00000033
#063380:33
#0633b0:0023
#063321:13
#063351:0023
#064381:1300002300000000
#0643b1:00000033000000000000000000000000
#064351:0013
#064321:00000033
#065351:33
#065321:0023
#0653b0:13
#065380:0023
#066350:1300002300000000
#066320:00000033000000000000000000000000
#066380:0013
#0663b0:00000033
#067380:33
#0673b0:0023
#067351:13
#067321:0023
#068321:13
#068351:00000023000000000000000000000000
#068381:0013
#0683b1:00000000000000000000002300000000
#069321:13
#069351:00000023000000000000000000000000
#0703b1:13
#070381:00000023000000000000000000000000
#070351:0013
#070321:00000000000000000000002300000000
#0713b1:13
#071381:00000023000000000000000000000000
#075351:14
#075321:00230000
#039940:0014000000540000
#039920:000000000000000000000000000000000000000000000000000000000000000000000000000000000000000000000000000000000000000000000000000000000000000000000000000000000000000000000000000000000000000000000000000000000000000000000000000000000000000000000000000000000000000000000000000000000000000000000000000000000000000000000000000000000000000000000000000000000000000000000000000000000000000000000000000000000000000000000000000000000000000000000000000000000000000000000000000000000000000000000000000000000000000000000000000000000000000000000000000000000000000000000000000000000000000000000000000000000000000000000000000000000000000000000000000000000000000000000000000000000000000000000000000000000000000000000000000000000000000000000000000000000000000000000000000000000000000000000000000000000000000000000000000000000000000000000000000000000000000000000000000000000000000000000000000000000000000000000000000000000000000000000000000000000000000000000000000000000000000000000000000000000000000000000000000000000000000000000000000000000000000000000000000000000000000000000000000000000000000000000000000000000000000000000000000000000000000000000000000000000000000000000000000000000000000000000000000000000000000000000000000000000000000000000000000000000000000000000000000000000000000000000000000000000000000000000000000000000000000000000000000000000000000000000000000000000000000000000000000000000000000000000000000000000000000000000000000000000000000000000000540000000000000000000000000000000000000000000000000000000000000000000000000000000000000000000000000000000000000000000000000000000000000000000000000000000000000000000000000000000000000000000000000000000000000000000000000000000000000000000000000000000000000000000000000000000000000000000000000000000000000000000000000000000000000000000000000000000000000000000000000000000000000000000000000000000000000000000000000000000000000000000000000000000000000000000000000000000000000000000000000000000000000000000000000000000000000000000000000000000000000000000000000000000000000000000000000000000000000000000000000000000000000000000000000000000000000000000000000000000000000000000000000000000000000000000000000000000000000000000000000000000000000000000000000000000000000000000000000000000000000000000000000000000000000000000000000000000000000000000000000000000000000000000000000000000000000000000000000000000000000000000000000000000000000000000000000000000000000000000000000000000000000000000000000000000000000000000000000000000000000000000000000000000000000000000000000000000000000000000000000000000000000000000000000000000000000000000000000000000000000000000000000000000000000000000000000000000000000000000000000000000000000000000000000000000000000000000000000000000000000000000000000000000000000000000000000000000000000000000000000000000000000000000000000000000000000000000000000000000000000000000000000000000000000000000000000000000000000000000000000000000000000000000000000000000000000000000000000000000000000000000000000000000000000000000000000000000000000000000000000000000000000000000000000000000000000000000000000000000000000000000000000000000000000000000000000000000000000000000000000000000000000000000000000000000000000000000000000000000000000000000000000000000000000000000000000000000000000000000000000000000000000000000000000000000000000000000000000000000000000000000000000000000000000000000000000000000000000054545454240000000000000000000000000000000000000000000000000000000000000000000000000000000000000000000000000000000000000000000000000000000000000000000000000000000000000000000000000000000000000000000000000000000000000000000000000000000000000000000000000000000000000000000000000000000000000000000000000000000000000000000000000000000000000000000000000000000000000000000000000000000000000000000000000000000000000000000000000000000000000000000000000000000000000000000000000000000000000000000000
#040980:0014000000540000
#0409a0:000000000000000000000000000000000000000000000000000000000000000000000000000000000000000000000000000000000000000000000000000000000000000000000000000000000000000000000000000000000000000000000000000000000000000000000000000000000000000000000000000000000000000000000000000000000000000000000000000000000000000000000000000000000000000000000000000000000000000000000000000000000000000000000000000000000000000000000000000000000000000000000000000000000000000000000000000000000000000000000000000000000000000000000000000000000000000000000000000000000000000000000000000000000000000000000000000000000000000000000000000000000000000000000000000000000000000000000000000000000000000000000000000000000000000000000000000000000000000000000000000000000000000000000000000000000000000000000000000000000000000000000000000000000000000000000000000000000000000000000000000000000000000000000000000000000000000000000000000000000000000000000000000000000000000000000000000000000000000000000000000000000000000000000000000000000000000000000000000000000000000000000000000000000000000000000000000000000000000000000000000000000000000000000000000000000000000000000000000000000000000000000000000000000000000000000000000000000000000000000000000000000000000000000000000000000000000000000000000000000000000000000000000000000000000000000000000000000000000000000000000000000000000000000000000000000000000000000000000000000000000000000000000000000000000000000000000000000000000000000000540000000000000000000000000000000000000000000000000000000000000000000000000000000000000000000000000000000000000000000000000000000000000000000000000000000000000000000000000000000000000000000000000000000000000000000000000000000000000000000000000000000000000000000000000000000000000000000000000000000000000000000000000000000000000000000000000000000000000000000000000000000000000000000000000000000000000000000000000000000000000000000000000000000000000000000000000000000000000000000000000000000000000000000000000000000000000000000000000000000000000000000000000000000000000000000000000000000000000000000000000000000000000000000000000000000000000000000000000000000000000000000000000000000000000000000000000000000000000000000000000000000000000000000000000000000000000000000000000000000000000000000000000000000000000000000000000000000000000000000000000000000000000000000000000000000000000000000000000000000000000000000000000000000000000000000000000000000000000000000000000000000000000000000000000000000000000000000000000000000000000000000000000000000000000000000000000000000000000000000000000000000000000000000000000000000000000000000000000000000000000000000000000000000000000000000000000000000000000000000000000000000000000000000000000000000000000000000000000000000000000000000000000000000000000000000000000000000000000000000000000000000000000000000000000000000000000000000000000000000000000000000000000000000000000000000000000000000000000000000000000000000000000000000000000000000000000000000000000000000000000000000000000000000000000000000000000000000000000000000000000000000000000000000000000000000000000000000000000000000000000000000000000000000000000000000000000000000000000000000000000000000000000000000000000000000000000000000000000000000000000000000000000000000000000000000000000000000000000000000000000000000000000000000000000000000000000000000000000000000000000000000000000000000000000000000000000000000000000054545454240000000000000000000000000000000000000000000000000000000000000000000000000000000000000000000000000000000000000000000000000000000000000000000000000000000000000000000000000000000000000000000000000000000000000000000000000000000000000000000000000000000000000000000000000000000000000000000000000000000000000000000000000000000000000000000000000000000000000000000000000000000000000000000000000000000000000000000000000000000000000000000000000000000000000000000000000000000000000000000000
#068950:000000000000000000000000000000000000000000000000000000000000000000000000000000000000000000000000000000000000000000000000000000000000000000000000000000000000000000000000000000000000000000000000000000000000000000000000000000000000000000000000000000000000000000000000000000000000000000000000000000000000000000000000000000000000000000000000000000000000000000000000000000000000000000000000000000000000000000000000000000000000000000000000000000000000000000000000000000000000000000000000000000000000000000000000000000000000000000000000000000000000000000000000000000000000000000000000000000000000000000000000000000000000000000000000000000000000000000000000000000000000000000000000000000000000000000000000000000000000000000000000130000000000000000000000000000000000000000000000000000000000000000000000000000000000000000000000000000000000000000000000000000000000000000000000000000000000000000000000000000000000000000000000000000000000000000000000000000000000000000000000000000000000000000000000000000000000000000000000000000000000000000000000000000000000000000000000000000000000000000000000000000000000000000000000000000000000000000000000000000000000000000000000000000000000000000000000000000000000000000000000000000000000000000000000000000000000000000000000000000000000000000000000000000000000000000000000000000000000000000000000000000000000000000000000000000000000000000000000000000000000000000000000000000000000000000000000000000000000000000535353230000000000000000000000000000000000000000000000000000000000000000000000000000000000000000000000000000000000000000000000000000000000000000000000000000000000000000000000000000000000000000000000000000000000000000000000000000000000000000000000000000000000000000000000000000000000000000000000000000000000000000000000000000000000000000000000000000000000000000000000000000000000000000000000000000000000000000000000000000000000000000000000000000000000000000000000000000000000000000000000000000000000000000000000000000000000000000000000000000000000000000000000000000000000000000000000000000000000000000000000000000000000000000000000000000000000000000000000000000000000000000000000000000000000000000000000000000000000000000000000000000000000000000000000000000000000000000000000000000000000000000000000000000000000000000000000000000000000000000000000000000000000000000000000000000000000000000000000000000000000000000000000000000000000000000000000000000000000000000000000000000000000000000000000000000000000000000000000000000000000000000000000000000000000000000000000000000000000000000000000000000000000000000000000000000000000000000000000000000000000000000000000000000000000000000000000000000000000000000000000000000000000000000000000000000000000000000000000000000000000000000000000000000000000000000000000000000000000000000000000000000000000000000000000000000000000000000000000000000000000000000000000000000000000000000000000000000000000000000000000000000000000000000000000000000000000000000000000000000000000000000000000000000000000000000000000000000000000000000000000000000000000000000000000000000000000000000000000000000000000000000000000000000000000000000000000000000000000000000000000000000000000000000000000000000000000000000000000000000000000000000000000000000000000000000000000000000000000000000000000000000000000000000000000000000000000000000000000000000000000000000000000000000000000000000000000000000000000000000000000000000000000000000000000000000000000000000000000000000000000000000000000000000000000000000000000000000000000000000000000000000000000000000000000000000000000000000000000000000000000000000000000000000000000000000000000000000000000000000000000000000000000000000000000000000000000000000000000000000000000000000000000000000000000000000000000000000000000000000000000000000000000000000000000000000000000000000000000000000000000000000000000000000000000000000000000000000000000000000000000
#0689b0:000000000000000000000000000000000000000000000000000000000000000000000000000000000000000000000000000000000000000000000000000000000000000000000000000000000000000000000000000000000000000000000000000000000000000000000000000000000000000000000000000000000000000000000000000000000000000000000000000000000000000000000000000000000000000000000000000000000000000000000000000000000000000000000000000000000000000000000000000000000000000000000000000000000000000000000000000000000000000000000000000000000000000000000000000000000000000000000000000000000000000000000000000000000000000000000000000000000000000000000000000000000000000000000000000000000000000000000000000000000000000000000000000000000000000000000000000000000000000000000000000000000000000000000000000000000000000000000000000000000000000000000000000000000000000000000000000000000000000000000000000000000000000000000000000000000000000000000000000000000000000000000000000000000000000000000000000000000000000000000000000000000000000000000000000000000000000000000000000000000000000000000000000000000000000000000000000000000000000000000000000000000000000000000000000000000000000000000000000000000000000000000000000000000000000000000000000000000000000000000000000000000000000000000000000000000000000000000000000000000000000000000000000000000000000000000000000000000000000000000000000000000000000000000000000000000000000000000000000000000000000000000000000000000000000000000000000000000000000000000000000000000000000000000000000000000000000000000000000000000000000000000000000000000000000000000000000000000000000000000000000000000000000000000000000000000000000000000000000000000000000000000000000000000000000000000000000000000000000000000000000000000000000000000000000000000000000000000000000000000000000000000000000000000000000000000000000000000000000000000000000000000000000000000000000000000000000000000000000000000000000000000000000000000000000000000000000000000000000000000000000000000000000000000000000000000000000000000000000000000000000000000000000000000000000000000000000000000000000000000000000000000000000000000000000000000000000000000000000000000000000000000000000000000000000000000000000000000000000000000000000000000000000000000000000000000000000000000000000000000000000000000000000000000000000000000000000000000000000000000000000000000000000000000000000000000000000000000000000000000000000000000000000000000000000000000000000000000000000000000000000000000000000000000000000000000000000000000000000000000000000000000000000000000000000000000000000000000000000000000000000000000000000000000000000000000000000000000000000000000000000000000000000000000000000000000000000000000000000000000000130000000000000000000000000000000000000000000000000000000000000000000000000000000000000000000000000000000000000000000000000000000000000000000000000000000000000000000000000000000000000000000000000000000000000000000000000000000000000000000000000000000000000000000000000000000000000000000000000000000000000000000000000000000000000000000000000000000000000000000000000000000000000000000000000000000000000000000000000000000000000000000000000000000000000000000000000000000000000000000000000000000000000000000000000000000000000000000000000000000000000000000000000000000000000000000000000000000000000000000000000000000000000000000000000000000000000000000000000000000000000000000000000000000000000000000000000000000000000000535353230000000000000000000000000000000000000000000000000000000000000000000000000000000000000000000000000000000000000000000000000000000000000000000000000000000000000000000000000000000000000000000000000000000000000000000000000000000000000000000000000000000000000000000000000000000000000000000000000000000000000000000000000000000000000000000000000000000000000000000000000000000000000000000000000000000000000000000000000000000000000000000000000000000000000000000000000000000000000000000000
#069950:000000000000000000000000000000000000000000000000000000000000000000000000000000000000000000000000000000000000000000000000000000000000000000000000000000000000000000000000000000000000000000000000000000000000000000000000000000000000000000000000000000000000000000000000000000000000000000000000000000000000000000000000000000000000000000000000000000000000000000000000000000000000000000000000000000000000000000000000000000000000000000000000000000000000000000000000000000000000000000000000000000000000000000000000000000000000000000000000000000000000000000000000000000000000000000000000000000000000000000000000000000000000000000000000000000000000000000000000000000000000000000000000000000000000000000000000000000000000000000000000130000000000000000000000000000000000000000000000000000000000000000000000000000000000000000000000000000000000000000000000000000000000000000000000000000000000000000000000000000000000000000000000000000000000000000000000000000000000000000000000000000000000000000000000000000000000000000000000000000000000000000000000000000000000000000000000000000000000000000000000000000000000000000000000000000000000000000000000000000000000000000000000000000000000000000000000000000000000000000000000000000000000000000000000000000000000000000000000000000000000000000000000000000000000000000000000000000000000000000000000000000000000000000000000000000000000000000000000000000000000000000000000000000000000000000000000000000000000000000535353230000000000000000000000000000000000000000000000000000000000000000000000000000000000000000000000000000000000000000000000000000000000000000000000000000000000000000000000000000000000000000000000000000000000000000000000000000000000000000000000000000000000000000000000000000000000000000000000000000000000000000000000000000000000000000000000000000000000000000000000000000000000000000000000000000000000000000000000000000000000000000000000000000000000000000000000000000000000000000000000000000000000000000000000000000000000000000000000000000000000000000000000000000000000000000000000000000000000000000000000000000000000000000000000000000000000000000000000000000000000000000000000000000000000000000000000000000000000000000000000000000000000000000000000000000000000000000000000000000000000000000000000000000000000000000000000000000000000000000000000000000000000000000000000000000000000000000000000000000000000000000000000000000000000000000000000000000000000000000000000000000000000000000000000000000000000000000000000000000000000000000000000000000000000000000000000000000000000000000000000000000000000000000000000000000000000000000000000000000000000000000000000000000000000000000000000000000000000000000000000000000000000000000000000000000000000000000000000000000000000000000000000000000000000000000000000000000000000000000000000000000000000000000000000000000000000000000000000000000000000000000000000000000000000000000000000000000000000000000000000000000000000000000000000000000000000000000000000000000000000000000000000000000000000000000000000000000000000000000000000000000000000000000000000000000000000000000000000000000000000000000000000000000000000000000000000000000000000000000000000000000000000000000000000000000000000000000000000000000000000000000000000000000000000000000000000000000000000000000000000000000000000000000000000000000000000000000000000000000000000000000000000000000000000000000000000000000000000000000000000000000000000000000000000000000000000000000000000000000000000000000000000000000000000000000000000000000000000000000000000000000000000000000000000000000000000000000000000000000000000000000000000000000000000000000000000000000000000000000000000000000000000000000000000000000000000000000000000000000000000000000000000000000000000000000000000000000000000000000000000000000000000000000000000000000000000000000000000000000000000000000000000000000000000000000000000000000000000000000000000
#070980:000000000000000000000000000000000000000000000000000000000000000000000000000000000000000000000000000000000000000000000000000000000000000000000000000000000000000000000000000000000000000000000000000000000000000000000000000000000000000000000000000000000000000000000000000000000000000000000000000000000000000000000000000000000000000000000000000000000000000000000000000000000000000000000000000000000000000000000000000000000000000000000000000000000000000000000000000000000000000000000000000000000000000000000000000000000000000000000000000000000000000000000000000000000000000000000000000000000000000000000000000000000000000000000000000000000000000000000000000000000000000000000000000000000000000000000000000000000000000000000000130000000000000000000000000000000000000000000000000000000000000000000000000000000000000000000000000000000000000000000000000000000000000000000000000000000000000000000000000000000000000000000000000000000000000000000000000000000000000000000000000000000000000000000000000000000000000000000000000000000000000000000000000000000000000000000000000000000000000000000000000000000000000000000000000000000000000000000000000000000000000000000000000000000000000000000000000000000000000000000000000000000000000000000000000000000000000000000000000000000000000000000000000000000000000000000000000000000000000000000000000000000000000000000000000000000000000000000000000000000000000000000000000000000000000000000000000000000000000000535353230000000000000000000000000000000000000000000000000000000000000000000000000000000000000000000000000000000000000000000000000000000000000000000000000000000000000000000000000000000000000000000000000000000000000000000000000000000000000000000000000000000000000000000000000000000000000000000000000000000000000000000000000000000000000000000000000000000000000000000000000000000000000000000000000000000000000000000000000000000000000000000000000000000000000000000000000000000000000000000000000000000000000000000000000000000000000000000000000000000000000000000000000000000000000000000000000000000000000000000000000000000000000000000000000000000000000000000000000000000000000000000000000000000000000000000000000000000000000000000000000000000000000000000000000000000000000000000000000000000000000000000000000000000000000000000000000000000000000000000000000000000000000000000000000000000000000000000000000000000000000000000000000000000000000000000000000000000000000000000000000000000000000000000000000000000000000000000000000000000000000000000000000000000000000000000000000000000000000000000000000000000000000000000000000000000000000000000000000000000000000000000000000000000000000000000000000000000000000000000000000000000000000000000000000000000000000000000000000000000000000000000000000000000000000000000000000000000000000000000000000000000000000000000000000000000000000000000000000000000000000000000000000000000000000000000000000000000000000000000000000000000000000000000000000000000000000000000000000000000000000000000000000000000000000000000000000000000000000000000000000000000000000000000000000000000000000000000000000000000000000000000000000000000000000000000000000000000000000000000000000000000000000000000000000000000000000000000000000000000000000000000000000000000000000000000000000000000000000000000000000000000000000000000000000000000000000000000000000000000000000000000000000000000000000000000000000000000000000000000000000000000000000000000000000000000000000000000000000000000000000000000000000000000000000000000000000000000000000000000000000000000000000000000000000000000000000000000000000000000000000000000000000000000000000000000000000000000000000000000000000000000000000000000000000000000000000000000000000000000000000000000000000000000000000000000000000000000000000000000000000000000000000000000000000000000000000000000000000000000000000000000000000000000000000000000000000000000000000000000000
#070920:000000000000000000000000000000000000000000000000000000000000000000000000000000000000000000000000000000000000000000000000000000000000000000000000000000000000000000000000000000000000000000000000000000000000000000000000000000000000000000000000000000000000000000000000000000000000000000000000000000000000000000000000000000000000000000000000000000000000000000000000000000000000000000000000000000000000000000000000000000000000000000000000000000000000000000000000000000000000000000000000000000000000000000000000000000000000000000000000000000000000000000000000000000000000000000000000000000000000000000000000000000000000000000000000000000000000000000000000000000000000000000000000000000000000000000000000000000000000000000000000000000000000000000000000000000000000000000000000000000000000000000000000000000000000000000000000000000000000000000000000000000000000000000000000000000000000000000000000000000000000000000000000000000000000000000000000000000000000000000000000000000000000000000000000000000000000000000000000000000000000000000000000000000000000000000000000000000000000000000000000000000000000000000000000000000000000000000000000000000000000000000000000000000000000000000000000000000000000000000000000000000000000000000000000000000000000000000000000000000000000000000000000000000000000000000000000000000000000000000000000000000000000000000000000000000000000000000000000000000000000000000000000000000000000000000000000000000000000000000000000000000000000000000000000000000000000000000000000000000000000000000000000000000000000000000000000000000000000000000000000000000000000000000000000000000000000000000000000000000000000000000000000000000000000000000000000000000000000000000000000000000000000000000000000000000000000000000000000000000000000000000000000000000000000000000000000000000000000000000000000000000000000000000000000000000000000000000000000000000000000000000000000000000000000000000000000000000000000000000000000000000000000000000000000000000000000000000000000000000000000000000000000000000000000000000000000000000000000000000000000000000000000000000000000000000000000000000000000000000000000000000000000000000000000000000000000000000000000000000000000000000000000000000000000000000000000000000000000000000000000000000000000000000000000000000000000000000000000000000000000000000000000000000000000000000000000000000000000000000000000000000000000000000000000000000000000000000000000000000000000000000000000000000000000000000000000000000000000000000000000000000000000000000000000000000000000000000000000000000000000000000000000000000000000000000000000000000000000000000000000000000000000000000000000000000000000000000000000000000000000130000000000000000000000000000000000000000000000000000000000000000000000000000000000000000000000000000000000000000000000000000000000000000000000000000000000000000000000000000000000000000000000000000000000000000000000000000000000000000000000000000000000000000000000000000000000000000000000000000000000000000000000000000000000000000000000000000000000000000000000000000000000000000000000000000000000000000000000000000000000000000000000000000000000000000000000000000000000000000000000000000000000000000000000000000000000000000000000000000000000000000000000000000000000000000000000000000000000000000000000000000000000000000000000000000000000000000000000000000000000000000000000000000000000000000000000000000000000000000535353230000000000000000000000000000000000000000000000000000000000000000000000000000000000000000000000000000000000000000000000000000000000000000000000000000000000000000000000000000000000000000000000000000000000000000000000000000000000000000000000000000000000000000000000000000000000000000000000000000000000000000000000000000000000000000000000000000000000000000000000000000000000000000000000000000000000000000000000000000000000000000000000000000000000000000000000000000000000000000000000
#071980:000000000000000000000000000000000000000000000000000000000000000000000000000000000000000000000000000000000000000000000000000000000000000000000000000000000000000000000000000000000000000000000000000000000000000000000000000000000000000000000000000000000000000000000000000000000000000000000000000000000000000000000000000000000000000000000000000000000000000000000000000000000000000000000000000000000000000000000000000000000000000000000000000000000000000000000000000000000000000000000000000000000000000000000000000000000000000000000000000000000000000000000000000000000000000000000000000000000000000000000000000000000000000000000000000000000000000000000000000000000000000000000000000000000000000000000000000000000000000000000000130000000000000000000000000000000000000000000000000000000000000000000000000000000000000000000000000000000000000000000000000000000000000000000000000000000000000000000000000000000000000000000000000000000000000000000000000000000000000000000000000000000000000000000000000000000000000000000000000000000000000000000000000000000000000000000000000000000000000000000000000000000000000000000000000000000000000000000000000000000000000000000000000000000000000000000000000000000000000000000000000000000000000000000000000000000000000000000000000000000000000000000000000000000000000000000000000000000000000000000000000000000000000000000000000000000000000000000000000000000000000000000000000000000000000000000000000000000000000000535353230000000000000000000000000000000000000000000000000000000000000000000000000000000000000000000000000000000000000000000000000000000000000000000000000000000000000000000000000000000000000000000000000000000000000000000000000000000000000000000000000000000000000000000000000000000000000000000000000000000000000000000000000000000000000000000000000000000000000000000000000000000000000000000000000000000000000000000000000000000000000000000000000000000000000000000000000000000000000000000000000000000000000000000000000000000000000000000000000000000000000000000000000000000000000000000000000000000000000000000000000000000000000000000000000000000000000000000000000000000000000000000000000000000000000000000000000000000000000000000000000000000000000000000000000000000000000000000000000000000000000000000000000000000000000000000000000000000000000000000000000000000000000000000000000000000000000000000000000000000000000000000000000000000000000000000000000000000000000000000000000000000000000000000000000000000000000000000000000000000000000000000000000000000000000000000000000000000000000000000000000000000000000000000000000000000000000000000000000000000000000000000000000000000000000000000000000000000000000000000000000000000000000000000000000000000000000000000000000000000000000000000000000000000000000000000000000000000000000000000000000000000000000000000000000000000000000000000000000000000000000000000000000000000000000000000000000000000000000000000000000000000000000000000000000000000000000000000000000000000000000000000000000000000000000000000000000000000000000000000000000000000000000000000000000000000000000000000000000000000000000000000000000000000000000000000000000000000000000000000000000000000000000000000000000000000000000000000000000000000000000000000000000000000000000000000000000000000000000000000000000000000000000000000000000000000000000000000000000000000000000000000000000000000000000000000000000000000000000000000000000000000000000000000000000000000000000000000000000000000000000000000000000000000000000000000000000000000000000000000000000000000000000000000000000000000000000000000000000000000000000000000000000000000000000000000000000000000000000000000000000000000000000000000000000000000000000000000000000000000000000000000000000000000000000000000000000000000000000000000000000000000000000000000000000000000000000000000000000000000000000000000000000000000000000000000000000000000000000000000000
