This file was generated by Ched 2.7.0.0.
#TITLE ""
#ARTIST ""
#DESIGNER ""
#DIFFICULTY 0
#PLAYLEVEL
#SONGID ""
#WAVE ""
#WAVEOFFSET 0
#JACKET ""
#REQUEST "ticks_per_beat 480"
#00002: 4
#BPM01: 152
#00008: 01
#TIL00: ""
#VOLUME: ""
#HISPEED 00
#MEASUREHS 00
#04414:0014
#04412:14
#04418:0014
#0441a:14
#0011a:14
#00118:0014
#0021a:14
#03312:14
#03314:00340000
#05212:00140000
#05216:00000014
#05214:2414
#0381a:14
#03817:0014
#03810:41
#0371a:14
#03717:0014
#00312:14
#00314:0014
#00412:14
#00518:14
#00514:0014
#00618:14
#00714:14
#00718:0014
#00814:14
#00912:0014
#0091a:24
#00910:41
#01018:1414
#01014:00140000
#01112:14
#0111a:0014
#01114:00000014
#0131a:0014
#01312:14
#0151a:14
#01518:0014
#01612:0014
#01718:14
#01714:00140000
#01812:14
#01818:0014
#01912:14
#01913:0014
#01919:00000014
#01918:00140000
#02014:14
#02010:41
#0211a:14
#02119:0014
#02113:00000014
#02114:00140000
#02218:14
#02312:14
#02313:0014
#02319:00000014
#02318:00140000
#02414:14
#02515:00140000
#02519:0014
#02514:00000014
#0251a:24
#02618:14
#02613:00140000
#02617:0014
#02612:00000014
#02715:00140000
#02719:0014
#02714:00000014
#0271a:24
#02818:14
#02813:00140000
#02817:0014
#02812:00000014
#0291a:1414
#02910:41
#03014:1414
#03118:1414
#03212:1414
#0321a:00000024
#0341a:14
#03418:00340000
#0351a:0014
#03512:14
#03614:14
#03912:0014
#0391f:11
#04018:1414
#04014:00140000
#04212:14
#04215:0014
#04112:14
#04115:0014
#0431a:0014
#04614:00140000
#0461a:0014
#04612:00000014
#04618:24
#0461f:21
#04610:0041
#04712:00000014
#04718:14
#04714:00140000
#0471a:0014
#0481a:14
#04814:00140000
#04818:0014
#04812:00000014
#04918:14
#05018:00140000
#05012:0014
#0501a:00000014
#05014:24
#0511a:00000014
#05114:14
#05118:00140000
#05112:0014
#05314:14
#05318:0014
#05319:00000025
#05312:00000025
#05418:0000000000140014
#05414:14001414
#0541a:00140000
#05518:00000014
#05514:2400000000000014
#05512:00000034000000000000000000000000
#0561a:1414
#05618:00140014
#05619:0000000000340034
#0571a:14
#05714:00000014
#05814:0000000000140014
#05818:14001414
#05812:00140000
#05810:41
#05914:00000014
#05918:2400000000000014
#0591a:00000034000000000000000000000000
#06012:1414
#06014:00140014
#06013:0000000000340034
#06112:14
#06115:0014
#06312:00000014
#06318:24
#06416:14
#0641a:00140000
#06414:0024
#06418:00000024
#0651a:00000014
#06514:24
#06616:14
#06612:00140000
#06618:0024
#06614:00000024
#06814:14
#06818:0014
#06914:14
#0691a:0014
#06912:00000014
#07018:14
#07014:0014
#07118:14
#07114:0014
#07119:00000025
#07112:00000025
#07218:14140000
#07214:00001414
#07318:14140000
#07312:0014
#0731a:00000014
#07414:14140000
#07418:00001414
#06712:00000025
#06718:24
#06719:00000025
#01414:2424
#01418:00240000
#04512:0024
#0451a:0024
#06218:0024
#06214:00000024
#07514:24
#04454:0064
#04452:64
#04458:0054
#0445a:54
#0015a:54
#00158:0064
#0025a:54
#03352:54
#05252:00240000
#05256:00000024
#05254:6464
#0385a:64
#03857:0024
#0375a:64
#03757:0024
#00352:64
#00354:0054
#00452:64
#00658:64
#00854:54
#01058:0014
#01258:0014
#01454:0014
#0165a:14
#01558:0054
#0155a:54
#01758:00000014
#02054:64
#02258:54
#02454:64
#02852:00000014
#0345a:64
#0355a:0064
#03552:54
#03654:54
#03652:0014
#0395a:14
#04252:54
#04255:0024
#04152:54
#04155:0024
#04352:14
#04552:0014
#0455a:0014
#04958:64
#0495a:0014
#0475a:0014
#05152:0014
#05354:64
#05554:64
#05552:0014
#05757:0014
#0575a:54
#0565a:5454
#05658:00540054
#05958:54
#0595a:0014
#06052:6464
#06054:00640064
#06152:64
#06155:0024
#06252:14
#06554:54
#06358:64
#06758:64
#0013a0:14
#001380:0034
#0023a0:34
#002380:0024
#003320:14
#003340:0034
#004320:34
#004340:0024
#006380:14
#0063a0:0024
#008340:14
#008320:0024
#012380:1424
#0153a0:14
#015380:0034
#0163a0:24
#017380:00001424
#020340:14
#020320:0024
#022380:14
#0223a0:0024
#024340:14
#024320:0024
#033320:14
#033340:00343424
#0343a0:14
#034380:00343424
#035320:14
#035340:00240000
#0353a0:0014
#035380:00000024
#036340:14
#036320:0024
#0373a0:14
#037370:0054
#0383a0:34
#038370:0054
#0393a0:24
#041320:14
#041350:0054
#042320:34
#042350:0054
#043320:24
#044320:14
#044340:0034
#045320:0024
#0443a1:14
#044381:0034
#0453a1:0024
#049381:14
#0493a1:0024
#052341:1434
#052321:00540000
#052361:00000054
#053341:34
#053321:00240000
#055341:14
#055321:00000034000034002400000000000000
#0563a1:1434
#056381:00340034
#056391:0000000000340034
#0573a1:34
#057371:0024
#059381:14
#0593a1:00000034000034002400000000000000
#060321:1434
#060341:00340034
#060331:0000000000340034
#061321:34
#061351:0054
#062321:24
#063381:14
#0633a1:0024
#065341:14
#065321:0024
#067381:14
#0673a1:0024
