This file was generated by Ched 2.7.0.0.
#TITLE ""
#ARTIST ""
#DESIGNER ""
#DIFFICULTY 0
#PLAYLEVEL
#SONGID ""
#WAVE ""
#WAVEOFFSET 0
#JACKET ""
#REQUEST "ticks_per_beat 480"
#00002: 4
#BPM01: 160
#00008: 01
#TIL00: ""
#VOLUME: ""
#HISPEED 00
#MEASUREHS 00
#00118:14
#00214:14
#00318:14
#00414:14
#0051a:14
#00510:41
#00612:14
#0071a:14
#00812:14
#01719:14
#01813:14
#01919:14
#02013:14
#0211a:14
#02114:0014
#0221a:14
#02312:14
#02318:0014
#02412:14
#0251a:14
#02510:41
#0261a:14
#02714:14
#02814:14
#0291a:14
#02914:0014
#0301a:14
#03112:14
#03118:0014
#03212:14
#03318:14
#03418:14
#03512:14
#03612:14
#03719:15
#03710:41
#03919:15
#03817:15
#04017:15
#04214:14
#04318:14
#04412:14
#04518:14
#04614:14
#04714:0014
#0471a:24
#04710:41
#0481a:14
#04918:0014
#04912:24
#05012:14
#0551a:14
#05514:0014
#0551f:11
#0561a:14
#05712:14
#05718:0014
#05812:14
#05918:14
#06018:14
#06112:14
#06212:14
#06312:0016
#06318:26
#0631f:21
#06512:16
#06518:0016
#06712:0016
#06718:26
#06912:16
#06918:0016
#07012:16
#07018:0016
#07112:16363600
#07114:00000016
#07312:0016
#07318:26
#07512:1616
#07618:1616
#07712:1616
#07818:1616
#07912:26
#07212:36360000
#06410:41
#01310:41
#03759:55
#03959:55
#03857:55
#04057:55
#07152:56
#07154:00000026
#0093a0:14
#0103a0:24
#011340:14
#012340:24
#013380:14
#014380:24
#015320:14
#016320:24
#037390:15
#038370:35
#039390:35
#040370:35
#041390:25
#051390:14
#052390:24
#053330:14
#054330:24
#064380:1626
#066320:1626
#068380:1626
#071320:16363600
#071340:00000036
#072320:36362600
#074380:1626
