This file was generated by Ched 2.7.0.0.
#TITLE ""
#ARTIST ""
#DESIGNER ""
#DIFFICULTY 0
#PLAYLEVEL
#SONGID ""
#WAVE ""
#WAVEOFFSET 0
#JACKET ""
#REQUEST "ticks_per_beat 480"
#00002: 4
#BPM01: 160
#00008: 01
#TIL00: ""
#VOLUME: ""
#HISPEED 00
#MEASUREHS 00
#01318:0016161600161616
#01312:2626
#01310:41
#01418:0016161600161616
#01412:2626
#02718:0000130000000024
#0271b:13
#02715:0000001300000000
#0271a:0024
#02712:23000000000000000000002400000000
#0361a:0014
#03616:00000014
#03618:0024000000000000
#03614:00240000
#0551b:00130000
#05515:0000001300000000
#05518:0000000013000013
#05512:00000013
#0551f:11
#05615:1313130013000000
#05618:0000001300000000
#05715:1300000013000013
#0571b:13000013
#05712:00130000
#05718:0000001300000000
#06318:0013001300001300
#06315:0000130000130013
#06312:2323
#0631b:2323
#0631f:21
#06512:0013000000000000
#06518:0000001300130000
#06515:0000130013000013
#0651b:00000013
#06618:1300000000000013
#06615:0013000000000000
#0661b:00130000
#06612:0000001300000000
#07315:0013000000001300
#07318:0000130000130000
#07312:0000001300000013
#0731b:2313
#0741b:1300000000000013
#07412:0013
#07418:0000000000130000
#07415:00000013
#07516:0014001400140000
#07512:2414
#0751a:00140014
#07615:0000001300001300
#0761b:0013
#07618:0000000000130000
#07612:0000000000000013
#00018:0000000000130013
#00015:00000013
#00112:23130000
#00118:0000001300000013
#00115:00001313
#0011b:2300000000130000
#00218:0000000000130013
#00215:00000013
#0031b:23130000
#00315:0000001300000013
#00318:00001313
#00312:2300000000130000
#00415:0000000000130013
#00418:00000013
#00512:23130000
#00518:0000001300000013
#00515:00001313
#0051b:2300000000130000
#00510:41
#00612:0000000000130000
#00615:00000013
#00618:0000000000000013
#00718:0000130000000013
#00715:00000013
#0071b:23
#00812:00130000
#00815:0000001300001300
#00818:0013
#0081b:0000000000130000
#00914:00140000
#00916:0014
#00918:00000014
#0101a:14
#01018:00140000
#01016:0014
#01014:00000014
#01114:0000140000000014
#01118:00000014
#01112:24
#0121a:00140024
#01216:0000001400140000
#01212:0014
#01719:12000012
#01715:00121200
#01718:0000001200000000
#01716:0000000000000012
#01819:1212120012000000
#01816:0000001200000000
#0211b:1313
#02115:1300001300001300
#02118:0000130000000013
#02212:1313
#02215:0013001300000000
#02218:00130000
#02312:1313
#02318:1300001300001300
#02315:0000130000000013
#0241b:1313
#02418:0013001300000000
#02415:00130000
#02512:1313
#0251b:1313
#02515:0000130000000013
#02518:0000001300001300
#02510:41
#0261b:13
#02612:13
#02618:00000000000000130000000000000000
#03515:00130000
#03512:1300000024000024
#03518:0000001300000000
#0351a:00000000000000000000002400000000
#0351b:23
#02912:1313
#02918:1300001300001300
#02915:0000130000000013
#0301b:1313
#03018:0013001300000000
#03015:00130000
#0311b:1313
#03115:1300001300001300
#03118:0000130000000013
#03212:1313
#03215:0013001300000000
#03218:00130000
#0331b:1313
#03312:1313
#03318:0000130000000013
#03315:0000001300001300
#03412:13
#0341b:13
#03415:00000000000000130000000000000000
#03712:00140014
#0371a:0014
#03710:41
#03818:1414
#03814:00140014
#03918:0000140000000014
#03914:00000014
#0391a:24
#04012:00140024
#04016:0000001400140000
#0401a:0014
#04112:0016161600161616
#04118:2626
#04212:0016161600161616
#04218:2626
#0511a:140000000000000000143434
#05112:000000143434000000000000
#05217:1414
#0521a:003434143434000000000000
#05312:140000000000000000143434
#0531a:000000143434000000000000
#05415:1414
#05412:003434143434000000000000
#05818:1313130013000000
#05815:0000001300000000
#06115:00130000
#06112:1324
#06118:0000001300000000
#06114:0000000000000014
#0611a:00000000000000000000002400000000
#0611b:23
#0591b:1313
#05912:1313
#05918:0000130000000013
#05915:0000001300001300
#06012:13
#0601b:13
#06015:00000000000000130000000000000000
#06418:00130000
#0641b:2300003313000000
#06412:23
#06410:41
#06215:0000000000000013
#06216:0054
#06715:0013001300001300
#06718:0000130000130013
#0671b:2323
#06712:2323
#06815:00130000
#06812:2300003313000000
#0681b:23
#06918:0000000000000013
#06915:0000000000000013
#07012:00130000
#0701b:0000130000130000
#07018:00000013
#07015:0000000000000013
#07716:0014001400140000
#0771a:2414
#07712:00140014
#07113:12
#07118:0000120000000012
#07116:0000001200001200
#0711a:0012
#07214:12121200
#0721a:0012001200000000
#07218:00000023
#07215:0000000000000023
#01915:22000022
#01919:00222200
#01916:0000002200000000
#01918:0000000000000022
#02015:2222220022005200
#02018:0000002200000000
#02814:0024000000000000
#02818:00242300
#02812:0023
#0281b:00000023
#02815:00000023
#07818:0000000000230023
#07815:00000023
#07915:23
#01512:26
#01514:00260000
#01516:0026
#01518:00000026
#01612:26
#01614:00520000
#04318:26
#04316:00260000
#04314:0026
#04312:00000026
#04418:26
#0441a:00520000
#0471a:24
#04714:000024000000000000240000
#04718:000000240000000024000000
#04712:0024
#04710:41
#0481a:24000024
#04814:002400002400
#04818:000000240000002400000000
#04812:0024
#04912:24
#04918:000024000000000000240000
#04914:000000240000000024000000
#0491a:0024
#05012:24000024
#05018:002400002400
#05014:000000240000002400000000
#0501a:0024
#04512:636363630000000000000000
#04513:006300
#04514:000000000063000000000000
#04515:0063
#0451b:000000000000636363630000
#0451a:000000000063
#04519:000000000000000000000063
#04618:63
#04612:636363630000000000630000
#04613:006363
#04614:000000000063006300000000
#04615:0063
#0275a:0014
#02752:00000000000000000000001400000000
#02758:0000000000000014
#02854:0014000000000000
#02858:00140000
#0365a:0064
#03658:0014000000000000
#03654:00140000
#03656:00000024
#05655:0053
#05652:00000013
#06652:0000006300000000
#06655:0000000000130000
#0745b:53
#0755a:00000054
#07856:00140000
#07955:13
#00254:0000001300000000
#00459:0000001300000000
#00653:0000001300000000
#0075b:53
#00758:0000530000000053
#00855:00000053
#00952:14
#00954:00140000
#00956:0014
#00958:00000014
#0105a:14
#01058:00140000
#01056:0014
#01054:00000014
#01152:54
#01154:0000540000000054
#01352:1616
#01452:1616
#01552:16
#01554:00160000
#01556:0016
#01558:00000016
#01652:56
#0215b:0013
#02252:0053
#02352:0013
#0245b:0063
#02658:00000000000000530000000000000000
#0265b:00000013
#02952:0013
#0305b:0063
#0315b:0013
#03252:0053
#03552:0000000014000014
#0355a:00000000000000000000001400000000
#0375a:44
#03958:0000640000000064
#0395a:64
#04158:1616
#04258:1616
#04358:16
#04356:00160000
#04354:0016
#04352:00000016
#04458:66
#0485a:00000014
#05052:00000014
#0515a:14000054
#05152:00540000
#05155:0014
#05257:5454
#0525a:00540014
#05352:14000064
#0535a:00640000
#05357:0014
#05455:6464
#05452:00640000
#05552:14
#05558:0013
#05755:0013
#05858:0063
#0585b:00000013
#06152:0014
#0615a:00000000000000000000001400000000
#06154:0000000000000054
#0645b:5353
#06458:00530013
#06855:00630013
#06852:6363
#06955:0000000000000053
#06958:0000000000000053
#07052:00230000
#0705b:00230000
#07752:00000054
#03455:00000000000000630000000000000000
#03452:00000013
#06055:00000000000000630000000000000000
#06052:00000013
#0125a:00000014
#04052:00000014
#002320:13330000
#002340:0033002300000000
#0043b0:13330000
#004390:0033002300000000
#006350:13330000
#006330:0033002300000000
#0073b0:1323
#007380:00330000
#007380:0000000000000013
#0083b0:0023000000000000
#008350:00000013
#009320:24
#011320:1424
#011340:00340000
#011340:0000000000000014
#012320:0024000000000000
#016320:16
#016340:00220000
#020350:00001222
#022320:0013
#022350:00000023
#0243b0:0013
#024380:00000023
#026380:00000000130000330000000000000000
#0263b0:0000000000332300
#0303b0:0013
#030380:00000023
#032320:0013
#032350:00000023
#034350:00000000130000330000000000000000
#034320:0000000000332300
#0363a0:0014
#036360:00000054
#0373a0:24
#0393a0:1424
#039380:00340000
#039380:0000000000000014
#0403a0:0024000000000000
#044380:16
#0443a0:00220000
#051320:000000143434000000000000
#051350:0024
#0513a0:000000000000000000143434
#052370:3434
#0523a0:003434343434000000240000
#0533a0:000000143434000000000000
#053370:0024
#053320:000000000000000000143434
#054350:3434
#054320:003434343434000000000000
#055320:24
#056350:0013
#056320:00000023
#058380:0013
#0583b0:00000023
#060350:00000000130000330000000000000000
#060320:0000000000332300
#061340:0000000000000014
#062360:0024
#0643b0:1300003333000000
#064380:00330023
#066320:0000001300000000
#066350:0000000000230000
#068320:1300003333000000
#068350:00330023
#0693b0:13
#069380:00230000
#069351:00130000
#069321:0023
#0693b0:0013
#069380:0000000000003333
#0703b0:0033330000000000
#070380:0023
#069351:0000000000001333
#070321:0033330000000000
#070351:0023
#0743b1:13
#074381:00230000
#0753a1:00000014
#076371:24
#077321:00000014
#078361:00240000
#045920:13530000
#045950:0023
#0459b1:00001353
#046981:23
#046920:13530023
#046950:0053
