This file was generated by Ched 2.7.0.0.
#TITLE ""
#ARTIST ""
#DESIGNER ""
#DIFFICULTY 0
#PLAYLEVEL
#SONGID ""
#WAVE ""
#WAVEOFFSET 0
#JACKET ""
#REQUEST "ticks_per_beat 480"
#00002: 4
#BPM01: 160
#00008: 01
#TIL00: "62'960:1, 36'960:2, 36'1020:1.8, 36'1080:1.6, 36'1140:1.4, 36'1200:1.2, 36'1260:1, 36'1320:0.9, 36'1380:0.8, 36'1440:0.7, 36'1500:0.6, 36'1560:0.5, 37'0:1, 61'1683:10000"
#VOLUME: ""
#HISPEED 00
#MEASUREHS 00
#00113:12121212
#00119:0000001200120012
#00117:00120012
#0011b:2212
#00219:0012001200120000
#00213:12121212
#0021b:12
#00217:00000012
#00215:0000000000000012
#00912:1c1a1817
#0091b:0000001300001300
#0091a:0000000000000013
#01012:1617181a
#01018:0013000000000000
#0101a:0000001300000000
#01019:13130000
#0101b:0013
#01315:1616161616161616
#01312:2300131300000000
#0131b:0000000023001313
#01310:41
#01513:0013000000000000
#01514:0000001300000000
#01515:0000000000130000
#01516:0000000000000013
#01518:00130013000000000000000000000000
#01519:00000000001300130000000000000000
#0151a:00000000000000000013001300000000
#0151b:00000000000000000000000000130013
#01512:26272829
#02112:0000140000000014
#02116:0000001300005400
#0211b:00000000000013000073000000000000
#0211a:00240024
#02115:52
#02114:00000000000000000000000000000000000000000000000000000000000000000000000000000000000000000000000000540000000000000000000000000000
#02216:13131300
#02212:0013001300000000
#0221a:14240024
#02217:0013000000000000
#02215:00000012
#02214:0000000000000000000000000000000000000000000000000052000000000000
#02213:00000000000000000000000000520000
#0271a:14
#02715:0013001300000000
#02712:2400130024000025
#02718:00000013001300000000000000000000
#0271b:00000000000000130000000000000000
#02719:00000000000000000000002500000000
#03718:00160000
#03719:0015
#0371a:00000014
#03712:00161514
#03710:41
#0381b:13
#0381c:00121212
#03812:13121212
#04118:0014000000000014
#04116:00142814
#04114:0000001400140000
#0411b:00130000
#04112:28002413
#0411a:24
#0511a:00000000140000000000001400000000
#05118:000000000000000014000000000000140000000000000000
#05116:000000000014000000000014
#05112:00000014000000000000000014000000
#05114:000000140000000000000000140000000000000014000000
#05216:001400000014000000000014
#05218:141414000000
#05212:00000000140000002400001400000000
#0521a:00241414
#05214:2400000000140000
#05418:2400000000140000
#0541a:00000000140000002400001400000000
#05416:001400000014000000000000
#05414:141414000000
#05412:00000000240000002400000000140000
#05415:00000023
#05516:14000024
#05517:0012000000000000
#05512:00000013
#05514:0000000000000013
#0551b:0000001313000000
#0551f:11
#05515:00260000
#05518:00000000000000000000000000000000000000000000000000000000000000000000000000000000000000000000000000640000000000000000000000000000
#0551a:0000000000000000000000000000000000000000000000000064000000000000
#05616:13242464
#05617:0013000000000000
#0561b:1300131300000000
#05612:0000000013000000006400000000000013000000000000002200000000000000
#0561a:0000000000000000000000000000000000000000000014000064000000000000
#05614:00000000000000000000000000000000006400000000000000000000000000000000000000000000000000000000000000000000000000000000000000000000
#05618:00000000000000000000000000000000000000000000000000000000000000000000000000000000000000000000000000640000000000000000000000000000
#06512:0014000013001313
#0651b:1300131300000000
#06516:14141414
#0651a:0000000000140000
#06514:00000000000000000000000000000000005400000000000000000000000000000000000000000000000000000000000000000000000000000000000000000000
#06518:00000000000000000000000000000000000000000000000000000000000000000000000000000000000000000000000000540000000000000000000000000000
#06919:0013001300000000
#06917:1313
#06916:0000140000131414
#0691b:0000130000130000
#06912:00001313
#06914:00000000000000000000000000000000005400000000000000000000000000000000000000000000000000000000000000000000000000000000000000000000
#06918:00000000000000000000000000000000000000000000000000000000000000000000000000000000000000000000000000540000000000000000000000000000
#07319:0013000000130013
#07316:00141314
#07314:00000000000000000000000000000000000000000000000013000000000000000000000000000000000000000000000000540000000000000000000000000000
#0731b:00001313
#07312:24130000
#0731a:24
#07318:00000000000000000000000000000000005400000000000000000000000000000000000000000000000000000000000000000000000000000000000000000000
#07614:00000000000000000000000000000000000000000000000014000000000000000000000000000000000000000000000000540000000000000000000000000000
#07617:15
#0761a:00001414
#07612:0014
#07618:00000000000000000000000000000000005400000000000000000000000000000000000000000000140000000000000000000000000000001400000000000000
#07616:00140014
#0031b:12121212
#00315:0000001200120012
#00317:00120012
#00313:2212
#00415:0012001200120000
#0041b:12121212
#00413:12
#00417:00000012
#00419:0000000000000012
#00414:0000000000000062
#0051b:1312
#00519:0000001200120012
#00512:23131313
#00517:00120012
#00510:41
#00514:0062006200620062
#00619:0012001200120000
#00612:13131313
#0061b:12
#00617:00000012
#00615:0000000000000012
#00614:0062006200620000
#0061a:0000000000000062
#00817:0000000000120000
#00813:1200001200000000
#00815:0000120012000013
#00812:00000013
#00818:00000000000000000000000000130000
#0081b:13000000130000001300000000000013
#0081a:0062006200620000
#00716:0000120000000012
#00713:0012
#0071b:23131313
#00712:23
#0071a:0062006200620062
#01114:001a0000
#01116:0018
#01117:00000017
#01112:1c00001300001300
#01113:0000000000000013
#01218:16
#01217:00170000
#01216:0018
#01214:1300000013000000000000001a620000
#01215:0013000000000000
#01213:0000000000000000000000001300000000000000000000000062000000000000
#01212:00001362
#01415:1616161616161616
#01412:2300131300000000
#0141b:0000000023001313
#01717:1200120000000012
#01715:00001212
#01719:0000001200000000
#01815:1212120012000000
#01817:0000001200007200
#01819:1212120012000000
#0231a:1400140000000014
#02317:0000001300000000
#02312:00000000240013000073000024000000
#02316:00000054
#02318:00000000000000000000000000000000000000000000000000000000000000000000000000000000000000000000000000540000000000000000000000000000
#02417:13131300
#0241b:0013001300000000
#02412:14240000
#02416:0013000000005414
#0241a:00000000000000000000000014140000
#03512:14000000000000130000002500000000
#03518:0013001300000000
#0351b:00130000
#03515:00000013001300000000000000000000
#0351a:2424
#03519:0000000000000025
#0291a:6400140024000014
#02917:0000001300000000
#02912:16000000240013000073000024000000
#02918:00000000000000001600000000000000000000000000000000000000000000000000000000000000000000000000000000540000000000000000000000000000
#02916:00000054
#0251b:0012001200120012
#02512:00000063000000000000000013000000000000000000000000000000130000000000000000000000530000000000000000000000000000000000000000000000
#02515:63000000001300000000000000000000
#0251a:00220022
#02510:41
#02514:00630000000000000000000000000000000000000000000000000000000000000000000000000000000000005300000000000000000000000000000000000000
#02516:00000053
#02513:0063000000000000000000000000000000000000000000000000000000000000
#0261b:0012001200120012
#02612:000000000000000000000000000000000000000000000000000000000000000000000000000000000000000000000073570000000000000000000000000000000000000000000000000000000000000000000000000000000000000000000000000000000000000000000000000000000000000000000000000000000000000000000000000000000000000000000000000000000000000000000000000000000000000000000000160000000000000000000000000000000000000000000000000000000000000000000000000000000000000000000000000000000000000000000000000000000000000000000000160000000000000000000000000000000000000000000000000000000000000000000000000000000000000000000000160000000000000000000000000000000000000000000000000000000000000000000000000000000000000000000000000000000000000000000000000000000000000000000000000000000000000000000000000000000000000000000000
#02618:13
#0261a:00220022
#02616:000000000000000000000000000000000000000000000000000000000000000000000000000000000000000000000000007300000000000000000000000000000000000000000000000000000000000000000000000000000000000000000000000000000000000000000000000000000000000000000000000000000000000000000000000000000000000000000000000000000000000000000000000000000000000000000000000000000000000000000000000000000000000000000000000000000000000000000000000000000000000000000000000000000000000000000000000000000000000000000000000000000000000000000000000000000000000000000000000000000000000000000000000000000000000000000000000000000000000000000000000000000000000000000000000000000000000000000000000000000000000000000000000000000000000000000000000000000000000000000000000000000000000000000000000000000000000000000000
#03413:0012001200120012
#03418:00000000000000160000160016000000
#03415:13
#03414:00220022
#03417:000000000000000000000000000000000000000000000000000000000000000000000000000000000000000000000000577300000000000000000000000000000000000000000000000000000000000000000000000000000000000000000000000000000000000000000000000000000000000000000000000000000000000000000000000000000000000000000000000000000000000000000000000000000000000000000000000000000000000000000000000000000000000000000000000000000000000000000000000000000000000000000000000000000000000000000000000000000000000000000000000000000000000000000000000000000000000000000000000000000000000000000000000000000000000000000000000000000000000000000000000000000000000000000000000000000000000000000000000000000000000000000000000000000000000000000000000000000000000000000000000000000000000000000000000000000000000000000000
#0341b:000000000000000000000000000000000000000000000000000000000000000000000000000000000000000000000073000000000000000000000000000000000000000000000000000000000000000000000000000000000000000000000000000000000000000000000000000000000000000000000000000000000000000000000000000000000000000000000000000000000000000000000000000000000000000000000000000000000000000000000000000000000000000000000000000000000000000000000000000000000000000000000000000000000000000000000000000000000000000000000000000000000000000000000000000000000000000000000000000000000000000000000000000000000000000000000000000000000000000000000000000000000000000000000000000000000000000000000000000000000000000000000000000000000000000000000000000000000000000000000000000000000000000000000000000000000000000000000000
#0391c:12121200
#03912:12121213
#0391b:00000013
#0401a:14000000000000000000000000620000
#04012:14151600
#04019:0000000000000000150000000000000000000000000000000062000000000000
#04018:00001662
#0401b:0000000000000000000000000000000000000000000000000000006200000000
#0401c:0000000000000062
#04218:0014000000000014
#04216:00142814
#04214:0000001400140000
#0421b:00130000
#04212:28002413
#0421a:24
#04318:00130013000013000013001300001300
#04315:00001300001300130000130000130013
#0431a:24242424
#04312:24242424
#05312:00000000140000000000001400000000
#05314:140000000000000014000000000000140000000000000000
#05316:000000000014000000000014
#0531a:00000014000000000000000014000000
#05318:000000140000000000000000140000000000000014000000
#0571b:13230013
#05719:0000000000000013
#05712:0000000000000000000000001300000013000000000000000064000000000000
#05716:24000024
#05714:00000000000000000000000000000000000000000000000000000000000000000000000000000000000000000000000000640000000000000000000000000000
#05817:13000023
#05816:0013240024000000
#05812:1300131300005400
#0581b:0013000013000063
#05819:00000000000000000000000000630000
#05818:00000000000000000000000000000000006400000000000000000000000000000000000000000000000000000000000000000000000000000000000000000000
#0581a:0000000000000000006400000000000000000000000000000000000000000000
#06115:0013001300000000
#06112:2400130024000025
#06118:00000013001300000000000000000000
#0611b:00000000000000130000000000000000
#06119:00000000000000000000002500000000
#0591b:0012001200120012
#05912:00000064000000000000000014000000000000000000000000000000140000000000000000000000540000000000000000000000000000000000000000000000
#05916:00000000001400000000000054000000
#0591a:00220022
#05914:00640000000000000000000000000000000000000000000000000000000000000000000000000000000000005400000000000000000000000000000000000000
#05915:64
#05913:0064000000000000000000000000000000000000000000000000000000000000
#0601b:0012001200120000
#06012:000000000000000000000000000000000000000000000000000000000000000000000000000000000000000000000073580000000000000000000000000000000000000000000000000000000000000000000000000000000000000000000000000000000000000000000000000000000000000000000000000000000000000000000000000000000000000000000000000000000000000000000000000000000000000000000000180000000000000000000000000000000000000000000000000000000000000000000000000000000000000000000000000000000000000000000000000000000000000000000000180000000000000000000000000000000000000000000000000000000000000000000000000000000000000000000000180000000000000000000000000000000000000000000000000000000000000000000000000000000000000000000000000000000000000000000000000000000000000000000000000000000000000000000000000000000000000000000000
#06018:00000000000000000000000000001313
#06016:140000000000000000000000000000000000000000000000000000000000000000000000000000000000000000000000007400000000000000000000000000000000000000000000000000000000000000000000000000000000000000000000000000000000000000000000000000000000000000000000000000000000000000000000000000000000000000000000000000000000000000000000000000000000000000000000000000000000000000000000000000000000000000000000000000000000000000000000000000000000000000000000000000000000000000000000000000000000000000000000000000000000000000000000000000000000000000000000000000000000000000000000000000000000000000000000000000000000000000000000000000000000000000000000000000000000000000000000000000000000000000000000000000000000000000000000000000000000000000000000000000000000000000000000000000000000000000000000
#0601a:00220022
#06312:2814140028141400
#06316:0000001400000014
#0631f:21
#06318:00000000000000000000000000000000005400000000000000000000000000000000000000000000000000000000000000540000000000000000000000000000
#06416:0000141600001400
#0641a:1414
#06418:00000000000000001400000000000000005400000000000000000000000000000000000000000000140000000000000000540000000000000000000000000000
#06412:28142814
#06414:0000000000000014
#06410:41
#06612:0014001313000013
#0661b:1300001300000013
#06616:1400140014131400
#06617:0013000000000000
#0661a:0000000000140000
#06614:00000000000000000000000000000000005400000000000000000000000000000000000000000000000000000000000000000000000000000000000000000000
#06618:00000000000000000000000000000000000000000000000000000000000000000000000000000000000000000000000000540000000000000000000000000000
#06816:2800141400140014
#06812:1400000028131400
#0681b:0000000000000013
#0681a:00141400
#06814:00000000000000001400000000000000005400000000000000000000000000000000000000000000000000000000000000000000000000000000000000000000
#07012:1300001300131313
#07015:0013000000000000
#07019:00000013000000000000000000000000
#0701b:1300131300130013
#07016:00141414
#07014:00000000000000000000000000000000005400000000000000000000000000000000000000000000000000000000000000000000000000000000000000000000
#07018:00000000000000000000000000000000000000000000000000000000000000000000000000000000000000000000000000540000000000000000000000000000
#07416:00001400000014000000000014000013
#07414:00000000000000000000140000130000
#07418:2600000026000014
#07412:24262400
#0741a:00240000
#07516:0014001400140000
#0751a:24140014
#07512:24001414
#07518:00740000000000000074000000000000
#07514:00000000007400000000000000000000
#07716:0014001400140000
#07712:2400140000001424
#0771a:2400000014001424
#07718:00000000007400000000000000000064
#07714:00740000000000000074000000000000
#03017:13131300
#0301b:00001300000013000000000000520000
#03012:14242400
#03016:0013000000000000
#03019:00000012
#0301a:0000000000000000000000000000000000000000000000000052000000000000
#03112:1400140024000014
#03116:0000001300005400
#0311b:00000000000013000073000000000000
#0311a:24000024
#03114:00000000000000000000000000000000000000000000000000000000000000000000000000000000000000000000000000540000000000000000000000000000
#03216:1300130013005414
#03212:00001300000013000000000014140000
#0321a:14242400
#03217:0013000000000000
#03313:0012001200120012
#0331b:00000063000000000000000013000000000000000000000000000000130000000000000000000000530000000000000000000000000000000000000000000000
#03318:63000000001300000000000000000000
#03314:00220022
#03319:00630000000000000000000000000000000000000000000000000000000000000000000000000000000000005300000000000000000000000000000000000000
#03317:00000053
#0331a:0063000000000000000000000000000000000000000000000000000000000000
#0671a:0014140000141400
#06716:2800001428000014
#06714:00000000000000000000000000000000005400000000000000000000000000000000000000000000000000000000000000540000000000000000000000000000
#01612:2a520000
#0441a:24
#04412:24
#04417:000000000000000000000000000000000000000000000000000000000000000000000000000000000000000000000000000000000000000000000000000000000000000000000000000000000000000000000000000000000000000000000000000000000000000000000000000000000000000000000000000000000000000000000000000000000000000000000000000000000000000000000000000000000000000000000000000000000000000000000000000000000000000000000000000000000000000000000000000000000000000000000000000000000000000000000000000000000000000000000000000000000000000000000000000000000000000000000000000000000000000000000000000000000000000000000000000000000000000000000000000000000000000000000000000000000000000000000000000000000000000000000000000000000000000000000000000000000000000000000000000000000000000000000000000000000000000000000000000000000000000000000000000000000000000000000000000000000000000000000000000000000000000000000000000000000000000000000000000000000000000000000000000000000000000000000000000000000000000000000072000000000000000000000000000000000000000000000000000000000000000000000000000000000000000000000000000000000000000000000000000000000000000000000000000000000000000000000000000000000000000000000000000000000000000000000000000000000000000000000000000000000000000000000000000000000000000000000000000000000000000000000000000000000000000000000000000000000000000000000000000000000000000000000000000000000000000000000000000000000000000000000000000000000000000000000000000000000000000000000000000000000000000000000000000000000000000000000000000000000000000000000000000000000000000000000000000000000000000000000000000000000000000000000000000000000000000000000000000000000000000000000000000000000000000000000000000000000000000000000000000000000000000000000000000000000000000000000000000000000000000000000000000000000000000000000000000000000000000000000000000000000000000000000000000000000000000000000000000000000000000000000000000000000000000000000000000000000000000000000000000000000000000000000000000000000000000000000000000000000000000000000000000000000000000000000000000000000000000000000000000000000000000000000000000000000000000000000000000000000000000000000000000000000000000000000000000000000000000000000000000000000000000000000000000000000000000000000000000000000000000000000000000000000000000000000000000000000000000000000000000000000000000000000000000000000000000000000000000000000000000000000000000000000000000000000000000000000000000000000000000000000000000000000000000000000000000000000000000000000000000000000000000000000000000000000000000000000000000000000000000000000000000000000000000000000000000000000000000000000000000000000000000000000000000000000000000000000000000000000000000000000000000000000000000000000000000000000000000000000000000000000000000000000000000000000000000000000000000000000000000000000000000000000000000000000000000000000000000000000000000000000000000000000000000000000000000000000000000000000000000000000000000000000000000000000000000000000000000000000000000000000000000000000000000000000000000000000000000000000000000000000000000000000000000000000000000000000000000000000000000000000000000000000000000000000000000000000000000000000000000000000000000000000000000000000000000000000000000000000000000000000000000000000000000000000000000000000000000000000000000000000000000000000000000000000000000000000000000000000000000000000000000000000000000000000000000000000000000000000000000000000000000000000000000000000000000000000000000000000000000000000000000000000000000000000000000000000000000000000000000000000000000000000000000000000000000000000000000000000000000000000000000000000000000000000000000000000000000000000000000000000000000000000000000000000000000000000000000000000000000000000000000000000000000000000000000000000000000000000000000000000000000000000000000000000000000000000000000000000000000000000000000000000000000000000000000000000000000000000000
#04413:0000007a
#0471a:24242424
#04714:002400002400000000000000
#04718:000024000024000000000000
#04712:64242424
#04715:000000000000002400002400
#04717:000000000000000024000024
#04710:41
#0481a:24242424
#04816:002424000024000024000000
#04812:24242424
#04814:002400
#04818:000000000000000000000000000024000000000000000023
#04815:000000000000000000000023
#07113:23232323
#07117:6200000062000062
#0711b:00620062
#07119:0000006200000000
#07213:23232300
#07216:00000024
#07214:0000000000000023
#07219:6200620000000023
#0721b:0062000062626200
#07217:0000006200000000
#0721a:00000000000000000062006200000000
#02019:2222220022000000
#02015:220000000000000000000000000000000000000000000000000000000000000000000000000000000000000000000000000000000000000000000000000000000000000000000000000000000000000000000000000000000000000000000000000000000000000000000000000000000000000000000000000000000000000000000000000000000000000000000000000000000000000000000000000000000000000000000000000000000000000000000000000000000000000000000000000000000000000000000000000000000000000000000000000000000000000000000000000000000000000000000000220000000000000000000000000000000000000000000000000000000000000000000000000000000000000000000000000000000000000000000000000000000000000000000000000000000000000000000000000000000000000000000000000000000000000000000000000000000000000000000000000000000000000000000000000000000000000000000000000000000000000000000000000000000000000000000000000000000000000000000000000000000000000000000000000000000000000000000000000000000000000000000000000000000000000000000000000000000000000000000000225600000000000000000000000000000000000000000000000000000000000000000000000000000000000000000000000000000000000000000000000000000000000000000000000000000000000000000000000000000000000000000000000000000000000000000000000000000000000000000000000000000000000000000000000000000000000000000000000000000000000000000000000000000000000000000000000000000000000000000000000000000000000000000000000000000000000000000000000000000000000000000000000000000000000000000000000000000000000000000000000000000000000000000000000000000000000000000000000000000000000000000000000000000000000000000000000000000000000000000000000000000000000000000000000000000000000000000000000000000000000000000000000000000000000000000000000000000000000000000000000000000000000000000000000000000000000000000000000000000000000000000000000000000000000000000000000000000000000000000000000000000000000000000000000000000000000000000000000000000000000000000000000000000000000000000000000000000000000000000000225600000000000000000000000000000000000000000000000000000000000000000000000000000000000000000000000000000000000000000000000000000000000000000000000000000000000000000000000000000000000000000000000000000000000000000000000000000000000000000000000000000000000000000000000000000000000000000000000000000000000000000000000000000000000000000000000000000000000000000000000000000000000000000000000000000000000000000000000000000000000000000000000000000000000000000000000000000000000000000000000000000000000000000000000000000000000000000000000000000000000000000000000000000000000000000000000000000000000000000000000000000000000000000000000000000000000000000000000000000000000000000000000000000000000000000000000000000000000000000000000000000000000000000000000000000000000000000000000000000000000000000000000000000000000000000000000000000000000000000000000000000000000000000000000000000000000000000000000000000000000000000000000000000000000000000000000000000000000000000000000000000000000000000000000000000000000000000000000000000000000000000000000000000000000000000000000000000000000000000000000000000000000000000000000000000000000000000000000000000000000000000000000000000000000000000000000000000000000000000000000000000000000000000000000000000000000000000000000000000000000000000000000000000000000000000000000000000000000000000000000000000000000000000000000000000000000000000000000000000000000000000000000000000000000000000000000000000000000000000000000000000000000000000000000000000000000000000000000000000000000000000000000000000000000000000000000000000000000000000000000000000000000000000000000000000000000000000000000000000000000000000000000000000000000000000000000000000000000000000000000000000000000000000000000000000000000000000000000000000000000000000000000000000000000000000000000000000000000000000000000000000000000000000000000000000000000000000000000000000000000000000000000000000000000000000000000000000000000000000000
#02017:0000002200007200
#02012:006c00000000000000000000000000000000000000000000000000000000000000000000000000000000000000000000000000000000000000000000000000000000000000000000000000000000000000000000000000000000000000000000000000000000000000000000000000000000000000000000000000000000000000000000000000000000000000000000000000000000000000000000000000000000000000000000000000000000000000000000000000000000000000000000000000000000000000000000000000000000000000000000000000000000000000000000000000000000000000000000000000000000000000000000000000000000000000000000000000000000000000000000000000000000000000000000000000000000000000000000000000000000000000000000000000000000000000000000000000000000000000000000000000000000000000000000000000000000000000000000000000000000000000000000000000000000000000000000000000000000000000000000000000000000000000000000000000000000000000000000000000000000000000000000000000000000000000000000000000000000000000000000000000000000000000000000000000000000000000000000000000000000000000000000000000000000000000000000000000000000000000000000000000000000000000000000000000000000000000000000000000000000000000000000000000000000000000000000000000000000000000000000000000000000000000000000000000000000000000000000000000000000000000000000000000000000000000000000000000000000000000000000000000000000000000000000000000000000000000000000000000000000000000000000000000000000000000000000000000000000000000000000000000000000000000000000000000000000000000000000000000000000000000000000000000000000000000000000000000000000000000000000000000000000000000000000000000000000000000000000000000000000000000000000000000000000000000000000000000000000000000000000000000000000000000000000000000000000000000000000000000000000000000000000000000000000000000000000000000000000000000000000000000000000000000000000000000000000000000000000000000000000000000000000000000000000000000000000000000000000000000000000000000000000000000000000000000000000000000000000000000000000000000000000000000000000000000000000000000000000000000000000000000000000000000000000000000000000000000000000000000000000000000000000000000000000000000000000000000000000000000000000000000000000000000000000000000000000000000000000000000000000000000000000000000000000000000000000000000000000000000000000000000000000000000000000000000000000000000000000000000000000000000000000000000000000000000000000000000000000000000000000000000000000000000000000000000000000000000000000000000000000000000000000000000000000000000000000000000000000000000000000000000000000000000000000000000000000000000000000000000000000000000000000000000000000000000000000000000000000000000000000000000000000000000000000000000000000000000000000000000000000000000000000000000000000000000000000000000000000000000000000000000000000000000000000000000000000000000000000000000000000000000000000000000000000000000000000000000000000000000000000000000000000000000000000000000000000000000000000000000000000000000000000000000000000000000000000000000000000000000000000000000000000000000000000000000000000000000000000000000000000000000000000000000000000000000000000000000000000000000000000000000000000000000000000000000000000000000000000000000000000000000000000000000000000000000000000000000000000000000000000000000000000000000000000000000000000000000000000000000000000000000000000000000000000000000000000000000000000000000000000000000000000000000000000000000000000000000000000000000000000000000000000000000000000000000000000000000000000000000000000000000000000000000000000000000000000000000000000000000000000000000000000000000000000000000000000000000000000000000000000000000000000000000000000000000000000000000000000000000000000000000000000000000000000000000000000000000000000000000000000000000000000000000000000000000000000000000000000000000000000000000000000000000000000000000000000000000000000000000000000000000000000000000000000000000000000000000000000
#01917:2200220000000022
#01919:0000002200000000
#01915:000000000000000000000000000000000000000000000000000000000000000000000000000000000000000000000000000000000000000000000000000000000000000000000000000000000000000000000000000000000000000000000000000000000000000000000000000000000000000000000000000000000000000000000000000000000000000000000000000000000000000000000000000000000000000000000000000000000000000000000000000000000000000000000000000000000000000000000000000000000000000000000000000000000000000000000000000000000000000000000000000000000000000000000000000000000000000000000000000000000000000000000000000000000000000000000000000000000000000000000000000000000000000000000000000000000000000000000000000000000000000000000000000000000000000000000000000000000000000000000000000000000000000000000000000000000000000000000000000000000000000000000000000000000000000000000000000000000000000000000000000000000000000000000000000000000000000000000000000000000000000000000000000000000000000000000000000000000000000000000000005600000000000000000000000000000000000000000000000000000000000000000000000000000000000000000000000000000000000000000000000000000000000000000000000000000000000000000000000000000000000000000000000000000000000000000000000000000000000000000000000000000000000000000000000000000000000000000000000000000000000000000000000000000000000000000000000000000000000000000000000000000000000000000000000000000000000000000000000000000000000000000000000000000000000000000000000000000000000000000000000000000000000000000000000000000000000000000000000000000000000000000000000000000000000000000000000000000000000000000000000000000000000000000000000000000000000000000000000000000000000000000000000000000000000000000000000000000000000000000000000000000000000000000000000000000000000000000000000000000000000000000000000000000000000000000000000000000000000000000000000000000000000000000000000000000000000000000000000000000000000000000000000000000000000000000000000000000000000000000000225600000000000000000000000000000000000000000000000000000000000000000000000000000000000000000000000000000000000000000000000000000000000000000000000000000000000000000000000000000000000000000000000000000000000000000000000000000000000000000000000000000000000000000000000000000000000000000000000000000000000000000000000000000000000000000000000000000000000000000000000000000000000000000000000000000000000000000000000000000000000000000000000000000000000000000000000000000000000000000000000000000000000000000000000000000000000000000000000000000000000000000000000000000000000000000000000000000000000000000000000000000000000000000000000000000000000000000000000000000000000000000000000000000000000000000000000000000000000000000000000000000000000000000000000000000000000000000000000000000000000000000000000000000000000000000000000000000000000000000000000000000000000000000000000000000000000000000000000000000000000000000000000000000000000000000000000000000000000000000000225600000000000000000000000000000000000000000000000000000000000000000000000000000000000000000000000000000000000000000000000000000000000000000000000000000000000000000000000000000000000000000000000000000000000000000000000000000000000000000000000000000000000000000000000000000000000000000000000000000000000000000000000000000000000000000000000000000000000000000000000000000000000000000000000000000000000000000000000000000000000000000000000000000000000000000000000000000000000000000000000000000000000000000000000000000000000000000000000000000000000000000000000000000000000000000000000000000000000000000000000000000000000000000000000000000000000000000000000000000000000000000000000000000000000000000000000000000000000000000000000000000000000000000000000000000000000000000000000000000000000000000000000000000000000000000000000000000000000000000000000000000000000000000000000000000000000000000000000000000000000000000000000000000000000000000000000000000000000000000000
#01912:006c00000000000000000000000000000000000000000000000000000000000000000000000000000000000000000000000000000000000000000000000000000000000000000000000000000000000000000000000000000000000000000000000000000000000000000000000000000000000000000000000000000000000000000000000000000000000000000000000000000000000000000000000000000000000000000000000000000000000000000000000000000000000000000000000000000000000000000000000000000000000000000000000000000000000000000000000000000000000000000000000000000000000000000000000000000000000000000000000000000000000000000000000000000000000000000000000000000000000000000000000000000000000000000000000000000000000000000000000000000000000000000000000000000000000000000000000000000000000000000000000000000000000000000000000000000000000000000000000000000000000000000000000000000000000000000000000000000000000000000000000000000000000000000000000000000000000000000000000000000000000000000000000000000000000000000000000000000000000000000000000000000000000000000000000000000000000000000000000000000000000000000000000000000000000000000000000000000000000000000000000000000000000000000000000000000000000000000000000000000000000000000000000000000000000000000000000000000000000000000000000000000000000000000000000000000000000000000000000000000000000000000000000000000000000000000000000000000000000000000000000000000000000000000000000000000000000000000000000000000000000000000000000000000000000000000000000000000000000000000000000000000000000000000000000000000000000000000000000000000000000000000000000000000000000000000000000000000000000000000000000000000000000000000000000000000000000000000000000000000000000000000000000000000000000000000000000000000000000000000000000000000000000000000000000000000000000000000000000000000000000000000000000000000000000000000000000000000000000000000000000000000000000000000000000000000000000000000000000000000000000000000000000000000000000000000000000000000000000000000000000000000000000000000000000000000000000000000000000000000000000000000000000000000000000000000000000000000000000000000000000000000000000000000000000000000000000000000000000000000000000000000000000000000000000000000000000000000000000000000000000000000000000000000000000000000000000000000000000000000000000000000000000000000000000000000000000000000000000000000000000000000000000000000000000000000000000000000000000000000000000000000000000000000000000000000000000000000000000000000000000000000000000000000000000000000000000000000000000000000000000000000000000000000000000000000000000000000000000000000000000000000000000000000000000000000000000000000000000000000000000000000000000000000000000000000000000000000000000000000000000000000000000000000000000000000000000000000000000000000000000000000000000000000000000000000000000000000000000000000000000000000000000000000000000000000000000000000000000000000000000000000000000000000000000000000000000000000000000000000000000000000000000000000000000000000000000000000000000000000000000000000000000000000000000000000000000000000000000000000000000000000000000000000000000000000000000000000000000000000000000000000000000000000000000000000000000000000000000000000000000000000000000000000000000000000000000000000000000000000000000000000000000000000000000000000000000000000000000000000000000000000000000000000000000000000000000000000000000000000000000000000000000000000000000000000000000000000000000000000000000000000000000000000000000000000000000000000000000000000000000000000000000000000000000000000000000000000000000000000000000000000000000000000000000000000000000000000000000000000000000000000000000000000000000000000000000000000000000000000000000000000000000000000000000000000000000000000000000000000000000000000000000000000000000000000000000000000000000000000000000000000000000000000000000000000000000000000000000000000000000000000000000000000000000000000000000000000000000000000000
#0281a:00240024
#02816:0028000028000064
#02812:0024280024002800
#02818:00000000000000000000000000640064
#03616:00000000280000000034343434343434
#03612:0028240000000000
#0361a:0024000000000000
#07812:0064000000640023
#0781b:0000000000000023
#07816:64646464
#07814:00640064000000000064006400000000
#07818:00000000006400640000000000000000
#0781a:0000006400000000
#07914:24
#07918:24
#04912:24242424
#04918:002400002400000000000000
#04914:000024000024000000000000
#0491a:00242424
#04917:000000000000002400002400
#04915:000000000000000024000024
#05012:24242424
#05016:002424000024000024000000
#0501a:24242424
#05018:002400
#05014:000000000000002400000000
#0451a:64646464
#04514:006400006400000000000000
#04515:000000000000006400006400
#04512:64646464
#04518:000064000064000000000000
#04517:000000000000000064000064
#0461a:64646464
#04614:006400
#04616:006464000064000064000000
#04612:640000640000640000646464
#04613:000000000000000000000000000000000000006400640064
#04618:000000000000006400000000
#06212:007c
#00952:3c3a3837
#01052:3637383a
#01352:33
#0135b:0043
#01652:5a
#0445a:54
#04452:54
#0485a:00140014
#05154:0054000014000000
#05158:0000000000640000
#0515a:00000000000000000000002400000000
#05152:00000024000000000000000000000000
#05156:14
#05252:00000000000000000000002400000000
#05254:0000000000540000
#0525a:0014
#05458:0000000000540000
#0545a:00000000000000000000002400000000
#05455:00000053
#05452:00000000000000001400000000240000
#05556:6434
#05557:0022000000000000
#05555:00460000
#00259:0012001200000000
#00455:0012001200000000
#00659:0012001200000000
#00752:53
#00756:0000520000000052
#00753:0052
#00853:22
#01154:004a0000
#01156:0048
#01157:00000047
#01152:4c
#01258:46
#01257:00470000
#01256:0048
#01254:0000004a
#01452:33
#0145b:0043
#01552:36373839
#01855:0052
#02059:0052
#0215a:00440044
#0225a:00440044
#02452:00340000
#02856:0048000048000000
#02852:00380038
#02952:56340034
#0295a:44
#02958:0026000000000000
#03552:00000000000000000000003500000000
#03559:0000000000000045
#0355a:0044
#03656:00480000
#03652:0038000000000000
#02656:00130000
#02652:00000016
#03752:1c363534
#03758:00460000
#03759:0045
#0375a:00000044
#0385b:43
#0385c:00424242
#03852:33323232
#0395c:42424200
#03952:32323233
#0395b:00000043
#0405a:44
#04052:34353600
#04059:00450000
#04058:0046
#04152:38
#04156:0048
#04252:38
#04256:0048
#0465a:00000014
#05358:0064000014000000
#05354:1400000000540000
#05352:00000000000000000000002400000000
#0535a:00000024000000000000000000000000
#0565a:00000000000000000000002400000000
#05652:00000012
#05656:0054
#05756:0044
#06056:00140000
#06052:00000038
#06352:3838
#06356:00440044
#06456:0000442600004400
#06452:38543800
#06556:00340044
#0665b:63
#06657:0023000000000000
#06652:0053
#06656:0000340000234400
#06852:00003854
#06856:4800342400240024
#0685a:00645444
#06952:34
#06956:00340044
#07056:00340044
#07153:13131313
#07253:13131300
#07352:14
#07356:00440034
#07458:4646
#07452:00360000
#07552:34000064
#0755a:00000044
#07657:25
#07656:00440034
#0775a:44
#07752:0000000000000034
#07954:14
#07958:14
#02759:00000000000000000000004500000000
#02752:0000000034000035
#06159:00000000000000000000004500000000
#06152:0000000034000035
#0475a:00140014
#02352:00340034
#03458:00000016
#03457:00130000
#03052:00340034
#0325a:00440000
#0315a:00440044
#04952:00140014
#05052:00140014
#0505a:00000054
#06756:48344834
#007320:13
#007360:00320022
#007330:0032
#007360:0000000000000012
#008330:52
#008360:0022000000000000
#016320:1a220000
#018350:0012
#018370:00000022
#020390:0012
#020370:00000022
#020351:0000000000000000000000000000000000000000000000001252525252525252
#020341:00000000000000000000000000000000000000000000000000000000000000000000000000000000000000000000000000540054005400540054005400540054
#021351:22
#0213a0:14240000
#021360:0000545454545400000000000000000000000000000000000000000000000000
#021370:00000000005400540054005400000000000000000000000000000000000000000000000000000000000000000000000000000000000000000000000000000000
#021320:0014
#021360:0000000000000000000000000000000000005454545454542400000000000000
#021350:00000000000000000000000000000000000000000000000000000000000000000000000000540054005400540054005400000000000000000000000000000000
#021371:0013
#0213b1:00000000000000000023000000000000
#0223a0:00001424
#022360:0000000000000000000000000000000000005454545454000000000000000000
#022370:00000000000000000000000000000000000000000000000000000000000000000000000000540054005400540000000000000000000000000000000000000000
#023320:14240000
#023360:0000545454545400000000000000000000000000000000000000000000000000
#023350:00000000005400540054005400000000000000000000000000000000000000000000000000000000000000000000000000000000000000000000000000000000
#0233a0:0014
#023360:0000000000000000000000000000000000005454545454542400000000000000
#023370:00000000000000000000000000000000000000000000000000000000000000000000000000540054005400540054005400000000000000000000000000000000
#023361:0013
#023321:00000000000000000023000000000000
#024320:0014
#024360:0000000000000000000000000000000000005454545454542400000000000000
#024350:00000000000000000000000000000000000000000000000000000000000000000000000000540054005400540054005400000000000000000000000000000000
#025320:0000000000000000000000000000000013535353230000000000000000000000
#025330:00000000000000000000000000000000000000000000000000000000000000000053005300530053000000000000000000000000000000000000000000000000
#026320:130000000000000000000000530000000000000000000000530000000000000000000000530000000000000000000023000000000000000000000000000000000000000000000000000000000000000000000000000000000000000000000000000000000000000000000000000000000000000000000000000000000000000000000000000000000000000000000000000000000000000000000000000000000000000000000000000000000000000000000000000000000000000000000000000000000000000000000000000000000000000000000000000000000000000000000000000000000000000000000000000000000000000000000000000000000000000000000000000000000000000000000000000000000000000000000000000000000000000000000000000000000000000000000000000000000000000000000000000000000000000000000000000000000000000000000000000000000000000000000000000000000000000000000000000000000000000000000000
#026330:00530053005300530000000000000000000000000000000000000000000000000000000000000000000000000000000000000000000000000000000000000000
#026360:000000000000000000000000000000000000000000000000000000000000000000000000000000000000000000000000001300000000000000000000000000000000000000000000000000000000000000000000000000000000000000000000230000000000000000000000000000000000000000000000000000000000000000000000000000000000000000000000000000000000000000000000000000000000000000000000000000000000000000000000000000000000000000000000000000000000000000000000000000000000000000000000000000000000000000000000000000000000000000000000000000000000000000000000000000000000000000000000000000000000000000000000000000000000000000000000000000000000000000000000000000000000000000000000000000000000000000000000000000000000000000000000000000000000000000000000000000000000000000000000000000000000000000000000000000000000000000000000
#027360:00000000000000000000000000000000000000000000000000000000000000001400000000000000000000540000000000000000000000000000000000000000
#027390:00000000000000000000002500000000
#027321:00000000000000000000001700002500
#027361:000000000000000000000000000000000000000000000000000000000000000000000000000000000000000000000000000000000000000000000000000000000000000000000000000000000000000000000000000000000000000000000000000000000000000000000000000000000000000000000000000000000000000000000000000000000000000000000000000000000000000000000000000000000000000000000000000000000000000000000000000000000000000000000000000000000000000000000000000000000000000000000000000000000000000000000000000000000000000000000000000000000000000000000000000000000000000000000000000000000000000000000000000000000000000000000000000000000000000000000000000000000000000000000000000000000000000000000000000000000000000000000000000000000000000000000000000000000000000000000000000000000000000000000000000000000000000000000000000000000000000000000000000000000000000000000000000000000000000000000000000000000000000000000000000000000000000000000000000000000000000000000000000000000000000000000000000000000000000000000000000000000000000000000000000000000000000000000000000000000000000000000000000000000000000000000000000000000000000000000000000000000000000000000000000000000000000000000000000000000000000000000000000000000000000000000000000000000000000000000000000000000000000000000000000000000000000000000000000000000000000000000000000000000000000000000000000000000000000000000000000000000000000000000000000000000000000000000000000000000000000000000000000000000000000000000000000000000000000000000000000000000000000000000000000000000000000000000000000000000000000000000000000000000000000000000000000000000000000000000000000000000000000000000000000000000000000000000000000000000000000000000000000000000000000000000000000000000000000000000000000000000000000000000000000000000000000000000000000000000000000000000000000000000000000000000000000000000000000000000000000000000000000000000000000000000000000000000000000000000000000000000000000000000000000000000000000000000000000000000000000000000000000000000000000000000000000000000000000000000000000000000000000000000000000000000000000000000000000000000000000000000000000000000000000000000000000000000000000000000000000000000000000000000000000000000000000000000000000000000000000000000000000000000000000000000000000000000000000000000000000000000000000000000000000000000000000000000000000000000000000000000000000000000000000000000000000000000000000000000000000000000000000000000000000000000000000000000000000000000000000000000000000000000000000000000000000000000000000000000000000000000000000000000000000000000000000000000000000000000000000000000000000000000000000000000000000000000000000000000000000000000000000000000000000000000000000000000000000000000000005400000000000000000000000000000000000000000000000000000000000000000000000000000000000000000000000000000000000000000000000000000000000000000000000000000000000000000000000000000000000000000000000000000000000000000000000000000000000000000000000000000000000000000000000000000000000000000000000000000000000000000000000000000000000000000000000000000000000000000000000000000000000000000000000000000000000000000000000000000000000000000000000000000000000000000000000000000000000000000000000000000000000000000000000000000000000000000000000000000000000000000000000000000000000000000000000000000000000000000000000000000000000000000000000000000000000000000000000000000000540000000000000000000000000000000000000000000000000000000000000000000000000000000000000000000000000000000000000000000000000000000000000000000000000000000000000000000000000000000000000000000000000000000000000000000000000000000000000000000000000000000000000000000000000000000000000000000000000000000000000000000000000000000000000000000000000000000000000000000000000000000000000000000000000000000000000000000000000000000000000000000000000000000000000000000000000000000000000000000000000000000000000000000000000000000000000000000000000000000000
#027370:0000000000000017
#027360:000000000000000000000000000000000000000000000000000000000000000000000000000000000000000000000000000000000000000000000000000000000000000000000000000000000000000000000000000000000000000000000000000000000000000000000000000000000000000000000000000000000000000000000000000000000000000000000000000000000000000000000000000000000000000000000000000000000000000000000000000000000000000000000000000000000000000000000000000000000000000000000000000000000000000000000000000000000000000000000000000000000000000000000000000000000000000000000000000000000000000000000000000000000000000000000000000000000000000000000000000000000000000000000000000000000000000000000000000000000000000000000000000000000000000000000000000000000000000000000000000000000000000000000000000000000000000000000000000000000000000000000000000000000000000000000000000000000000000000000000000000000000000000000000000000000000000000000000000000000000000000000000000000000000000000000000000000000000000000000000000000000000000000000000000000000000000000000000000000000000000000000000000000000000000000000000000000000000000000000000000000000000000000000000000000000000000000000000000000000000000000000000000000000000000000000000000000000000000000000000000000000000000000000000000000000000000000000000000000000000000000000000000000000000000000000000000000000000000000000000000000000000000000000000000000000000000000000000000000000000000000000000000000000000000000000000000000000000000000000000000000000000000000000000000000000000000000000000000000000000000000000000000000000000000000000000000000000000000000000000000000000000000000000000000000000000000000000000000000000000000000000000000000000000000000000000000000000000000000000000000000000000000000000000000000000000000000000000000000000000000000000000000000000000000000000000000000000000000000000000000000000000000000000000000000000000000000000000000000000000000000000000000000000000000000000000000000000000000000000000000000000000000000000000000000000000000000000000000000000000000000000000000000000000000000000000000000000000000000000000000000000000000000000000000000000000000000000000000000000000000000000000000000000000000000000000000000000000000000000000000000000000000000000000000000000000000000000000000000000000000000000000000000000000000000000000000000000000000000000000000000000000000000000000000000000000000000000000000000000000000000000000000000000000000000000000000000000000000000000000000000000000000000000000000000000000000000000000000000000000000000000000000000000000000000000000000000000000000000000000000000000000000000000000000000000000000000000000000000000000000000000000000000000000000000000000000000000000000000000000000000000000000000000000000000000000000000000000000000000000000000000000000000000000000000000000000000000000000000000000000000000000000000000000000000000000000000000000000000000000000000000000000000000000000000000000000000000000000000000000000000000000000000000000000000000000000000000000000000000000000000000000000000000000000000000000000000000000000000000000000000000000000000000000000000000000000000000000000000000000000000000000000000000000000000000000000000000000000000000000000000000000000000000000000000000000000000000000000000000000000000000000000000000000000000000000000000000000000000000000000000000000000000000000000000000000000000000000000000000000000000000000000000000000000000000000000000000000000000000000005400000000000000000000000000000000000000000000000000000000000000000000000000000000000000000000000000000000000000000000000000000000000000000000000000000000000000000000000000000000000000000000000000000000000000000000000000000000000000000000000000000000000000000000000000000000000000000000000000000000000000000000000000000000000000000000000000000000000000000000000000000000000000000000000000000000000000000000000000000000000000000000000000000000000000000000000000000000000000000000
#028360:00000000000000542800000000000000000000000000000000000000000000000000000000000000000000000000000000000000000000000000000000000000
#029320:16240000
#029380:0056000000000000
#0293a0:0014
#029360:0000000000000000000000000000000000005454545454542400000000000000
#029370:00000000000000000000000000000000000000000000000000000000000000000000000000540054005400540054005400000000000000000000000000000000
#029361:0013
#029321:00000000000000000023000000000000
#030320:00001424
#030360:0000000000000000000000000000000000005454545454000000000000000000
#030350:00000000000000000000000000000000000000000000000000000000000000000000000000540054005400540000000000000000000000000000000000000000
#0313a0:14240000
#031360:0000545454545400000000000000000000000000000000000000000000000000
#031370:00000000005400540054005400000000000000000000000000000000000000000000000000000000000000000000000000000000000000000000000000000000
#031320:0014
#031360:0000000000000000000000000000000000005454545454542400000000000000
#031350:00000000000000000000000000000000000000000000000000000000000000000000000000540054005400540054005400000000000000000000000000000000
#031371:0013
#0313b1:00000000000000000023000000000000
#0323a0:0014
#032360:0000000000000000000000000000000000005454545454542400000000000000
#032370:00000000000000000000000000000000000000000000000000000000000000000000000000540054005400540054005400000000000000000000000000000000
#0333b0:0000000000000000000000000000000013535353230000000000000000000000
#0333a0:00000000000000000000000000000000000000000000000000000000000000000053005300530053000000000000000000000000000000000000000000000000
#0343b0:130000000000000000000000530000000000000000000000530000000000000000000000530000000000000000000023000000000000000000000000000000000000000000000000000000000000000000000000000000000000000000000000000000000000000000000000000000000000000000000000000000000000000000000000000000000000000000000000000000000000000000000000000000000000000000000000000000000000000000000000000000000000000000000000000000000000000000000000000000000000000000000000000000000000000000000000000000000000000000000000000000000000000000000000000000000000000000000000000000000000000000000000000000000000000000000000000000000000000000000000000000000000000000000000000000000000000000000000000000000000000000000000000000000000000000000000000000000000000000000000000000000000000000000000000000000000000000000000
#0343a0:00530053005300530000000000000000000000000000000000000000000000000000000000000000000000000000000000000000000000000000000000000000
#034370:000000000000000000000000000000000000000000000000000000000000000000000000000000000000000000000000001300000000000000000000000000000000000000000000000000000000000000000000000000000000000000000000230000000000000000000000000000000000000000000000000000000000000000000000000000000000000000000000000000000000000000000000000000000000000000000000000000000000000000000000000000000000000000000000000000000000000000000000000000000000000000000000000000000000000000000000000000000000000000000000000000000000000000000000000000000000000000000000000000000000000000000000000000000000000000000000000000000000000000000000000000000000000000000000000000000000000000000000000000000000000000000000000000000000000000000000000000000000000000000000000000000000000000000000000000000000000000000000
#035360:00000000000000000000000000000000000000000000000000000000000000001400000000000000000000540000000000000000000000000000000000000000
#035320:00000000000000000000002500000000
#035371:00000000000000000000001700000000
#035361:000000000000000000000000000000000000000000000000000000000000000000000000000000000000000000000000000000000000000000000000000000000000000000000000000000000000000000000000000000000000000000000000000000000000000000000000000000000000000000000000000000000000000000000000000000000000000000000000000000000000000000000000000000000000000000000000000000000000000000000000000000000000000000000000000000000000000000000000000000000000000000000000000000000000000000000000000000000000000000000000000000000000000000000000000000000000000000000000000000000000000000000000000000000000000000000000000000000000000000000000000000000000000000000000000000000000000000000000000000000000000000000000000000000000000000000000000000000000000000000000000000000000000000000000000000000000000000000000000000000000000000000000000000000000000000000000000000000000000000000000000000000000000000000000000000000000000000000000000000000000000000000000000000000000000000000000000000000000000000000000000000000000000000000000000000000000000000000000000000000000000000000000000000000000000000000000000000000000000000000000000000000000000000000000000000000000000000000000000000000000000000000000000000000000000000000000000000000000000000000000000000000000000000000000000000000000000000000000000000000000000000000000000000000000000000000000000000000000000000000000000000000000000000000000000000000000000000000000000000000000000000000000000000000000000000000000000000000000000000000000000000000000000000000000000000000000000000000000000000000000000000000000000000000000000000000000000000000000000000000000000000000000000000000000000000000000000000000000000000000000000000000000000000000000000000000000000000000000000000000000000000000000000000000000000000000000000000000000000000000000000000000000000000000000000000000000000000000000000000000000000000000000000000000000000000000000000000000000000000000000000000000000000000000000000000000000000000000000000000000000000000000000000000000000000000000000000000000000000000000000000000000000000000000000000000000000000000000000000000000000000000000000000000000000000000000000000000000000000000000000000000000000000000000000000000000000000000000000000000000000000000000000000000000000000000000000000000000000000000000000000000000000000000000000000000000000000000000000000000000000000000000000000000000000000000000000000000000000000000000000000000000000000000000000000000000000000000000000000000000000000000000000000000000000000000000000000000000000000000000000000000000000000000000000000000000000000000000000000000000000000000000000000000000000000000000000000000000000000000000000000000000000000000000000000000000000000000000000000000000000005400000000000000000000000000000000000000000000000000000000000000000000000000000000000000000000000000000000000000000000000000000000000000000000000000000000000000000000000000000000000000000000000000000000000000000000000000000000000000000000000000000000000000000000000000000000000000000000000000000000000000000000000000000000000000000000000000000000000000000000000000000000000000000000000000000000000000000000000000000000000000000000000000000000000000000000000000000000000000000000000000000000000000000000000000000000000000000000000000000000000000000000000000000000000000000000000000000000000000000000000000000000000000000000000000000000000000000000000000000000540000000000000000000000000000000000000000000000000000000000000000000000000000000000000000000000000000000000000000000000000000000000000000000000000000000000000000000000000000000000000000000000000000000000000000000000000000000000000000000000000000000000000000000000000000000000000000000000000000000000000000000000000000000000000000000000000000000000000000000000000000000000000000000000000000000000000000000000000000000000000000000000000000000000000000000000000000000000000000000000000000000000000000000000000000000000000000000000000000000000
#035391:0000000000000025
#035320:0000000000000017
#035360:000000000000000000000000000000000000000000000000000000000000000000000000000000000000000000000000000000000000000000000000000000000000000000000000000000000000000000000000000000000000000000000000000000000000000000000000000000000000000000000000000000000000000000000000000000000000000000000000000000000000000000000000000000000000000000000000000000000000000000000000000000000000000000000000000000000000000000000000000000000000000000000000000000000000000000000000000000000000000000000000000000000000000000000000000000000000000000000000000000000000000000000000000000000000000000000000000000000000000000000000000000000000000000000000000000000000000000000000000000000000000000000000000000000000000000000000000000000000000000000000000000000000000000000000000000000000000000000000000000000000000000000000000000000000000000000000000000000000000000000000000000000000000000000000000000000000000000000000000000000000000000000000000000000000000000000000000000000000000000000000000000000000000000000000000000000000000000000000000000000000000000000000000000000000000000000000000000000000000000000000000000000000000000000000000000000000000000000000000000000000000000000000000000000000000000000000000000000000000000000000000000000000000000000000000000000000000000000000000000000000000000000000000000000000000000000000000000000000000000000000000000000000000000000000000000000000000000000000000000000000000000000000000000000000000000000000000000000000000000000000000000000000000000000000000000000000000000000000000000000000000000000000000000000000000000000000000000000000000000000000000000000000000000000000000000000000000000000000000000000000000000000000000000000000000000000000000000000000000000000000000000000000000000000000000000000000000000000000000000000000000000000000000000000000000000000000000000000000000000000000000000000000000000000000000000000000000000000000000000000000000000000000000000000000000000000000000000000000000000000000000000000000000000000000000000000000000000000000000000000000000000000000000000000000000000000000000000000000000000000000000000000000000000000000000000000000000000000000000000000000000000000000000000000000000000000000000000000000000000000000000000000000000000000000000000000000000000000000000000000000000000000000000000000000000000000000000000000000000000000000000000000000000000000000000000000000000000000000000000000000000000000000000000000000000000000000000000000000000000000000000000000000000000000000000000000000000000000000000000000000000000000000000000000000000000000000000000000000000000000000000000000000000000000000000000000000000000000000000000000000000000000000000000000000000000000000000000000000000000000000000000000000000000000000000000000000000000000000000000000000000000000000000000000000000000000000000000000000000000000000000000000000000000000000000000000000000000000000000000000000000000000000000000000000000000000000000000000000000000000000000000000000000000000000000000000000000000000000000000000000000000000000000000000000000000000000000000000000000000000000000000000000000000000000000000000000000000000000000000000000000000000000000000000000000000000000000000000000000000000000000000000000000000000000000000000000000000000000000000000000000000000000000000000000000000000000000000000000000000000000000000000000000000000000000000000000000000000000000000000000000000000000000000000000000000000000000000000000000000000000005400000000000000000000000000000000000000000000000000000000000000000000000000000000000000000000000000000000000000000000000000000000000000000000000000000000000000000000000000000000000000000000000000000000000000000000000000000000000000000000000000000000000000000000000000000000000000000000000000000000000000000000000000000000000000000000000000000000000000000000000000000000000000000000000000000000000000000000000000000000000000000000000000000000000000000000000000000000000000000000
#036360:00000000000000540000000000000000000000000000000000000000000000000000000000000000000000000000000000000000000000000000000000000000
#036320:0028000000000000
#036360:00000000000000001434343434343434
#037320:2c
#0443a0:14
#044370:000000000000000000000000000000000000000000000000000000000000000000000000000000000000000000000000000000000000000000000000000000000000000000000000000000000000000000000000000000000000000000000000000000000000000000000000000000000000000000000000000000000000000000000000000000000000000000000000000000000000000000000000000000000000000000000000000000000000000000000000000000000000000000000000000000000000000000000000000000000000000000000000000000000000000000000000000000000000000000000000000000000000000000000000000000000000000000000000000000000000000000000000000000000000000000000000000000000000000000000000000000000000000000000000000000000000000000000000000000000000000000000000000000000000000000000000000000000000000000000000000000000000000000000000000000000000000000000000000000000000000000000000000000000000000000000000000000000000000000000000000000000000000000000000000000000000000000000000000000000000000000000000000000000000000000000000000000000000000000000022000000000000000000000000000000000000000000000000000000000000000000000000000000000000000000000000000000000000000000000000000000000000000000000000000000000000000000000000000000000000000000000000000000000000000000000000000000000000000000000000000000000000000000000000000000000000000000000000000000000000000000000000000000000000000000000000000000000000000000000000000000000000000000000000000000000000000000000000000000000000000000000000000000000000000000000000000000000000000000000000000000000000000000000000000000000000000000000000000000000000000000000000000000000000000000000000000000000000000000000000000000000000000000000000000000000000000000000000000000000000000000000000000000000000000000000000000000000000000000000000000000000000000000000000000000000000000000000000000000000000000000000000000000000000000000000000000000000000000000000000000000000000000000000000000000000000000000000000000000000000000000000000000000000000000000000000000000000000000000000000000000000000000000000000000000000000000000000000000000000000000000000000000000000000000000000000000000000000000000000000000000000000000000000000000000000000000000000000000000000000000000000000000000000000000000000000000000000000000000000000000000000000000000000000000000000000000000000000000000000000000000000000000000000000000000000000000000000000000000000000000000000000000000000000000000000000000000000000000000000000000000000000000000000000000000000000000000000000000000000000000000000000000000000000000000000000000000000000000000000000000000000000000000000000000000000000000000000000000000000000000000000000000000000000000000000000000000000000000000000000000000000000000000000000000000000000000000000000000000000000000000000000000000000000000000000000000000000000000000000000000000000000000000000000000000000000000000000000000000000000000000000000000000000000000000000000000000000000000000000000000000000000000000000000000000000000000000000000000000000000000000000000000000000000000000000000000000000000000000000000000000000000000000000000000000000000000000000000000000000000000000000000000000000000000000000000000000000000000000000000000000000000000000000000000000000000000000000000000000000000000000000000000000000000000000000000000000000000000000000000000000000000000000000000000000000000000000000000000000000000000000000000000000000000000000000000000000000000000000000000000000000000000000000000000000000000000000000000000000000000000000000000000000000000000000000000000000000000000000000000000000000000000000000000000000000000000000000000000000000000000000000000000000000000000000000000000000000000000000000000000000000000000000000000000000000000000000000000000000000000000000000000000000000000000000000000000000000000000000000000000000000000000000000000000000000000000000000000000000000000000000000000000000000000000000000000000000000000000000000000000000000000000000000000000000000000000000000000000000000000
#044321:14
#044371:00520000
#044331:0000002a
#0503a1:00000014
#051361:24
#051320:14000054000000000000000000000000
#051340:0054000000000000
#051360:00240000
#0513a0:00000000000000001400005400000000
#051380:0000000000540000
#051360:00000024
#052320:00000000000000001400005400000000
#052340:0000000000540000
#052360:00000024
#0533a0:14000054000000000000000000000000
#053380:0054000000000000
#053360:00240000
#053320:00000000000000001400005400000000
#053340:0000000000540000
#053360:00000024
#0543a0:00000000000000001400005400000000
#054380:0000000000542300
#054351:00000013
#054321:00000000000000000000000000540000
#054341:0000000000000054
#055321:24
#055360:14
#055370:0052000000000000
#055350:00260000
#055321:00130000
#055361:0000003424000000
#056361:00001424
#0563a1:0000000000000000000000000000000000005454545454000000000000000000
#056391:00000000000000000000000000000000000000000000000000000000000000000000000000540054005400540000000000000000000000000000000000000000
#057361:14
#057321:0000000053535353230000000000000000000000000000000000000000000000
#057331:00000000000000000053005300530053000000000000000000000000000000000000000000000000000000000000000000000000000000000000000000000000
#0573b0:00130000
#057360:0000000000000000000000003454545424000000000000000000000000000000
#057370:00000000000000000000000000000000000000000000000000540054005400540000000000000000000000000000000000000000000000000000000000000000
#058360:0014
#058320:0000000000000000000000000000000000005454545454542400000000000000
#058330:00000000000000000000000000000000000000000000000000000000000000000000000000540054005400540054005400000000000000000000000000000000
#059320:0000000000000000000000000000000014545454240000000000000000000000
#059330:00000000000000000000000000000000000000000000000000000000000000000054005400540054000000000000000000000000000000000000000000000000
#060320:130000000000000000000000530000000000000000000000530000000000000000000000530000000000000000000023000000000000000000000000000000000000000000000000000000000000000000000000000000000000000000000000000000000000000000000000000000000000000000000000000000000000000000000000000000000000000000000000000000000000000000000000000000000000000000000000000000000000000000000000000000000000000000000000000000000000000000000000000000000000000000000000000000000000000000000000000000000000000000000000000000000000000000000000000000000000000000000000000000000000000000000000000000000000000000000000000000000000000000000000000000000000000000000000000000000000000000000000000000000000000000000000000000000000000000000000000000000000000000000000000000000000000000000000000000000000000000000000
#060330:00530053005300530000000000000000000000000000000000000000000000000000000000000000000000000000000000000000000000000000000000000000
#060360:000000000000000000000000000000000000000000000000000000000000000000000000000000000000000000000000001400000000000000000000000000000000000000000000000000000000000000000000000000000000000000000000240000000000000000000000000000000000000000000000000000000000000000000000000000000000000000000000000000000000000000000000000000000000000000000000000000000000000000000000000000000000000000000000000000000000000000000000000000000000000000000000000000000000000000000000000000000000000000000000000000000000000000000000000000000000000000000000000000000000000000000000000000000000000000000000000000000000000000000000000000000000000000000000000000000000000000000000000000000000000000000000000000000000000000000000000000000000000000000000000000000000000000000000000000000000000000000000
#061360:00000000000000000000000000000000000000000000000000000000000000001400000000000000000000540000000000000000000000000000000000000000
#061390:00000000000000000000002500000000
#061321:00000000000000000000001700002500
#061361:000000000000000000000000000000000000000000000000000000000000000000000000000000000000000000000000000000000000000000000000000000000000000000000000000000000000000000000000000000000000000000000000000000000000000000000000000000000000000000000000000000000000000000000000000000000000000000000000000000000000000000000000000000000000000000000000000000000000000000000000000000000000000000000000000000000000000000000000000000000000000000000000000000000000000000000000000000000000000000000000000000000000000000000000000000000000000000000000000000000000000000000000000000000000000000000000000000000000000000000000000000000000000000000000000000000000000000000000000000000000000000000000000000000000000000000000000000000000000000000000000000000000000000000000000000000000000000000000000000000000000000000000000000000000000000000000000000000000000000000000000000000000000000000000000000000000000000000000000000000000000000000000000000000000000000000000000000000000000000000000000000000000000000000000000000000000000000000000000000000000000000000000000000000000000000000000000000000000000000000000000000000000000000000000000000000000000000000000000000000000000000000000000000000000000000000000000000000000000000000000000000000000000000000000000000000000000000000000000000000000000000000000000000000000000000000000000000000000000000000000000000000000000000000000000000000000000000000000000000000000000000000000000000000000000000000000000000000000000000000000000000000000000000000000000000000000000000000000000000000000000000000000000000000000000000000000000000000000000000000000000000000000000000000000000000000000000000000000000000000000000000000000000000000000000000000000000000000000000000000000000000000000000000000000000000000000000000000000000000000000000000000000000000000000000000000000000000000000000000000000000000000000000000000000000000000000000000000000000000000000000000000000000000000000000000000000000000000000000000000000000000000000000000000000000000000000000000000000000000000000000000000000000000000000000000000000000000000000000000000000000000000000000000000000000000000000000000000000000000000000000000000000000000000000000000000000000000000000000000000000000000000000000000000000000000000000000000000000000000000000000000000000000000000000000000000000000000000000000000000000000000000000000000000000000000000000000000000000000000000000000000000000000000000000000000000000000000000000000000000000000000000000000000000000000000000000000000000000000000000000000000000000000000000000000000000000000000000000000000000000000000000000000000000000000000000000000000000000000000000000000000000000000000000000000000000000000000000000000000000000005400000000000000000000000000000000000000000000000000000000000000000000000000000000000000000000000000000000000000000000000000000000000000000000000000000000000000000000000000000000000000000000000000000000000000000000000000000000000000000000000000000000000000000000000000000000000000000000000000000000000000000000000000000000000000000000000000000000000000000000000000000000000000000000000000000000000000000000000000000000000000000000000000000000000000000000000000000000000000000000000000000000000000000000000000000000000000000000000000000000000000000000000000000000000000000000000000000000000000000000000000000000000000000000000000000000000000000000000000000000540000000000000000000000000000000000000000000000000000000000000000000000000000000000000000000000000000000000000000000000000000000000000000000000000000000000000000000000000000000000000000000000000000000000000000000000000000000000000000000000000000000000000000000000000000000000000000000000000000000000000000000000000000000000000000000000000000000000000000000000000000000000000000000000000000000000000000000000000000000000000000000000000000000000000000000000000000000000000000000000000000000000000000000000000000000000000000000000000000000000
#061370:0000000000000017
#061360:000000000000000000000000000000000000000000000000000000000000000000000000000000000000000000000000000000000000000000000000000000000000000000000000000000000000000000000000000000000000000000000000000000000000000000000000000000000000000000000000000000000000000000000000000000000000000000000000000000000000000000000000000000000000000000000000000000000000000000000000000000000000000000000000000000000000000000000000000000000000000000000000000000000000000000000000000000000000000000000000000000000000000000000000000000000000000000000000000000000000000000000000000000000000000000000000000000000000000000000000000000000000000000000000000000000000000000000000000000000000000000000000000000000000000000000000000000000000000000000000000000000000000000000000000000000000000000000000000000000000000000000000000000000000000000000000000000000000000000000000000000000000000000000000000000000000000000000000000000000000000000000000000000000000000000000000000000000000000000000000000000000000000000000000000000000000000000000000000000000000000000000000000000000000000000000000000000000000000000000000000000000000000000000000000000000000000000000000000000000000000000000000000000000000000000000000000000000000000000000000000000000000000000000000000000000000000000000000000000000000000000000000000000000000000000000000000000000000000000000000000000000000000000000000000000000000000000000000000000000000000000000000000000000000000000000000000000000000000000000000000000000000000000000000000000000000000000000000000000000000000000000000000000000000000000000000000000000000000000000000000000000000000000000000000000000000000000000000000000000000000000000000000000000000000000000000000000000000000000000000000000000000000000000000000000000000000000000000000000000000000000000000000000000000000000000000000000000000000000000000000000000000000000000000000000000000000000000000000000000000000000000000000000000000000000000000000000000000000000000000000000000000000000000000000000000000000000000000000000000000000000000000000000000000000000000000000000000000000000000000000000000000000000000000000000000000000000000000000000000000000000000000000000000000000000000000000000000000000000000000000000000000000000000000000000000000000000000000000000000000000000000000000000000000000000000000000000000000000000000000000000000000000000000000000000000000000000000000000000000000000000000000000000000000000000000000000000000000000000000000000000000000000000000000000000000000000000000000000000000000000000000000000000000000000000000000000000000000000000000000000000000000000000000000000000000000000000000000000000000000000000000000000000000000000000000000000000000000000000000000000000000000000000000000000000000000000000000000000000000000000000000000000000000000000000000000000000000000000000000000000000000000000000000000000000000000000000000000000000000000000000000000000000000000000000000000000000000000000000000000000000000000000000000000000000000000000000000000000000000000000000000000000000000000000000000000000000000000000000000000000000000000000000000000000000000000000000000000000000000000000000000000000000000000000000000000000000000000000000000000000000000000000000000000000000000000000000000000000000000000000000000000000000000000000000000000000000000000000000000000000000000000000000000000000000000000000000000000000000000000000000000000000000000000000000000000000000000000000000000000005400000000000000000000000000000000000000000000000000000000000000000000000000000000000000000000000000000000000000000000000000000000000000000000000000000000000000000000000000000000000000000000000000000000000000000000000000000000000000000000000000000000000000000000000000000000000000000000000000000000000000000000000000000000000000000000000000000000000000000000000000000000000000000000000000000000000000000000000000000000000000000000000000000000000000000000000000000000000000000000
#062320:002c
#0633a0:14
#063360:00543400240000000000000000000000
#0633a0:0014
#063360:00000000000000000054340024000000
#064320:00142800
#064360:0000005600000000
#0663b0:13230000
#066370:0033000000000000
#066320:00001323
#066360:0000000000330000
#067320:14
#067360:00543400240000000000000000000000
#067320:0014
#067360:00000000000000000054340024000000
#0683a0:00143424
#068360:0000005400540000
#068321:00000014
#068361:0000000000000054
#069321:24
#0753a1:14
#075381:00240000000000000000000000000000
#075321:00140000
#075341:00000000002400000000000000000000
#0753a1:0014
#075381:00000000000000000024000000000000
#075321:00000014
#076371:55
#076321:00240000
#077321:14
#077341:00240000000000000000000000000000
#0773a1:00140000
#077381:00000000002400000000000000000000
#077321:0014
#077341:00000000000000000024000000000000
#022950:00000012
#022930:00000000000000000000000000220000
#025920:0000000000130000
#025960:00000023
#0289a0:00000014
#028960:0000000000000054
#0299a0:24
#030990:00000012
#0309b0:00000000000000000000000000220000
#0339b0:0000000000130000
#033970:00000023
#058970:00000013
#0589b0:0000000000000023
#059920:0000000000140000
#059960:00000024
#0729b0:0000000012522200
#0729a0:00000000000000000052005200000000
#0779a0:0000000000000014
#078920:0054000000540000
#0789a0:0000005400000000
#078960:00000024
