This file was generated by Ched 2.7.0.0.
#TITLE ""
#ARTIST ""
#DESIGNER ""
#DIFFICULTY 0
#PLAYLEVEL
#SONGID ""
#WAVE ""
#WAVEOFFSET 0
#JACKET ""
#REQUEST "ticks_per_beat 480"
#00002: 4
#BPM01: 170
#00008: 01
#TIL00: ""
#VOLUME: ""
#HISPEED 00
#MEASUREHS 00
#0091b:1300000000000013
#00918:00001300000000130000001300000000
#00915:0000130013130000
#00912:2400001300001300
#00910:41
#01018:1300001300001300
#01015:00001300000000130000001300001300
#01012:00130000
#0101b:0000000013130000
#01216:0000001400140000
#0121a:00140014
#01212:1314
#00218:0013001313000000
#00215:00000000130000000000001300000000
#00212:00000000000000130000000000001300
#0021b:1300000000131300
#00315:13000000000013000000001300001300
#00318:00001300000000130000130000000000
#0031b:00130013
#00312:0013
#0041b:13
#00412:13000014
#0041a:00140000
#00418:0000001400000000
#00416:0014
#00414:0000000000140000
#01112:13000000000000130000000013000000
#01115:0013000000130000
#01118:0000130013000013
#0111b:00000000000013000000001300000000
#01816:0013000053130000
#01812:0000531300005313
#0181b:2323
#01817:00230023
#01814:00000053000000530000005300000053
#01912:00130000
#01915:0000001300000013
#01918:00001313
#0191b:2300000000130000
#01914:0013000000000000
#01916:53
#02017:0013000053130000
#0201b:0000531300005313
#02012:2323
#02016:00230023
#02019:00000053000000530000005300000053
#01712:2300130000130000
#01717:13
#01718:0000001300000013
#01715:00001313
#01710:41
#02118:0000001313000013
#02115:00000000000000130000000013000000
#02112:2300000000130000
#0211f:11
#02117:53
#0221b:1313
#02212:1313
#02215:0013001300001300
#02218:0000130000130013
#02318:00001313
#02315:0000001300000013
#0231b:1300130000130000
#02616:1300000000000013
#02612:00131300
#02617:0000001313000000
#0261b:13000013
#03112:0013000013000000
#03115:1300000000130000
#03118:00130013
#0311b:0000001300000013
#02818:00130000
#02812:0000001300000000
#0281b:00001313
#02815:0000000000000013
#0281a:24
#0281f:21
#02912:13130000
#02918:0000001300000000
#02915:00001313
#0291b:0000000000000013
#02910:41
#03018:0000001300001300
#03012:13130000
#0301b:0000000013000013
#0351b:1313
#03515:00000013
#03518:0000130000000013
#03512:1313
#03215:1300001300000000
#03212:00001313
#03218:0013000000000013
#0331b:13130000
#03315:0000001300000000
#03318:00001313
#03312:0000000000000013
#03415:0000001300001300
#0341b:13130000
#03412:0013
#03617:0000001313000000
#0361b:1300000000000013
#03612:24242424
#03719:0000001300000013
#0371b:13130000
#03712:24242424
#0381b:13130000
#03819:0000001300000000
#03817:00001313
#03812:24242424
#03915:0000000000120000
#03917:00530012
#03919:0000000000000012
#03912:24242400
#0391b:5353
#04016:0000001313000000
#04012:0013000000000013
#0401a:24242424
#04010:41
#04114:0000001300000013
#04112:13130000
#0411a:24242424
#04212:13130000
#04214:0000001300000000
#04216:00001313
#0421a:24242424
#04312:13
#04316:00130000
#0431a:24242400
#0441b:13000013
#04412:24131300
#04417:0000001313000000
#04414:0000000000000013
#04517:13000013
#04516:00131300
#04512:13
#0451b:0000001313000000
#04514:0000000000000013
#04616:13130000
#04619:0000001300000000
#04617:00001313
#0461b:0000000000000013
#04716:13
#04712:0013000013000000
#04718:00130000
#0471b:0000001300000000
#04715:0000000000120000
#04717:00000012
#04719:0000000000000012
#04812:0013000000001300
#0481b:1300001313000000
#04816:0013
#04819:0000000000000013
#04810:41
#04916:13000013
#04917:00131300
#0491b:13
#04912:0000001313000000
#04919:0000000000000013
#05017:13130000
#05014:0000001300000000
#05016:0013
#05012:00000013
#0511b:13130000
#05112:00001313
#05116:1300000000000014
#05117:0013
#05214:0000001300002400
#05219:0000000000000013
#05217:0000000000130000
#0521b:0013
#05216:0013000024000000
#05212:13
#0521a:24
#05218:00240000
#05319:0000001300000000
#05316:00241324
#05314:0000000000000013
#05317:13
#05312:24
#0531a:0024
#05417:13
#0541b:00130000
#05419:0000001300000000
#05412:24001313
#05414:00240000
#05416:0024
#05418:00000024
#05619:0000001300000000
#05614:0000240000000013
#05616:0000000024130000
#05612:2413
#0561b:13
#05617:0013000000000000
#05618:00000024
#05610:41
#0581b:00001313
#05816:1324
#05812:00130000
#05814:0000001300002400
#0581a:24
#05818:00240000
#05714:0000001300000000
#05717:0013
#05719:0000000000000013
#05716:13240024
#0571a:24
#05712:0024
#05912:24130000
#05916:00240000
#0591a:0024
#05512:0000000024130000
#05515:00000013
#05518:0000000000000013
#0551b:000000000000000000000000000000000000000000000000000000000000000000000000000000000000000000000000000000000000000000000000000000000000000000000000000000000000000000000000000000000000000000000000000000000000000000000000000000000000000000000000000000000000000000000000000000000000000000000000000000000000000000000000000000000000000000000000000000000000000000000000000000000000000000000000000000000000000000000000000000000000000000000000000000000000000000000000000000000000000000000000137300000000000000000000000000000000000000000000000000000000000000000000000000000000000000000000000000000000000000000000000000000000000000000000000000000000000000000000000000000000000000000000000000000000000000000000000000000000000000000000000000000000000000000000000000000000000000000000000000000000000000000000000000000000000000000000000000000000000000000000000000000000000000000000000000000000000000000000000000000000000000000000000000000000000000000000000000000000000000000000000000000000000000000000000000000000000000000000000000000000000000000000000000000000000000000000000000000000000000000000000000000000000000000000000000000000000000000000000000000000000000000000000000000000000000000000000000000000000000000000000000000000000000000000000000000000000000000000000000000000000000000000000000000000000000000000000000000000000000000000000000000000000000000000000000000000000000000000000000000000000000000000000000000000000000000000000000000000000000000000000000000000000000000000000000000000000000000000000000000000000000000000000000000000000000000000000000000000000000000000000000000000000000000000000000000000000000000000000000000000000000000000000000000000000000000000000000000000000000000000000000000000000000000000000000000000000000000000000000000000000000000000000000000000000000000000000000000000000000000000000000000000000000000000000000000000000000000000000000000000000000000000000000000000000000000000000000000000000000000000
#0551a:24
#05516:53240000
#05517:0053
#00112:13000000000000000000001300000000
#00115:00001300000000130000000000001300
#00118:0000130000131300
#0011b:0000001313000000
#00615:0013001313000000
#00618:00000000130000000000001300000000
#0061b:00000000000000130000000000001300
#00612:1300000000131300
#00718:13000000000013000000001300001300
#00715:00001300000000130000130000000000
#00712:00130013
#0071b:0013
#00812:13140000
#0081b:13
#00814:0000001400000000
#00816:0014
#00818:0000000000140000
#0081a:00000014
#0051b:13000000000000000000001300000000
#00518:00001300000000130000000000001300
#00515:0000130000131300
#00512:0000001313000000
#01312:1300000000000013
#01315:00001300000000130000001300000000
#01318:0000130013130000
#0131b:1300001300001300
#01415:1300001300001300
#01418:00001300000000130000001300001300
#0141b:00130000
#01412:0000000013130000
#0151b:13000000000000130000000013000000
#01518:0013000000130000
#01515:0000130013000013
#01512:00000000000013000000001300000000
#0161b:13
#01615:0016160016001600
#0161a:0000001400000014
#01612:0000000000140000
#06015:1300000000000016
#06014:0013000000000000
#06012:0000001313000000
#06013:00130000
#06016:0000000000130000
#06018:26262626
#0611b:1300001300000000
#0611a:0013
#06119:0000000000130000
#06118:00000013
#06116:0000000000000014
#06117:0013000000000000
#06112:26262626
#06215:0000001600000000
#06216:0013000000000000
#06212:13002626
#06217:0000000000130000
#0621b:0013
#06218:26260000
#02412:23
#02418:23000023000023002300000023000000
#02415:0000000000230023
#0271a:24
#02716:00240000
#02712:0024
#06312:26262600
#06318:26262600
#02512:00000024
#0251a:00000024
#02518:23000023000023002300000000000000
#02515:0000000000230000
#01757:53
#01752:13
#0185b:1313
#01857:00130013
#0195b:13
#02052:1313
#02056:00130013
#02152:13
#02452:13
#0285a:14
#0265b:63
#02652:0053
#03155:63
#03158:00530000
#03152:0023000000000000
#0315b:0000002300000000
#03058:00000053
#0305b:0000000000000023
#03455:00000063
#03558:00530000
#0355b:0063
#03552:53
#0365b:63
#03657:0053
#03652:14
#03857:00000053
#0385b:13
#04056:0063
#04052:0013000000000000
#04352:5313
#04356:00630000
#04256:00000063
#04252:13
#0445b:63
#04452:1453
#04557:53
#04556:0063
#04552:13
#0465b:0000000000000023
#04657:00001353
#04656:13
#04756:63
#04752:0023000000000000
#04758:00530000
#0475b:0000002300000000
#04852:0053000000000000
#0485b:1363
#04956:63
#04957:0053
#0495b:13
#05052:00000053
#05057:13
#05056:0013
#0515b:13630000
#05156:63
#05157:0053
#05152:0013
#05257:0000000000230000
#0525b:0063
#05256:0023000000000000
#05252:53
#0525a:14
#05356:0063
#05357:53
#05656:0000000000230000
#05652:1453
#0585b:00001363
#05856:13
#05757:0053
#05756:63
#05952:00530000
#05956:0013
#05957:13
#00952:14
#06352:3636
#06358:00464600
#06056:0000000000230000
#06052:0053
#06058:16
#06157:0023000000000000
#0615b:63
#06152:16
#06256:0023000000000000
#06252:5316
#06257:0000000000230000
#0625b:00006343
#06258:16
#0235b:13
#0395b:6313
#03957:00530000
#05452:00001353
#05457:13
#0555b:000000000000000000000000000000000000000000000000000000000000000000000000000000000000000000000000000000000000000000000000000000000000000000000000000000000000000000000000000000000000000000000000000000000000000000000000000000000000000000000000000000000000000000000000000000000000000000000000000000000000000000000000000000000000000000000000000000000000000000000000000000000000000000000000000000000000000000000000000000000000000000000000000000000000000000000000000000000000000000000000006300000000000000000000000000000000000000000000000000000000000000000000000000000000000000000000000000000000000000000000000000000000000000000000000000000000000000000000000000000000000000000000000000000000000000000000000000000000000000000000000000000000000000000000000000000000000000000000000000000000000000000000000000000000000000000000000000000000000000000000000000000000000000000000000000000000000000000000000000000000000000000000000000000000000000000000000000000000000000000000000000000000000000000000000000000000000000000000000000000000000000000000000000000000000000000000000000000000000000000000000000000000000000000000000000000000000000000000000000000000000000000000000000000000000000000000000000000000000000000000000000000000000000000000000000000000000000000000000000000000000000000000000000000000000000000000000000000000000000000000000000000000000000000000000000000000000000000000000000000000000000000000000000000000000000000000000000000000000000000000000000000000000000000000000000000000000000000000000000000000000000000000000000000000000000000000000000000000000000000000000000000000000000000000000000000000000000000000000000000000000000000000000000000000000000000000000000000000000000000000000000000000000000000000000000000000000000000000000000000000000000000000000000000000000000000000000000000000000000000000000000000000000000000000000000000000000000000000000000000000000000000000000000000000000000000000000000000000000000000000
#05557:0013
#05556:13
#03258:0013000000000000
#0375b:13
#04152:13
#017370:13
#0173b0:00230000
#023320:13230000
#0263b0:13
#026370:00230000
#026320:0013
#026360:00000023
#028320:13230000
#028350:00001323
#029380:13230000
#0293b0:00001323
#030380:13230000
#030350:00001323
#030381:00000013
#0303b1:0000000000000053
#031381:23
#031350:13230000
#031320:0053000000000000
#031381:00132300
#0313b1:0000005300000000
#032381:00001323
#033351:13230000
#033321:00001323
#034351:13230000
#034381:00001323
#034350:00000013
#035320:33
#035350:00230000
#035381:00130023
#0353b1:0033
#0363b1:13
#036371:00230000
#036371:0013
#0363b1:00000023
#037371:00001323
#038371:00000013
#0393b1:23
#040361:0013
#040321:00000023
#041361:00001323
#042361:00000013
#043321:3323
#043361:00330000
#0443b1:13
#044371:00230000
#044321:0013
#044361:00000023
#045371:13
#0453b1:00230000
#045361:0013
#045321:00000023
#0463b1:13230000
#046321:00001323
#046370:00000013
#0463b0:0000000000000053
#047390:23
#047361:13
#047321:0053000000000000
#047351:00230000
#047380:00130000
#0473b0:0000005300000000
#047370:0023
#048320:0013000000000000
#048360:0000002300000000
#0483b0:0013
#048370:00000023
#049360:13
#049320:00230000
#049370:0013
#0493b0:00000023
#050320:13230000
#0503b0:00001323
#050321:00000013
#051361:33
#051321:00230000
#0513b0:00130023
#051370:0033
#052320:13230000
#052360:0053000000000000
#0523b0:00001323
#052370:0000000000530000
#053370:13
#0533b0:00230000
#053360:0013
#053320:00000023
#056320:00001323
#056360:0000000000530000
#057360:13
#057320:00230000
#057370:0013
#0573b0:00000023
#0583b0:00000013
#059370:23
#059320:00130000
#059360:0023
#060320:00001323
#060360:0000000000530000
#0613b0:13230000
#061370:0053000000000000
#062320:13230000
#062360:0053000000000000
#0623b0:00001323
#062370:0000000000530000
#018960:0013000000000000
#018920:00230000
#018920:0000001300000000
#018960:0023
#018960:0000000000130000
#018920:00000023
#018920:0000000000000013
#019960:23
#020970:0013000000000000
#0209b0:00230000
#0209b0:0000001300000000
#020970:0023
#020970:0000000000130000
#0209b0:00000023
#0209b0:0000000000000013
#021970:23
#0399b0:130000000000000000000000000000000000000000000000000000000000000000000000000000000000000000000000000000000000000000000000000000000000000000000000000000000000000000000000000000000000000000000000000000000000000000000000000000000000000000000000000000000000000000000000000000000000000000000000000000000000000000000000000000000000000000000000000000000000000000000000000000000000000000000000000000000000000000000000000000000000000000000000000000000000000000000000000000000000000000000000000000000000000000000000000000000000000000000000000000000000000000000000000000000000000000000000000000000000000000000000000000000000000000000000000000000000000000000000000000000000000000000000000000000000000000000000000000000000000000000000000000000000000000000000000000000000000000000000000000000000000000000000000000000000000000000000000000000000000000000000000000000000000000000000000000000000000000000000000000000000000000000000000000000000000000000000000000000000000000000000000000000000000000000000000000000000000000000000000000000000000000000000000000000000000000000000000000000000000000000000000000000000000000000000000000000000000000000000000000000000000000000000000000000000000000000000000000000000000000000000000000000000000000000000000000000000000000000000000000000000000000000000000000000000000000000000000000000000000000000000000000000000000000000000000000000000000000000000000000000000000000000000000000000000000000000000000000000000000000000000000000000000000000000000000000000000000000000000000000000000000000000000000000000000000000000000000000000000000000000000000000000000000000000000000000000000000000000000000000000000000000000000000000000000000000000000000000000000000000000000000000000000000000000000000000000000000000000000000000000000000000000000000000000000000000000000000000000000000000000000000000000000000000000000000000000000000000000000000000000000000000000000000000000000000000000000000000000000000000000053230000000000000000000000000000000000000000000000000000000000000000000000000000000000000000000000000000000000000000000000000000000000000000000000000000000000000000000000000000000000000000000000000000000000000000000000000000000000000000000000000000000000000000000000000000000000000000000000000000000000000000000000000000000000000000000000000000000000000000000000000000000000000000000000000000000000000000000000000000000000000000000000000000000000000000000000000000000000000000000000000000000000000000000000000000000000000000000000000000000000000000000000000000000000000000000000000000000000000000000000000000000000000000000000000000000000000000000000000000000000000000000000000000000000000000000000000000000000000000000000000000000000000000000000000000000000000000000000000000000000000000000000000000000000000000000000000000000000000000000000000000000000000000000000000000000000000000000000000000000000000000000000000000000000000000000000000000000000000000000000000000000000000000000000000000000000000000000000000000000000000000000000000000000000000000000000000000000000000000000000000000000000000000000000000000000000000000000000000000000000000000000000000000000000000000000000000000000000000000000000000000000000000000000000000000000000000000000000000000000000000000000000000000000000000000000000000000000000000000000000000000000000000000000000000000000000000000000000000000000000000000000000000000000000000000000000000000000000000000000000000000000000000000000000000000000000000000000000000000000000000000000000000000000000000000000000000000000000000000000000000000000000000000000000000000000000000000000000000000000000000000000000000000000000000000000000000000000000000000000000000000000000000000000000000000000000000000000000000000000000000000000000000000000000000000000000000000000000000000000000000000000000000000000000000000000000000000000000000000000000000000000000000000000000000000000000000000000000000000000000
#039970:000000000000000000000000000000000000000000000000000000000000000000000000000000000000000000000000000000000000000000000000000000000000000000000000000000000000000000000000000000000000000000000000000000000000000000000000000000000000000000000000000000000000000000000000000000000000000000000000000000000000000000000000000000000000000000000000000000000000000000000000000000000000000000000000000000000000000000000000000000000000000000000000000000000000000000000000000000000000000000000000000000000000000000000000000000000000000000000000000000000000000000000000000000000000000000000000000000000000000000000000000000000000000000000000000000000000000000000000000000000000000000000000000000000000000000000000000000000000000000000000000000000000000000000000000000000000000000000000000000000000000000000000000000000000000000000000000000000000000000000000000000000000000000000000000000000000000000000000000000000000000000000000000000000000000000000000000000000000000000000053530000000000000000000000000000000000000000000000000000000000000000000000000000000000000000000000000000000000000000000000000000000000000000000000000000000000000000000000000000000000000000000000000000000000000000000000000000000000000000000000000000000000000000000000000000000000000000000000000000000000000000000000000000000000000000000000000000000000000000000000000000000000000000000000000000000000000000000000000000000000000000000000000000000000000000000000000000000000000000000000000000000000000000000000000000000000000000000000000000000000000000000000000000000000000000000000000000000000000000000000000000000000000000000000000000000000000000000000000000000000000000000000000000000000000000000000000000000000000000000000000000000000000000000000000000000000000000000000000000000000000000000000000000000000000000000000000000000000000000000000000000000000000000000000000000000000000000000000000000000000000000000000000000000000000000000000000000000000000000000000000000000000000000000000000000000000000000000000000000000000000000000000000000000000000000000000000000000000000000000000000000000000000000000000000000000000000000000000000000000000000000000000000000000000000000000000000000000000000000000000000000000000000000000000000000000000000000000000000000000000000000000000000000000000000000000000000000000000000000000000000000000000000000000000000000000000000000000000000000000000000000000000000000000000000000000000000000000000000000000000000000000000000000000000000000000000000000000000000000000000000000000000000000000000000000000000000000000000000000000000000000000000000000000000000000000000000000000000000000000000000000000000000000000000000000000000000000000000000000000000000000000000000000000000000000000000000000000000000000000000000000000000000000000000000000000000000000000000000000000000000000000000000000000000000000000000000000000000000000000000000000000000000000000000000000000000000000000000000000000000000000000000000000000000000000000000000000000000000000000000000000000000000000000000000000000000000000000000000000000000000000000000000000000000000000000000000000000000000000000000000000000000000000000000000000000000000000000000000000000000000000000000000000000000000000000000000000000000000000000000000000000000000000000000000000000000000000000000000000000000000000000000000000000000000000000000000000000000000000000000000000000000000000000000000000000000000000000000000000000000000000000000000000000000000000000000000000000000000000000000000000000000000000000000000000000000000000000000000000000000000000000000000000000000000000000000000000000000000000000000000000000000000000000000000000000000000000000000000000000000000000000000000000000000000000000000000000000000000000000000000000000000000000000000000000000000000000000000000000000000000000000000000000000000000000000000000000000000000000000000000000000000000000000000000000000000000000000000000000000000
#054920:00000013
#054960:000000000000000000000000000000000000000000000000000000000000000000000000000000000000000000000000000000000000000000000000000000000000000000000000000000000000000000000000000000000000000000000000000000000000000000000000000000000000000000000000000000000000000000000000000000000000000000000000000000000000000000000000000000000000000000000000000000000000000000000000000000000000000000000000000000000000000000000000000000000000000000000000000000000000000000000000000000000000000000000000000000000000000000000000000000000000000000000000000000000000000000000000000000000000000000000000000000000000000000000000000000000000000000000000000000000000000000000000000000000000000000000000000000000000000000000000000000000000000000000000000000000000000000000000000000000000000000000000000000000000000000000000000000000000000000000000000000000000000000000000000000000000000000000000000000000000000000000000000000000000000000000000000000000000000000000000000000000000000000000000000000000000000000000000000000000000000000000000000000000000000000000000000000000000000000000000000000000000000000000000000000000000000000000000000000000000000000000000000000000000000000000000000000000000000000000000000000000000000000000000000000000000000000000000000000000000000000000000000000000000000000000000000000000000000000000000000000000000000000000000000000000000000000000000000000000000000000000000000000000000000000000000000000000000000000000000000000000000000000000000000000000000000000000000000000000000000000000000000000000000000000000000000000000000000000000000000000000000000000000000000000000000000000000000000000000000000000000000000000000000000000000000000000000000000000000000000000000000000000000000000000000000000000000000000000000000000000000000000000000000000000000000000000000000000000000000000000000000000000000000000000000000000000000000000000000000000000000000000000000000000000000000000000000000000000000000000000000000000000000000000000000000000000000000000000000000000000000000000000000000000000000000000000000000000000000000000000000000000000000000000000000000000000000000000000000000000000000000000000000000000000000000000000000000000000000000000000000000000000000000000000000000000000000000000000000000000000000000000000000000000000000000000000000000000000000000000000000000000000000000000000000000000000000000000000000000000000000000000000000000000000000000000000000000000000000000000000000000000000000000000000000000000000000000000000000000000000000000000000000000000000000000000000000000000000000000000000000000000000000000000000000000000000000000000000000000000000000000000000000000000000000000000000000000000000000000000000000000000000000000000000000000000000000000000000000000000000000000000000000000000000000000000000000000000000000000000000000000000000000000000000000000000000000000000000000000000000000000000000000000000000000000000000000000000000000000000000000000000000000000000000000000000000000000000000000000000000000000000000000000000000000000000000000000000000000000000000000000000000000000000000000000000000000000000000000000000000000000000000000000000000000000000000000000000000000000000000000000000000000000000000000000000000000000000000000000000000000000000000000000000000000000000000000000000000000000000000000000000000000000000000000000000000000000000000000000000000000000000000000000000000000000000000000000000000000000000000000000000000000000000000000000000000000000000000000000000000000000000000000000000000000000000000000000000000000000000000000000000000000000000000000000000000000000000000000000000000000000000000000000000000000000000000000000000000000000000000000000000000000000000000000000000000000000000000000000000000000000000000000000000000000000000000000000000000000000000000000000000000000000000000000000000000000000000000000000000000000000000000000000000000000000000000000000000000000000000000000000000000000053
#055960:23
#0559b0:000000000000000000000000000000000000000000000000000000000000000000000000000000000000000000000000000000000000000000000000000000000000000000000000000000000000000000000000000000000000000000000000000000000000000000000000000000000000000000000000000000000000000000000000000000000000000000000000000000000000000000000000000000000000000000000000000000000000000000000000000000000000000000000000000000000000000000000000000000000000000000000000000000000000000000000000000000000000000000000000000000000000000000000000000000000000000000000000000000000000000000000000000000000000000000000000000000000000000000000000000000000000000000000000000000000000000000000000000000000000000000000000000000000000000000000000000000000000000000000000000000000000000000000000000000000000000000000000000000000000000000000000000000000000000000000000000000000000000000000000000000000000000000000000000000000000000000000000000000000000000000000000000000000000000000000000000000000000000000000000135353000000000000000000000000000000000000000000000000000000000000000000000000000000000000000000000000000000000000000000000000000000000000000000000000000000000000000000000000000000000000000000000000000000000000000000000000000000000000000000000000000000000000000000000000000000000000000000000000000000000000000000000000000000000000000000000000000000000000000000000000000000000000000000000000000000000000000000000000000000000000000000000000000000000000000000000000000000000000000000000000000000000000000000000000000000000000000000000000000000000000000000000000000000000000000000000000000000000000000000000000000000000000000000000000000000000000000000000000000000000000000000000000000000000000000000000000000000000000000000000000000000000000000000000000000000000000000000000000000000000000000000000000000000000000000000000000000000000000000000000000000000000000000000000000000000000000000000000000000000000000000000000000000000000000000000000000000000000000000000000000000000000000000000000000000000000000000000000000000000000000000000000000000000000000000000000000000000000000000000000000000000000000000000000000000000000000000000000000000000000000000000000000000000000000000000000000000000000000000000000000000000000000000000000000000000000000000000000000000000000000000000000000000000000000000000000000000000000000000000000000000000000000000000000000000000000000000000000000000000000000000000000000000000000000000000000000000000000000000000000000000000000000000000000000000000000000000000000000000000000000000000000000000000000000000000000000000000000000000000000000000000000000000000000000000000000000000000000000000000000000000000000000000000000000000000000000000000000000000000000000000000000000000000000000000000000000000000000000000000000000000000000000000000000000000000000000000000000000000000000000000000000000000000000000000000000000000000000000000000000000000000000000000000000000000000000000000000000000000000000000000000000000000000000000000000000000000000000000000000000000000000000000000000000000000000000000000000000000000000000000000000000000000000000000000000000000000000000000000000000000000000000000000000000000000000000000000000000000000000000000000000000000000000000000000000000000000000000000000000000000000000000000000000000000000000000000000000000000000000000000000000000000000000000000000000000000000000000000000000000000000000000000000000000000000000000000000000000000000000000000000000000000000000000000000000000000000000000000000000000000000000000000000000000000000000000000000000000000000000000000000000000000000000000000000000000000000000000000000000000000000000000000000000000000000000000000000000000000000000000000000000000000000000000000000000000000000000000000000000000000000000000000000000000000000000000000000000000000000000000000000000000000000000000000000000000000000000000000000000000000000000000000000000000000000000000000000000000000000000
#055970:000000000000000000000000000000000000000000000000000000000000000000000000000000000000000000000000000000000000000000000000000000000000000000000000000000000000000000000000000000000000000000000000000000000000000000000000000000000000000000000000000000000000000000000000000000000000000000000000000000000000000000000000000000000000000000000000000000000000000000000000000000000000000000000000000000000000000000000000000000000000000000000000000000000000000000000000000000000000000000000000000000000000000000000000000000000000000000000000000000000000000000000000000000000000000000000000000000000000000000000000000000000000000000000000000000000000000000000000000000000000000000000000000000000000000000000000000000000000000000000000000000000000000000000000000000000000000000000000000000000000000000000000000000000000000000000000000000000000000000000000000000000000000000000000000000000000000000000000000000000000000000000000000000000000000000000000000000000000000000000000000000000000000000000000000000000000000000000000000000000000000000000000000000000000000000000000000000000000000000000000000000000000000000000000000000000000000000000000000000000000000000000000000000000000000000000000000000000000000000000000000000000000000000000000000000000000000000000000000000000000000000000000000000000000000000000000000000000000000000000000000000000000000000000000000000000000000000000000000000000000000000000000000000000000000000000000000000000000000000000000000000000000000000000000000000000000000000000000000000000000000000000000000000000000000000000000000000000000000000000000000000000000000000000000000000000000000000000000000000000000000000000000000000000000000000000000000000000000000000000000000000000000000000000000000000000000000000000000000000000000000000000000000000000000000000000000000000000000000000000000000000000000000000000000000000000000000000000000000000000000000000000000000000000000000000000000000000000000000000000053230000000000000000000000000000000000000000000000000000000000000000000000000000000000000000000000000000000000000000000000000000000000000000000000000000000000000000000000000000000000000000000000000000000000000000000000000000000000000000000000000000000000000000000000000000000000000000000000000000000000000000000000000000000000000000000000000000000000000000000000000000000000000000000000000000000000000000000000000000000000000000000000000000000000000000000000000000000000000000000000000000000000000000000000000000000000000000000000000000000000000000000000000000000000000000000000000000000000000000000000000000000000000000000000000000000000000000000000000000000000000000000000000000000000000000000000000000000000000000000000000000000000000000000000000000000000000000000000000000000000000000000000000000000000000000000000000000000000000000000000000000000000000000000000000000000000000000000000000000000000000000000000000000000000000000000000000000000000000000000000000000000000000000000000000000000000000000000000000000000000000000000000000000000000000000000000000000000000000000000000000000000000000000000000000000000000000000000000000000000000000000000000000000000000000000000000000000000000000000000000000000000000000000000000000000000000000000000000000000000000000000000000000000000000000000000000000000000000000000000000000000000000000000000000000000000000000000000000000000000000000000000000000000000000000000000000000000000000000000000000000000000000000000000000000000000000000000000000000000000000000000000000000000000000000000000000000000000000000000000000000000000000000000000000000000000000000000000000000000000000000000000000000000000000000000000000000000000000000000000000000000000000000000000000000000000000000000000000000000000000000000000000000000000000000000000000000000000000000000000000000000000000000000000000000000000000000000000000000000000000000000000000000000000000000000000000000000000000000000000000
