This file was generated by Ched 2.7.0.0.
#TITLE ""
#ARTIST ""
#DESIGNER ""
#DIFFICULTY 0
#PLAYLEVEL
#SONGID ""
#WAVE ""
#WAVEOFFSET 0
#JACKET ""
#REQUEST "ticks_per_beat 480"
#00002: 4
#BPM01: 170
#00008: 01
#TIL00: ""
#VOLUME: ""
#HISPEED 00
#MEASUREHS 00
#02118:0000001300000000
#02115:00000000000000130000000000000000
#0211b:00001313
#02112:2600000000130013
#0211f:11
#02218:1300130000130000
#02215:0013001300001300
#0221b:0013
#02212:0000000000000013
#02318:00001313
#02315:0000001300130013
#0231b:13
#02615:0000130000000013
#02618:1600001300001300
#02612:0016
#0281b:00130000
#02815:0000001300001300
#0281a:24
#02812:24
#0281f:21
#03015:1313
#0301b:1313
#03012:00130013
#03018:00130013
#03014:0000000000000013
#0301a:0000000000000013
#04012:0013001300000000
#0401b:0013000000000000
#04018:0000000013000013
#04015:00000013
#04010:41
#0501b:13
#05018:00130000
#05015:0000001300000000
#05118:0013
#06015:00130013
#06012:1313
#0601a:24242424
#0011a:14
#00116:0014000000000000
#00112:00141313
#00117:0000001300130013
#00216:0014001300130013
#0021b:00001313
#00212:14
#0021a:00140000
#00418:00131313
#00415:0000001300130000
#00412:15
#0031a:14
#00316:0014000000000000
#00312:00141313
#00317:0000001300130013
#00917:0000001300000000
#00916:0014000000001300
#00919:0000000000130000
#0091b:0000000000000013
#00914:0013
#00912:00140000
#0091a:24
#00910:41
#00512:14
#00516:0014001300000013
#0051a:00140000
#00519:00001313
#00514:0000000000130000
#0061a:14
#00616:0014000000000000
#00612:00140000
#00617:0000001300000013
#00614:00001313
#00619:0000000000130000
#00712:14
#00716:0014001300000013
#0071a:00140000
#00719:00001313
#00714:0000000000130000
#00819:15
#00815:00131313
#00818:0000001300130000
#01016:0014001300000000
#01017:00000013
#01014:0000000000130000
#01012:1400000000000013
#01019:0013
#0101a:00140000
#01117:0000001300000000
#01116:0014000000001300
#01119:0000000000130000
#0111b:0000000000000013
#01114:0013
#0111a:14
#01112:00140000
#01215:16
#01217:00000013
#01219:0013
#01212:0000001300000000
#01214:0000000000130000
#0121b:00130000
#01315:0000001300000013
#0131b:00000013
#01312:1400000000130000
#01318:0013
#01316:0014000000000000
#0131a:00140000
#0141a:14
#01416:0014000000000000
#01412:00140013
#01418:0000001300000013
#0141b:0000000000130000
#01415:0013
#02912:13130000
#02918:1300001300001300
#02910:41
#03113:13130000
#03114:0000001300000000
#03112:0013000000000000
#03119:13130000
#0311a:0000001300000000
#03118:0013000000000000
#03215:0000001300000000
#03218:0000000013000013
#03212:0013000000001300
#0321b:0013000000000000
#03318:0000001300000000
#03315:0000000013000013
#0331b:00000013
#03416:00140000
#0341a:14
#03412:0014
#0341b:00000013
#03415:00000013
#0351a:13
#03514:13
#03519:00130000
#03518:0013
#03513:00130000
#03512:0013
#0361b:00130000
#03615:0000001300000000
#03612:24000013
#0361a:24
#03715:13
#0371b:13000013
#03712:00130000
#03718:0000001300000000
#03815:00131300
#03818:1300001300001300
#03812:13000013
#04212:14
#04216:00140000
#0421a:0014
#04215:00000013
#0421b:00000013
#04312:1313
#04318:1313
#04315:00130000
#0431b:00130000
#0441b:00000013
#04412:24131300
#04418:0000001300000000
#0441a:24
#04512:13000013
#0451b:00131300
#04515:0000001300000000
#04518:13
#04714:0000001300000000
#04713:13130000
#04712:0013000000000000
#04719:0000001300000000
#0471a:13130000
#0471b:0013000000000000
#04614:0000000000000013
#04612:00000013
#04619:0000000000000013
#0461b:13000013
#04618:00131300
#04615:1300001300000000
#04815:0000001300001300
#04812:0013000000000000
#0481b:0013000013000000
#04818:0000000000000013
#04810:41
#04915:0000000000000013
#04918:0000001300001300
#04912:1313
#0521b:0000001300001300
#05212:24130000
#05218:0000000000000013
#05215:0013
#0521a:24
#05315:1300000000000013
#05312:0000001300001300
#0531b:00130000
#05318:0013
#05418:1300001300001300
#05415:00131353
#05515:13531300
#05518:53135300
#05818:0000001300001300
#0581b:00130000
#05812:13
#05815:0013
#05915:0013
#05912:13
#0591b:00130000
#05615:0000001300000013
#0561b:0013000013000000
#05612:0013000000001300
#05610:41
#05718:1300000000000013
#05715:00000013
#05712:0000001300000000
#0571b:0013
#06118:00130013
#0611b:1313
#06112:24242424
#06212:14002424
#0621a:24241400
#04112:13
#04118:0000001300000013
#04115:00001313
#0171b:00130000
#01716:0000001300000000
#01719:0013
#01712:2600000000000013
#01714:0000000000130000
#01717:00000013
#01710:41
#01612:0016160016001600
#01618:1300000000000014
#0161a:0000001400000000
#01619:0000000000140000
#01512:1400000000130000
#01516:0014000000000000
#0151a:00140000
#01515:0000001300000013
#0151b:00000013
#01518:0013
#01815:0000000000000013
#01814:0000000000130000
#01813:0000001300000000
#01812:0013000000000000
#01816:24
#01817:00240000
#01818:0024
#01819:00000024
#01912:00130000
#01917:0000001300000000
#01914:0013
#0191b:0000000000000013
#01919:0000000000130000
#01916:00000013
#01918:26
#02018:0000000000000013
#02019:0000000000130000
#0201a:0000001300000000
#0201b:0013000000000000
#02016:24
#02015:00240000
#02014:0024
#02013:00000024
#02716:24242400
#06312:24252600
#06318:0026
#0631a:24
#06319:00250000
#02412:00000024000000000000000000000000
#0241a:2400002400000000
#02414:00002424
#02418:0000000000240024
#02512:2400002400002400
#0251a:00000024000000000000000024000000
#02518:0024
#02514:0000000000240000
#0391b:5353
#03915:5353
#03918:00530000
#03912:00530000
#0285a:14
#02852:14
#03055:0063
#03054:0000000000000023
#03052:00000053
#0305b:0063
#0305a:0000000000000023
#03058:00000053
#04452:1453
#0445a:14
#0235b:13
#03153:63531300
#03154:0000002300000000
#03152:0023000000000000
#03159:63531300
#0315a:0000002300000000
#03158:0023000000000000
#03252:0013000000000000
#0325b:0013000000000000
#03558:0013
#03552:0013
#0365a:14
#03652:14
#04052:0013000000000000
#0405b:0013000000000000
#04358:0013
#04352:0013
#0455b:0063
#04754:0000002300000000
#04753:63530000
#04752:0023000033000000
#04759:0000002300000000
#0475a:53630000
#0475b:0023000043000000
#04654:0000000000000023
#04652:00000053
#04659:0000000000000023
#0465b:00000063
#04658:0053
#04852:0013000000000000
#0485b:0013000000000000
#05252:14
#0525a:14
#05255:0063
#05358:0053
#03955:6313
#0395b:6313
#03952:00530000
#03958:00530000
#03858:00000053
#03852:00000053
#0565b:0013000063000000
#05652:0013000000000000
#05758:53
#05852:53
#05855:0063
#05858:00000053
#05952:53
#0595b:00630000
#06252:54
#0625a:0064
#06352:0016
#06358:0016
#04152:53
#04952:53
#0095a:14
#01752:16
#01856:14
#01857:00140000
#01858:0014
#01859:00000014
#01958:16
#02056:14
#02055:00140000
#02054:0014
#02053:00000014
#02152:16
#0283b0:00001323
#029320:00001323
#030350:0013
#030320:00000033
#030340:0000000000000053
#031330:33332300
#031320:0053000000000000
#031340:0000005300000000
#0303b1:0013
#030381:00000033
#0303a1:0000000000000053
#031391:33332300
#031381:0053000000000000
#0313a1:0000005300000000
#033321:13230000
#036381:00001323
#037351:00001323
#041321:13
#041351:00230000
#044321:0013
#044351:00000023
#0453b1:0013
#045381:00000023
#046381:0013
#0463b1:00000033
#046391:0000000000000053
#0473a1:33330000
#0473b1:0053000023000000
#047391:0000005300000000
#046320:00000013
#046340:0000000000000053
#047330:33330000
#047320:0053000023000000
#047340:0000005300000000
#049320:13
#049350:00230000
#050380:00001323
#050351:00000013
#051351:23
#051380:13230000
#051351:00132300
#052351:0013
#052321:00000023
#053381:0013
#0533b1:00000023
#0563b1:0013
#056381:00000023
#057381:13
#0573b1:00230000
#058321:13
#058351:00230000
#058351:0013
#058321:00000023
#058380:00000013
#0593b0:23
#059321:13
#059351:00230000
#0593b0:00130000
#059380:0023
#062320:14
#062360:00240000
#0623a0:0014
#062360:00000024
#038980:00000013
#0399b0:530000000000000000000000000000000000000000000000000000000000000000000000000000000000000000000000000000000000000000000000000000000000000000000000000000000000000000000000000000000000000000000000000000000000000000000000000000000000000000000000000000000000000000000000000000000000000000000000000000000000000000000000000000000000000000000000000000000000000000000000000000000000000000000000000000000000000000000000000000000000000000000000000000000000000000000000000000000000000000000000000000000000000000000000000000000000000000000000000000000000000000000000000000000000000000000000000000000000000000000000000000000000000000000000000000000000000000000000000000000000000000000000000000000000000000000000000000000000000000000000000000000000000000000000000000000000000000000000000000000000000000000000000000000000000000000000000000000000000000000000000000000000000000000000000000000000000000000000000000000000000000000000000000000000000000000000000000000000000000000000000000000000000000000000000000000000000000000000000000000000000000000000000000000000000000000000000000000000000000000000000000000000000000000000000000000000000000000000000000000000000000000000000000000000000000000000000000000000000000000000000000000000000000000000000000000000000000000000000000000000000000000000000000000000000000000000000000000000000000000000000000000000000000000000000000000000000000000000000000000000000000000000000000000000000000000000000000000000000000000000000000000000000000000000000000000000000000000000000000000000000000000000000000000000000000000000000000000000000000000000000000000000000000000000000000000000000000000000000000000000000000000000000000000000000000000000000000000000000000000000000000000000000000000000000000000000000000000000000000000000000000000000000000000000000000000000000000000000000000000000000000000000000000000000000000000000000000000000000000000000000000000000000000000000000000000000000000000000000000000053230000000000000000000000000000000000000000000000000000000000000000000000000000000000000000000000000000000000000000000000000000000000000000000000000000000000000000000000000000000000000000000000000000000000000000000000000000000000000000000000000000000000000000000000000000000000000000000000000000000000000000000000000000000000000000000000000000000000000000000000000000000000000000000000000000000000000000000000000000000000000000000000000000000000000000000000000000000000000000000000000000000000000000000000000000000000000000000000000000000000000000000000000000000000000000000000000000000000000000000000000000000000000000000000000000000000000000000000000000000000000000000000000000000000000000000000000000000000000000000000000000000000000000000000000000000000000000000000000000000000000000000000000000000000000000000000000000000000000000000000000000000000000000000000000000000000000000000000000000000000000000000000000000000000000000000000000000000000000000000000000000000000000000000000000000000000000000000000000000000000000000000000000000000000000000000000000000000000000000000000000000000000000000000000000000000000000000000000000000000000000000000000000000000000000000000000000000000000000000000000000000000000000000000000000000000000000000000000000000000000000000000000000000000000000000000000000000000000000000000000000000000000000000000000000000000000000000000000000000000000000000000000000000000000000000000000000000000000000000000000000000000000000000000000000000000000000000000000000000000000000000000000000000000000000000000000000000000000000000000000000000000000000000000000000000000000000000000000000000000000000000000000000000000000000000000000000000000000000000000000000000000000000000000000000000000000000000000000000000000000000000000000000000000000000000000000000000000000000000000000000000000000000000000000000000000000000000000000000000000000000000000000000000000000000000000000000000000000000000000000
#039980:00530000
#038921:00000013
#039951:530000000000000000000000000000000000000000000000000000000000000000000000000000000000000000000000000000000000000000000000000000000000000000000000000000000000000000000000000000000000000000000000000000000000000000000000000000000000000000000000000000000000000000000000000000000000000000000000000000000000000000000000000000000000000000000000000000000000000000000000000000000000000000000000000000000000000000000000000000000000000000000000000000000000000000000000000000000000000000000000000000000000000000000000000000000000000000000000000000000000000000000000000000000000000000000000000000000000000000000000000000000000000000000000000000000000000000000000000000000000000000000000000000000000000000000000000000000000000000000000000000000000000000000000000000000000000000000000000000000000000000000000000000000000000000000000000000000000000000000000000000000000000000000000000000000000000000000000000000000000000000000000000000000000000000000000000000000000000000000000000000000000000000000000000000000000000000000000000000000000000000000000000000000000000000000000000000000000000000000000000000000000000000000000000000000000000000000000000000000000000000000000000000000000000000000000000000000000000000000000000000000000000000000000000000000000000000000000000000000000000000000000000000000000000000000000000000000000000000000000000000000000000000000000000000000000000000000000000000000000000000000000000000000000000000000000000000000000000000000000000000000000000000000000000000000000000000000000000000000000000000000000000000000000000000000000000000000000000000000000000000000000000000000000000000000000000000000000000000000000000000000000000000000000000000000000000000000000000000000000000000000000000000000000000000000000000000000000000000000000000000000000000000000000000000000000000000000000000000000000000000000000000000000000000000000000000000000000000000000000000000000000000000000000000000000000000000000000000000000053230000000000000000000000000000000000000000000000000000000000000000000000000000000000000000000000000000000000000000000000000000000000000000000000000000000000000000000000000000000000000000000000000000000000000000000000000000000000000000000000000000000000000000000000000000000000000000000000000000000000000000000000000000000000000000000000000000000000000000000000000000000000000000000000000000000000000000000000000000000000000000000000000000000000000000000000000000000000000000000000000000000000000000000000000000000000000000000000000000000000000000000000000000000000000000000000000000000000000000000000000000000000000000000000000000000000000000000000000000000000000000000000000000000000000000000000000000000000000000000000000000000000000000000000000000000000000000000000000000000000000000000000000000000000000000000000000000000000000000000000000000000000000000000000000000000000000000000000000000000000000000000000000000000000000000000000000000000000000000000000000000000000000000000000000000000000000000000000000000000000000000000000000000000000000000000000000000000000000000000000000000000000000000000000000000000000000000000000000000000000000000000000000000000000000000000000000000000000000000000000000000000000000000000000000000000000000000000000000000000000000000000000000000000000000000000000000000000000000000000000000000000000000000000000000000000000000000000000000000000000000000000000000000000000000000000000000000000000000000000000000000000000000000000000000000000000000000000000000000000000000000000000000000000000000000000000000000000000000000000000000000000000000000000000000000000000000000000000000000000000000000000000000000000000000000000000000000000000000000000000000000000000000000000000000000000000000000000000000000000000000000000000000000000000000000000000000000000000000000000000000000000000000000000000000000000000000000000000000000000000000000000000000000000000000000000000000000000000000000000000
#039921:00530000
#054951:000000000000000000000000000000000000000000000000000000000000000000000000000000000000000000000000000000000000000000000000000000000000000000000000000000000000000000000000000000000000000000000000000000000000000000000000000000000000000000000000000000000000000000000000000000000000000000000000000000000000000000000000000000000000000000000000000000000000000000000000000000000000000000000000000000000000000000000000000000000000000000000000000000000000000000000000000000000000000000000000000000000000000000000000000000000000000000000000000000000000000000000000000000000000000000000000000000000000000000000000000000000000000000000000000000000000000000000000000000000000000000000000000000000000000000000000000000000000000000000000000000000000000000000000000000000000000000000000000000000000000000000000000000000000000000000000000000000000000000000000000000000000000000000000000000000000000000000000000000000000000000000000000000000000000000000000000000000000000000000000000000000000000000000000000000000000000000000000000000000000000000000000000000000000000000000000000000000000000000000000000000000000000000000000000000000000000000000000000000000000000000000000000000000000000000000000000000000000000000000000000000000000000000000000000000000000000000000000000000000000000000000000000000000000000000000000000000000000000000000000000000000000000000000000000000000000000000000000000000000000000000000000000000000000000000000000000000000000000000000000000000000000000000000000000000000000000000000000000000000000000000000000000000000000000000000000000000000000000000000000000000000000000000000000000000000000000000000000000000000000000000000000000000000000000000000000000000000000000000000000000000000000000000000000000000000000000000000000000000000000000000000000000000000000000000000000000000000000000000000000000000000000000000000000000000000000000000000000000000000000000000000000000000000000000000000000000000000000000000000000130000000000000000000000000000000000000000000000000000000000000000000000000000000000000000000000000000000000000000000000000000000000000000000000000000000000000000000000000000000000000000000000000000000000000000000000000000000000000000000000000000000000000000000000000000000000000000000000000000000000000000000000000000000000000000000000000000000000000000000000000000000000000000000000000000000000000000000000000000000000000000000000000000000000000000000000000000000000000000000000000000000000000000000000000000000000000000000000000000000000000000000000000000000000000000000000000000000000000000000000000000000000000000000000000000000000000000000000000000000000000000000000000000000000000000000000000000000000000000000000000000000000000000000000000000000000000000000000000000000000000000000000000000000000000000000000000000000000000000000000000000000000000000000000000000000000000000000000000000000000000000000000000000000000000000000000000000000000000000000053230000000000000000000000000000000000000000000000000000000000000000000000000000000000000000000000000000000000000000000000000000000000000000000000000000000000000000000000000000000000000000000000000000000000000000000000000000000000000000000000000000000000000000000000000000000000000000000000000000000000000000000000000000000000000000000000000000000000000000000000000000000000000000000000000000000000000000000000000000000000000000000000000000000000000000000000000000000000000000000000000000000000000000000000000000000000000000000000000000000000000000000000000000000000000000000000000000000000000000000000000000000000000000000000000000000000000000000000000000000000000000000000000000000000000000000000000000000000000000000000000000000000000000000000000000000000000000000000000000000000000000000000000000000000000000000000000000000000000000000000000000000000000000000000000000000000000000000000000000000000000000000000000000000000000000000000000000000000000000000000
#054980:000000000000000000000000000000000000000000000000000000000000000000000000000000000000000000000000000000000000000000000000000000000000000000000000000000000000000000000000000000000000000000000000000000000000000000000000000000000000000000000000000000000000000000000000000000000000000000000000000000000000000000000000000000000000000000000000000000000000000000000000000000000000000000000000000000000000000000000000000000000000000000000000000000000000000000000000000000000000000000000000000000000000000000000000000000000000000000000000000000000000000000000000000000000000000000000000000000000000000000000000000000000000000000000000000000000000000000000000000000000000000000000000000000000000000000000000000000000000000000000000000000000000000000000000000000000000000000000000000000000000000000000000000000000000000000000000000000000000000000000000000000000000000000000000000000000000000000000000000000000000000000000000000000000000000000000000000000000000000000000000000000000000000000000000000000000000000000000000000000000000000000000000000000000000000000000000000000000000000000000000000000000000000000000000000000000000000000000000000000000000000000000000000000000000000000000000000000000000000000000000000000000000000000000000000000000000000000000000000000000000000000000000000000000000000000000000000000000000000000000000000000000000000000000000000000000000000000000000000000000000000000000000000000000000000000000000000000000000000000000000000000000000000000000000000000000000000000000000000000000000000000000000000000000000000000000000000000000000000000000000000000000000000000000000000000000000000000000000000000000000000000000000000000000000000000000000000000000000000000000000000000000000000000000000000000000000000000000000000000000000000000000000000000000000000000000000000000000000000000000000000000000000000000000000000000000000000000000000000000000000000000000000000000000000000000000000000000000000000000000000000000000000000000000000000000000000000000000000000000000000000000000000000000000000000000000000000000000000000000000000000000000000000000000000000000000000000000000000000000000000000000000000000000000000000000000000000000000000000000000000000000000000000000000000000000000000000000000000000000000000000000000000000000000000000000000000000000000000000000000000000000000000000000000000000000000000000000000000000000000000000000000000000000000000000000000000000000000000000000000000000000000000000000000000000000000000000000000000000000000000000000000000000000000000000000000000000000000000000000000000000000000000000000000000000000000000000000000000000000000000000000000000000000000000000000000000000000000000000000000000000000000000000000000000000000000000000000000000000000000000000000000000000000000000000000000000000000000000000000000000000000000000000000000000000000000000000000000000000000000000000000000000000000000000000000000000000000000000000000000000130000000000000000000000000000000000000000000000000000000000000000000000000000000000000000000000000000000000000000000000000000000000000000000000000000000000000000000000000000000000000000000000000000000000000000000000000000000000000000000000000000000000000000000000000000000000000000000000000000000000000000000000000000000000000000000000000000000000000000000000000000000000000000000000000000000000000000000000000000000000000000000000000000000000000000000000000000000000000000000000000000000000000000000000000000000000000000000000000000000000000000000000000000000000000000000000000000000000000000000000000000000000000000000000000000000000000000000000000000000000000000000000000000000000000000000000000000000000000000000000000000000000000000000000000000000000000000000000000000000000000000000000000000000000000000000000000000000000000000000000000000000000000000000000000000000000000000000000000000000000000000000000000000000000000000000000000000000000000000000053
#055980:23
#055951:135300000000000000000000000000000000000000000000000000000000000000000000000000000000000000000000000000000000000000000000000000000000000000000000000000000000000000000000000000000000000000000000000000000000000000000000000000000000000000000000000000000000000000000000000000000000000000000000000000000000000000000000000000000000000000000000000000000000000000000000000000000000000000000000000000000000000000000000000000000000000000000000000000000000000000000000000000000000000000000000000000000000000000000000000000000000000000000000000000000000000000000000000000000000000000000000000000000000000000000000000000000000000000000000000000000000000000000000000000000000000000000000000000000000000000000000000000000000000000000000000000000000000000000000000000000000000000000000000000000000000000000000000000000000000000000000000000000000000000000000000000000000000000000000000000000000000000000000000000000000000000000000000000000000000000000000000000000000000000000053230000000000000000000000000000000000000000000000000000000000000000000000000000000000000000000000000000000000000000000000000000000000000000000000000000000000000000000000000000000000000000000000000000000000000000000000000000000000000000000000000000000000000000000000000000000000000000000000000000000000000000000000000000000000000000000000000000000000000000000000000000000000000000000000000000000000000000000000000000000000000000000000000000000000000000000000000000000000000000000000000000000000000000000000000000000000000000000000000000000000000000000000000000000000000000000000000000000000000000000000000000000000000000000000000000000000000000000000000000000000000000000000000000000000000000000000000000000000000000000000000000000000000000000000000000000000000000000000000000000000000000000000000000000000000000000000000000000000000000000000000000000000000000000000000000000000000000000000000000000000000000000000000000000000000000000000000000000000000000000000000000000000000000000000000000000000000000000000000000000000000000000000000000000000000000000000000000000000000000000000000000000000000000000000000000000000000000000000000000000000000000000000000000000000000000000000000000000000000000000000000000000000000000000000000000000000000000000000000000000000000000000000000000000000000000000000000000000000000000000000000000000000000000000000000000000000000000000000000000000000000000000000000000000000000000000000000000000000000000000000000000000000000000000000000000000000000000000000000000000000000000000000000000000000000000000000000000000000000000000000000000000000000000000000000000000000000000000000000000000000000000000000000000000000000000000000000000000000000000000000000000000000000000000000000000000000000000000000000000000000000000000000000000000000000000000000000000000000000000000000000000000000000000000000000000000000000000000000000000000000000000000000000000000000000000000000000000000000000000000000000000000000000000000000000000000000000000000000000000000000000000000000000000000000000000000000000000000000000000000000000000000000000000000000000000000000000000000000000000000000000000000000000000000000000000000000000000000000000000000000000000000000000000000000000000000000000000000000000000000000000000000000000000000000000000000000000000000000000000000000000000000000000000000000000000000000000000000000000000000000000000000000000000000000000000000000000000000000000000000000000000000000000000000000000000000000000000000000000000000000000000000000000000000000000000000000000000000000000000000000000000000000000000000000000000000000000000000000000000000000000000000000000000000000000000000000000000000000000000000000000000000000000000000000000000000000000000000000000000000000000000000000000000000000000000000000000000000000000000000000000000000000000000000000000000000000000000000000000000000000000000000000000000000000000000000000000000000000000000000000
#055980:000000000000000000000000000000000000000000000000000000000000000000000000000000000000000000000000000000000000000000000000000000000000000000000000000000000000000000000000000000000000000000000000000000000000000000000000000000000000000000000000000000000000000000000000000000000000000000000000000000000000000000000000000000000000000000000000000000000000000000000000000000000000000000000000000000000000000000000000000000000000000000000000000000000000000000000000000000000000000000000000000000000000000000000000000000000000000000000000000000000000000000000000000000000000000000000000000000000000000000000000000000000000000000000000000000000000000000000000000000000000000000000000000000000000000000000000000000000000000000000000000000000000000000000000000000000000000000000000000000000000000000000000000000000000000000000000000000000000000000000000000000000000000000000000000000000000000000000000000000000000000000000000000000000000000000000000000000000000000000000000135300000000000000000000000000000000000000000000000000000000000000000000000000000000000000000000000000000000000000000000000000000000000000000000000000000000000000000000000000000000000000000000000000000000000000000000000000000000000000000000000000000000000000000000000000000000000000000000000000000000000000000000000000000000000000000000000000000000000000000000000000000000000000000000000000000000000000000000000000000000000000000000000000000000000000000000000000000000000000000000000000000000000000000000000000000000000000000000000000000000000000000000000000000000000000000000000000000000000000000000000000000000000000000000000000000000000000000000000000000000000000000000000000000000000000000000000000000000000000000000000000000000000000000000000000000000000000000000000000000000000000000000000000000000000000000000000000000000000000000000000000000000000000000000000000000000000000000000000000000000000000000000000000000000000000000000000000000000000000000053230000000000000000000000000000000000000000000000000000000000000000000000000000000000000000000000000000000000000000000000000000000000000000000000000000000000000000000000000000000000000000000000000000000000000000000000000000000000000000000000000000000000000000000000000000000000000000000000000000000000000000000000000000000000000000000000000000000000000000000000000000000000000000000000000000000000000000000000000000000000000000000000000000000000000000000000000000000000000000000000000000000000000000000000000000000000000000000000000000000000000000000000000000000000000000000000000000000000000000000000000000000000000000000000000000000000000000000000000000000000000000000000000000000000000000000000000000000000000000000000000000000000000000000000000000000000000000000000000000000000000000000000000000000000000000000000000000000000000000000000000000000000000000000000000000000000000000000000000000000000000000000000000000000000000000000000000000000000000000000000000000000000000000000000000000000000000000000000000000000000000000000000000000000000000000000000000000000000000000000000000000000000000000000000000000000000000000000000000000000000000000000000000000000000000000000000000000000000000000000000000000000000000000000000000000000000000000000000000000000000000000000000000000000000000000000000000000000000000000000000000000000000000000000000000000000000000000000000000000000000000000000000000000000000000000000000000000000000000000000000000000000000000000000000000000000000000000000000000000000000000000000000000000000000000000000000000000000000000000000000000000000000000000000000000000000000000000000000000000000000000000000000000000000000000000000000000000000000000000000000000000000000000000000000000000000000000000000000000000000000000000000000000000000000000000000000000000000000000000000000000000000000000000000000000000000000000000000000000000000000000000000000000000000000000000000000000000000000000000000000
