This file was generated by Ched 2.7.0.0.
#TITLE ""
#ARTIST ""
#DESIGNER ""
#DIFFICULTY 0
#PLAYLEVEL
#SONGID ""
#WAVE ""
#WAVEOFFSET 0
#JACKET ""
#REQUEST "ticks_per_beat 480"
#00002: 4
#BPM01: 170
#00008: 01
#TIL00: ""
#VOLUME: ""
#HISPEED 00
#MEASUREHS 00
#02812:00140000
#0281a:24
#0281f:21
#0011a:14141414
#00212:14141414
#00318:1414
#00314:00140014
#00418:14
#00412:00140000
#00416:0014
#0041a:00000014
#00512:14141414
#0061a:14141414
#00714:1414
#00718:00140014
#00814:14
#0081a:00140000
#00816:0014
#00812:00000014
#0091a:14
#00919:00140000
#00918:0014
#00917:00000014
#00910:41
#0111a:14
#01112:00140000
#01118:0014
#01114:00000014
#0121a:14000014
#01212:00140000
#01216:0014
#01012:14
#01013:00140000
#01014:0014
#01015:00000014
#01312:14
#01313:00140000
#01314:0014
#01315:00000014
#01512:14
#0151a:00140000
#01514:0014
#01518:00000014
#0141a:14
#01419:00140000
#01418:0014
#01417:00000014
#01718:00140000
#01714:0014
#0171a:00000014
#01712:24
#01710:41
#01914:00140000
#01918:0014
#01912:00000014
#0191a:24
#0211a:0014
#02112:24000014
#0211f:11
#02218:1414
#02214:00140014
#02318:14
#02312:0014
#0231a:00000014
#0261a:14
#02614:00140000
#02618:0014
#02612:00000014
#0291a:00140000
#02912:14
#02910:41
#03012:00140000
#0301a:14
#03018:0014
#03014:00000014
#03013:0000000000000014
#03114:14140000
#03115:0014000000000000
#03113:0000001400000000
#03214:00140014
#0321a:1414
#03312:0014
#03318:00000014
#03412:14
#03418:00140000
#03414:0014
#0341a:00000014
#03514:14
#03518:00140000
#03512:0014
#03614:00140000
#0361a:0014
#03612:00000014
#03618:24
#03816:00140000
#0381a:14000014
#03812:0014
#0371a:0014
#03712:00000014
#03714:00140000
#03718:14
#03914:14
#03918:00140000
#03912:0014
#04012:00140014
#04018:1414
#04010:41
#04114:0014
#0411a:00000014
#04214:14
#0421a:00140000
#04212:0014
#04218:00000014
#04312:14
#0431a:00140000
#04314:0014
#04414:00140000
#04418:0014
#0441a:24
#04512:14
#04518:00140000
#04514:0014
#04618:00140000
#0461a:14
#04616:0014
#04613:0000000000000014
#04614:00000014
#04814:00140000
#0481a:14
#04818:0014
#04812:00000014
#04810:41
#04914:0014
#0491a:14000014
#05012:1414
#0501a:00140000
#05016:00000014
#0511a:14
#05116:00140000
#05112:0014
#04713:0000001400000000
#04714:14140000
#04715:0014000000000000
#05212:00140000
#05216:0014
#0521a:24000014
#05412:00140000
#0541a:14
#05418:0014
#05414:00000014
#05316:0014
#05312:14000014
#0531a:00140000
#0551a:14
#05516:00140000
#05512:0014
#05612:00140000
#0561a:14
#05618:0014
#05614:00000014
#05610:41
#05712:0014
#05718:14000014
#05812:14
#05816:00140000
#0581a:0014
#05818:00000014
#05916:14
#05914:00140000
#05912:0014
#06012:00140000
#0601a:14
#06018:0014
#06014:00000014
#06112:0014
#06118:14000014
#06212:14000026
#06216:00140000
#0621a:0014
#0271a:24
#02716:00240000
#02712:0024
#06318:2626
#06312:00260000
#01812:24
#01814:00240000
#01816:0024
#01818:00000024
#0201a:24
#02018:00240000
#02016:0024
#02014:00000024
#02414:24
#01612:0034340000003434
#01613:0000003400340000
#0285a:14
#06358:0016
#01752:14
#02152:14
#02358:14
#02554:00000014
#03154:54641400
#03155:0024000000000000
#03153:0000002400000000
#03054:00000064
#03053:0000000000000024
#03658:14
#0445a:14
#04458:0054
#04554:0064
#04754:54641400
#04753:0000002400000000
#04755:0024000000000000
#04653:0000000000000024
#04654:00000064
#0495a:64
#0525a:14
#05758:54
#06158:54
#016320:1434340000003434
#016330:0000003400340000
#016340:0034
#017320:24
#024340:14000034000034003400000034000000
#024320:0000000000340034
#025340:34000034000034000000340024000000
#025320:0034
#0283a0:00001424
#029320:00001424
#030340:00000014
#030330:0000000000000054
#031340:34342400
#031350:0054000000000000
#031330:0000005400000000
#033380:14240000
#0413a0:14240000
#044380:0014
#0443a0:00000024
#045340:0014
#045320:00000024
#046340:00000014
#046330:0000000000000054
#047340:34342400
#047350:0054000000000000
#047330:0000005400000000
#0493a0:14
#049380:00240000
#057380:14
#0573a0:00240000
#061380:14
#0613a0:00240000
