This file was generated by Ched 2.7.0.0.
#TITLE ""
#ARTIST ""
#DESIGNER ""
#DIFFICULTY 0
#PLAYLEVEL
#SONGID ""
#WAVE ""
#WAVEOFFSET 0
#JACKET ""
#REQUEST "ticks_per_beat 480"
#00002: 4
#BPM01: 132
#00008: 01
#TIL00: ""
#VOLUME: ""
#HISPEED 00
#MEASUREHS 00
#00312:14
#00418:14
#00514:14
#0061a:14
#00712:14
#00812:14
#0091a:14
#0101a:14
#01118:0014
#01114:24
#01110:41
#01214:14
#01318:14
#01314:0014
#01418:14
#01914:14
#02014:14
#02118:14
#02218:14
#02318:0016
#02312:26
#02310:41
#02412:16
#02418:0016
#02714:14
#02718:0015
#02812:16
#02818:0016
#03912:14
#03910:41
#04012:14
#04118:14
#04218:14
#04314:14
#04414:14
#04818:14
#04912:14
#0501a:14
#04714:14
#0471f:11
#05512:2616
#0551f:21
#05618:1616
#05610:41
#05914:14
#05918:0015
#06012:16
#06018:0026
#06314:14
#06318:0014
#06414:14
#06418:0014
#06512:14
#0651a:0014
#06510:41
#06612:14
#0661a:0014
#06714:1414
#06818:1414
#06912:14
#0691a:0014
#03018:26
#07012:26
#03110:41
#015320:14
#016320:24
#0173a0:14
#0183a0:24
#025320:1626
#026380:1626
#029320:1626
#030380:16000026
#031320:14
#031330:0034
#032340:34
#032330:0034
#033320:34
#033330:0034
#034340:3424
#0353a0:14
#035390:0034
#036380:34
#036390:0034
#0373a0:34
#037390:0034
#038380:3424
#0453a0:14
#0463a0:24
#051340:14
#052320:24
#053380:14
#0543a0:24
#057320:1626
#058380:1626
#061320:1626
#062380:1626
#070320:16003626
