This file was generated by Ched 2.7.0.0.
#TITLE ""
#ARTIST ""
#DESIGNER ""
#DIFFICULTY 0
#PLAYLEVEL
#SONGID ""
#WAVE ""
#WAVEOFFSET 0
#JACKET ""
#REQUEST "ticks_per_beat 480"
#00002: 4
#BPM01: 132
#00008: 01
#TIL00: ""
#VOLUME: ""
#HISPEED 00
#MEASUREHS 00
#0021a:0000000000120000
#00216:00000012
#00218:00000000000000000000000000120000
#00214:0000000000000012
#00318:13000000000000130000000000000000
#00315:0000001300000000
#00312:00000000000000001333333300000000
#0041b:00130000
#00415:00000000000013000000000000130000
#00418:00000000000000130000000013001300
#00412:0000000000130000
#00518:00000013
#00615:1313130000001300
#00618:00130013000000000000130000001300
#00612:0000003300000000
#00715:13000000000000130000000000001300
#00718:00000000000013000033333300000000
#0071b:0013
#00818:13000000000000130000000000000000
#00815:0000001300000000
#00812:0000000000140000
#00816:00000014
#0081a:0000000000000014
#00915:13
#00918:0013
#0101b:13
#01012:13000024
#0101a:0000000000240000
#01115:0013130000000000
#01118:00000013000000000000000000000000
#0111b:0000000000000013
#0111a:24
#01110:41
#01212:0013
#0121b:00000013
#01318:0013130000000000
#01315:00000013000000000000000000000000
#01312:1400000000000013
#01418:00000000000000000000130000130000
#01415:0000000000001313
#0141a:0000002400000000
#01412:0024
#0151b:13
#01512:00000000000013000033333300333333
#01518:00000000000000130000000000000000
#01618:0013000000130013
#01615:00000000130000130000000013000000
#0161b:0000001300000000
#01712:13
#01718:0013
#01815:13000000000000130000000000000000
#01818:0000001300000000
#01812:00333333000000000000000000000000
#0181b:00000000000000000033333300333333
#01914:00001400000000140014000000000000
#01918:00000014001400000000140000000000
#01912:00000013
#0191b:0000000000000013
#02015:13
#02018:00001400000000140014001400000000
#02014:00000014001400000000140014000000
#0201b:0000000000000013
#02112:13
#02118:0000130000000013
#02115:00000000000000000000001300000000
#0211b:00000000000033330000000000000000
#0231b:0013130000000013
#02315:00000013000000000000000000000000
#02312:0000001313000000
#02318:00000000000000130000000000000000
#02310:41
#02412:00000000000013001300000000330000
#02418:00000000000000130000000000000000
#02415:00000000000000000000331300000000
#02514:14
#02518:00000000140000000000331300000000
#0251b:0000000013000013
#0251a:24
#02512:00240000
#02612:0000001313000000
#02618:00000000000000130000003300130000
#0261b:0000000000130033
#02712:00000013000000000000000000000000
#0271b:00000000000000000000001300000000
#02713:00530000
#02714:00000000005300000000000000000000
#02715:0000005300000000
#02716:00000000000000530000000000000000
#0271a:00000053
#02719:00000000000000000000000000530000
#02718:0000000000000053
#02717:00000000000000000000000000000053
#02812:0013000000000000
#02818:00000013
#02815:0000333300000013
#02915:0000001300000000
#02918:00000000000000130000000000001300
#0311a:14003434003434000034003414003434
#03116:00140000
#03118:0014
#03110:41
#03218:1414
#03216:00140000
#0321a:00343400003400340000343414343400
#03318:1414
#03316:00140000
#0331a:00340034000034340034340014340034
#03418:14
#03412:0014
#03416:0000000000140014
#0341a:00003434003400000000000014000000
#03512:14343400003400340000343414343400
#03516:00140000
#03514:0014
#0351a:00140014
#03614:1414
#03616:00140000
#03612:00340034000034340034340014340034
#0361a:00140014
#03714:1414
#03716:00140000
#03712:00003434003434000034003414003434
#0371a:00140014
#03814:14
#03816:00140000
#0381a:00140000
#03819:00000014
#03813:00000014
#03812:00343400003400340000000000000000
#03915:13000000000000130000000000000000
#0391b:00000000000013000033333300333333
#03910:41
#04015:0013000000130013
#04018:00000000130000130000000013000000
#04012:0000001300000000
#04115:00001300001300001300000000000000
#0411a:00140000140000140000000000000000
#04218:13000000000000000000000000130000
#0421b:00333333000000000000130000000000
#04215:00130013
#04212:00000000003333330000000000001300
#04312:00000000000013000033333300000000
#04318:13000000000000130000000000000000
#0431b:00000000000000000000000000333333
#0441b:00000000000013000033333300000000
#04415:13000000000000130000000000000000
#04412:00000000000000000000000000333300
#04518:0013000000130000
#04515:00130013
#0451b:0000001300000013
#04512:0013
#0471b:13130000
#04715:00001313
#0471f:11
#04818:13130000
#04812:00001313
#0491b:13
#04918:00130000
#04915:0013
#04912:00000013
#0501b:13
#05012:00130000
#05015:0013
#05018:00000013
#0511b:1313
#05112:1313
#05115:00130000
#05118:00000013
#05212:13
#0521b:13000013
#05215:00130000
#05218:0013
#05314:13
#05319:13
#05313:00130013
#0531a:00130013
#0531b:0013
#05312:0013
#05512:0013130000000013
#05518:00000013000000000000000000000000
#0551b:0000001313000000
#05515:00000000000000130000000000000000
#0551f:21
#0561b:00000000000013001300000000330000
#05615:00000000000000130000000000000000
#05618:00000000000000000000331300000000
#05610:41
#05718:14
#05714:00140000
#05712:2400000013000013
#05715:00000000000000000000331300000000
#0571a:00240000
#0581b:0000001313000000
#05815:00000000000000130000003300130000
#05812:0000000000130033
#0591b:00000013000000000000000000000000
#05912:00000000000000000000001300000000
#0591a:00530000
#05919:00000000005300000000000000000000
#05918:0000005300000000
#05917:00000000000000530000000000000000
#05913:00000053
#05914:00000000000000000000000000530000
#05915:0000000000000053
#05916:00000000000000000000000000000053
#06015:00630013
#06018:0000006300000013
#06016:00000023000000000000000000000000
#0601b:00000023000000000000000000000000
#06014:00000000006300000000000000000000
#06013:0000006300000000
#06012:00000000000000630000000000000000
#0601a:00630000
#06019:00000000006300000000000000000000
#06017:00000000000000630000000000000000
#06118:0000001300000000
#06115:00000000000000130000000000001300
#06212:0000002400140000
#06218:2400240000001313
#06215:00000000000000000000000000130000
#06214:0024000000000000
#0621a:00000000000000240000000000000000
#0631a:00140000
#06315:0000001300000000
#06318:00000000000000130000000000333333
#06312:24000000000000000033333300000000
#06415:00001300000013000000000000130000
#0641a:00140000
#06418:00000000000000130000000013001300
#06412:0000000000140000
#06512:00140000000000000000000000000000
#06518:0013000000000000
#06513:00140000
#06519:00000000001300000000000000000000
#06514:00000000000000140000000000000000
#0651a:0013
#06515:0000000000140000
#06510:41
#0661b:13333333000000000000000000333333
#06618:0000133300131300
#06615:00000000000000000013001300000000
#06715:00001300000000000013000000000000
#06718:00000013000000000000130000000000
#06712:00000000001300000000000014000000
#0671b:00000000000000130000000000000000
#0671a:2400000000000014
#06812:14000000000000130000000024000000
#06818:00001300000000000013001300000000
#06815:00000013000000000000130000000000
#0681b:00000000001300000000000000000000
#06816:0000000000000024
#06912:0000140000130000
#06918:00000000000013000000001300000000
#06915:00000000000000130000000000000000
#0691b:00000000000000001300000000330000
#0691a:24
#07015:0000000000000000000000000000000000000014000000000000000000000000
#07014:24240000
#07018:0024000000000000
#0701a:0000002400000000
#07012:00000000000000240000000000000000
#02214:0000000000230000
#03012:2424240000000000
#03018:0000002400000000
#03014:00000000000000240000000000000000
#05419:2300000000230000
#04612:00000000000000270000000000000000
#04614:00333333333333000000000000000000
#0035b:00130000
#00358:63
#00352:0063
#00652:00000000000000130000000000000000
#00655:00630000
#00755:53
#00752:00130000
#0075b:0063
#00858:63
#0085b:00130000
#00955:63
#00958:0053
#0105b:63
#01052:53000014
#0105a:0000000000140000
#01257:0014000000000000
#0115b:0000000000000063
#01352:0000000000000053
#01455:0014000000000000
#01558:00130000
#0155b:63
#01655:00130000
#01752:63
#01758:0063
#01855:63
#01958:13
#02055:13
#02152:13
#02158:0000630000000013
#0215b:0013
#02155:00000000000000000000001300000000
#02352:1763
#0235b:0000000000000063
#02355:00000000000000000000001400000000
#02254:0000000000230000
#02457:0014000000000000
#02452:0063
#02455:00000000000000000000006300000000
#0255b:0000000063000063
#02558:00000000000000000000006300000000
#02658:00001300000000000000000000530000
#0265b:0000000000530000
#0275a:14
#02855:00000000000000130000000000000000
#02852:0063000000000000
#0295b:00000013000000000000000000000000
#02952:00000000000000000000001300000000
#03054:00000014
#0315a:64000024
#03156:00240000
#03158:0064
#03258:6464
#03256:00240000
#0325a:00000024
#03358:6464
#03356:00240000
#0335a:00000024
#03458:64
#03552:54000024
#03556:00240000
#03554:0054
#03654:5454
#03656:00240000
#03652:00000024
#03754:5454
#03756:00240000
#03752:00000024
#03854:64
#03856:00240000
#03852:0034
#03955:63
#03952:00130000
#04058:00130000
#04055:0000000000000013
#04155:0053
#04258:53
#04255:00630000
#04358:53
#0435b:00130000
#04455:63
#04452:00130000
#04552:13
#04652:00000000000000170000000000000000
#05454:00000000000000130000000000000000
#05459:0000000000230000
#0555b:0053
#05552:0000000000000053
#05557:17000000000000000000001400000000
#05658:00000000000000000000005300000000
#0565b:0053
#05655:0014000000000000
#05752:0000000053000053
#05755:00000000000000000000005300000000
#05855:00001300000000000000000000630000
#05852:0000000000630000
#05952:14
#06152:00000014000000000000000000000000
#0615a:00000000000000000000001400000000
#0625a:00000000000000140000000000000000
#06352:14
#0635a:00140000
#0645a:00140000
#06458:0000000000000013
#0665b:63000000000000130000000000000000
#06658:00630063
#0675a:14
#06852:14
#0695a:14
#06958:00000000000000000000006300000000
#07052:00000000000000640000000034000000
#07055:0000000000000000000000000000000000000024000000000000000000000000
#003380:13
#0033b0:00230000
#003320:00000000000000001333333300000000
#003350:000000000000000000000000000000000000000000000000000000000000000000000000000000000000000000000000000000000000000000000000000000000000000000000000000000000000000000000000000000000000000000000000000000000000000000000000000000000000000000000000000000000000000000000000000000000000000000000000000000000000000000000000000000000000000000000000000000000000000000000000000000000000000000000000000000000000000000000000000000000000000000000000000000000000000000000000000000000000000000000000000000000000000000000000000000000000000000000000000000000000000000000000000000000000000000000000000000000000000000000000000000000000000000000000000000000000000000000000000000000000000000000000000000000000000000000000000000000000000000000000000000000000000000000000000000000000000000000000000000000000000000000000000000000000000000000000000000000000000000000000000000000000000000000000000000000000000000000000000000000000000000000000000000000000000000000000000000000000000000000000000000000000000000000000000000000000000000000000000000000000000000000000000000000000000000000000000000000000000000000000000000000000000000000000000000000000000000000000000000000000000000000000000000000000000000000000000000000000000000000000000000000000000000000000000000000000000000000000000000000000000000000000000000000000000000000000000000000000000000000000000000000000000000000000000000000000000000000000000000000000000000000000000000000000000000000000000000000000000000000000000000000000000000000000000000000000000000000000000000000000000000000000000000000000000000000000000000000000000000000000000000000000000000000000000000000000000000000000000000000000000000000000000000000000000000000000000000000000000000000000000000000000000000000000000000000000000000000000000000000000000000000000000000000000000000000000000000000000000000000000000000000000000000000000000000000000000000000000000000000000000000000000000000000000000000000000000000000000000000000000000000000000000000000000000000000000000000000000000000000000000000000000000000000000000000000000000000000000000000000000000000000000000000000000000000000000000000000000000000000000000000000000000000000000000000000000000000000000000000000000000000000000000000000000000000000000000000000000000000000000000000000000000000000000000000000000000000000000000000000000000000000000000000000000000000000000000000000000000000000000000000000000000000000000000000000000000000000000000000000000000000000000000000000000000000000000000000000000000000000000000000000000000000000000000000000000000000000000000000000000000000000000000000000000000000000000000000000000000000000000000000000000000000000000000000000000000000000000000000000000000000000000000000000000000000000000000000000000000000000000000000000000000000000000000000000000000000000000000000000000000000000000000000000000000000000000000000000000000000000000000000000000000000000000000000000000000000000000000000000000330000000000000000000000000000000000000000000000000000000000000000000000000000000000000000000000000000000000000000000000000000000000000000000000000000000000000000000000000000000000000000000000000000000000000000000000000000000000000000000000330000000000000000000000000000000000000000000000000000000000000000000000000000000000000000000000000000000000000000000000000000000000000000000000000000000000000000000000000000000000000000000000000000000000000000000000000000000000000000000000330000000000000000000000000000000000000000000000000000000000000000000000000000000000000000000000000000000000000000000000000000000000000000000000000000000000000000000000000000000000000000000000000000000000000000000000000000000000000000000053000000000000000000000000000000000000000000000000000000000000000000000000000000000000000000000000000000000000000000000000000000000000000000000000000000000000000000000000000000000000000000000000000000000000000000000000000000000000000000000000
#003330:00000000000000000000000000000057
#004330:0027000000000000
#005330:13535353230000000000000000000000
#005340:0000005300000000000000000000000000000000000000000000000000000000
#005320:0000000000530000000000000000000000000000000000000000000000000000
#0053a1:00000000135353532300000000000000
#0053b1:0000000000000000000000530000000000000000000000000000000000000000
#005391:0000000000000000000000000053000000000000000000000000000000000000
#005350:00000000000000001353535323000000
#005360:0000000000000000000000000000000000000053000000000000000000000000
#005340:0000000000000000000000000000000000000000005300000000000000000000
#006350:00130000
#006320:00000000000033230000000000000000
#007350:13
#007320:00230000
#0073b0:0013
#007380:00000000000000000033333323000000
#008380:13
#0083b0:00230000
#009350:13
#009320:00230000
#009380:0013
#0093b0:00000023
#0103b0:13
#010380:00230000
#010321:13
#010351:00230000
#0113b1:0000000013000033
#011381:00000000000000000000003300000000
#012371:0024000000000000
#013321:0000000013000033
#013351:00000000000000000000003300000000
#014351:0024000000000000
#0153b1:13
#015381:00230000
#015351:0013
#015321:00000000000000000033333333333333
#016351:23
#017321:13
#017351:00230000
#017381:0013
#0173b1:00000023
#018351:13
#018321:00333333230000000000000000000000
#018381:0013
#0183b1:00000000000000000033333333333333
#019381:23
#021381:00130000
#0213b1:00000000000033332300000000000000
#022341:0000000000130000
#023321:27
#023321:0013
#023351:00000000000000000000002400000000
#0233b1:0000000000000013
#024371:0024000000000000
#024321:00000000000000001300000000332300
#024351:00000000000000000000333300000000
#0253b1:0000000013000033
#025381:00000000000000000000333300000000
#026381:0023000000000000
#0263b1:0000000000130033
#026381:00000000000000000000003300330000
#0273a1:24
#028321:0013000000000000
#028351:00000000330033230000000000000000
#0293b1:13000023000000000000000000000000
#029321:00000000000000001300002300000000
#030341:00000000000000140000000024000000
#0313a1:14003434003434000034003434003434
#031361:00540000
#031381:0034
#032381:5434
#0323a1:00343400003400340000343454343400
#032361:00340000
#033381:3454
#0333a1:00340034000034340034340034340034
#033361:00340000
#034381:34
#0343a1:00003434003400000000000000000000
#034361:0000002400000000
#035321:14343400003400340000343454343400
#035361:00340000
#035341:0034
#036341:3454
#036321:00340034000034340034340034340034
#036361:00340000
#037341:3434
#037321:00003434003434000034003434003434
#037361:00540000
#038341:54
#038321:00343400003400342400000000000000
#038361:00340000
#039351:13
#039321:00230000
#039381:0013
#0393b1:00000000000000000033333333333333
#040381:23
#041351:0013
#041321:00000023
#042381:13
#0423b1:00333333230000000000000000000000
#042350:00130000
#042320:00000000003333332300000000000000
#043380:13
#0433b0:00230000
#043350:0013
#043320:00000000000000000033333323000000
#043381:00000013
#0433b1:00000000000000000000000000333333
#0443b1:23
#044350:13
#044320:00230000
#044380:0013
#0443b0:00000000000000000033333323000000
#044351:00000013
#044321:00000000000000000000000000333300
#045321:23
#046341:13333333333333000000000000000000
#046321:00000000000000270000000000000000
#054341:13003300330033230000000000000000
#054391:0000000000130000
#055371:27
#0553b1:0013
#055371:00000000000000000000002400000000
#055321:0000000000000013
#056351:0024000000000000
#0563b1:00000000000000001300000000332300
#056381:00000000000000000000333300000000
#057321:0000000013000033
#057351:00000000000000000000333300000000
#058351:0023000000000000
#058321:0000000000130033
#058351:00000000000000000000003300330000
#059321:24
#061321:14000024000000000000000000000000
#0613a1:00000000000000001400002400000000
#063321:00000000000000001333333300000000
#063351:00000023
#063380:00000000000000000000000013333333
#0643b0:23
#0653b0:00000000000000000000001300333333
#0663b0:33333333000000230000000000000000
#066380:0000333300000000
#066380:00000013
#0663b0:00000000000000000000000000333333
#0673a0:24
#069380:00000000000000000000001300000000
#0693b0:00000000000000000000000000332300
#070320:00000000000000140000000024000000
#070350:0000000000000000000000000000000000000054000000000000000000000000
#027920:00000013000000000000000000000000
#027960:000000000000000000000000000000000000000000000000000000000000000000000000000000000000000000000000000000000000000000000000000000000000000000000000000000000000000000000000000000000000000000000000000000000000000000000000000000000000000000000000000000000000000000000000000000000000000000000000000000000000000000000000000000000000000000000000000000000000000000000000000000000000000000000000000000000000000000000000000000000000000000000000000000000000000000000000000000000000000000000000000000000000000000000000000000000000000000000000000000000000000000000000000000000000000000000000000000000000000000000000000000000000000000000000000000000000000000000000000000000000000000000000000000000000000000000000000000000000000000000000000000000000000000000000000000000000000000000000000000000000000000000000000000000000000000000000000000000000000000000000000000000000000000000000000000000000000000000000000000000000000000000000000000000000000000000000000000000000000000000000000000000000000000000000000000000000000000000000000000000000000000000000000000000000000000000000000000000000000000000000000000000000000000000000000000000000000000000000000000000000000000000000000000000000000000000000000000000000000000000000000000000000000000000000000000000000000000000000000000000000000000000000000000000000000000000000000000000000000000000000000000000000000000000000000000000000000000000000000000000000000000000000000000000000000000000000000000000000000000000000000000000000000000000000000000000000000000000000000000000000000000000000000000000000000000000000000000000000000000000000000000000000000000000000000000000000000000000000000000000000000000000000000000000000000000000000000000000000000000000053230000000000000000000000000000000000000000000000000000000000000000000000000000000000000000000000000000000000000000000000000000000000000000000000000000000000000000000000000000000000000000000000000000000000000000000000000000000000000000000000000000000000000000000000000000000000000000000000000000000000000000000000000000000000000000000000000000000000000000000000000000000000000000000000000000000000000000000000000000000000000000000000000000000000000000000000000000000000000000000000000000000000000000000000000000000000000000000000000000000000000000000000000000000000000000000000000000000000000000000000000000000000000000000000000000000000000000000000000000000000000000000000000000000000000000000000000000000000000000000000000000000000000000000000000000000000000000000000000000000000000000000000000000000000000000000000000000000000000000000000000000000000000000000000000000000000000000000000000000000000000000000000000000000000000000000000000000000000000000000000000000000000000000000000000000000000000000000000000000000000000000000000000000000000000000000000000000000000000000000000000000000000000000000000000000000000000000000000000000000000000000000000000000000000000000000000000000000000000000000000000000000000000000000000000000000000000000000000000000000000000000000000000000000000000000000000000000000000000000000000000000000000000000000000000000000000000000000000000000000000000000000000000000000000000000000000000000000000000000000000000000000000000000000000000000000000000000000000000000000000000000000000000000000000000000000000000000000000000000000000000000000000000000000000000000000000000000000000000000000000000000000000000000000000000000000000000000000000000000000000000000000000000000000000000000000000000000000000000000000000000000000000000000000000000000000000000000000000000000000000000000000000000000000000000000000000000000000000000000000000000000000000000000000000000000000000000000000000000000000000000000000000000000000000000000000000000000000000000000000000000000000000000000000000000000000000000000000000000000000000000000000000000000000000000000000000000000000000000000000000000000000000000000000000000000000000000000000000000000000000
#0279b0:00000000000000000000001300000000
#027970:000000000000000000000000000000000000000000000000000000000000000000000000000000000000000000000000000000000000000000000000000000000000000000000000000000000000000000000000000000000000000000000000000000000000000000000000000000000000000000000000000000000000000000000000000000000000000000000000000000000000000000000000000000000000000000000000000000000000000000000000000000000000000000000000000000000000000000000000000000000000000000000000000000000000000000000000000000000000000000000000000000000000000000000000000000000000000000000000000000000000000000000000000000000000000000000000000000000000000000000000000000000000000000000000000000000000000000000000000000000000000000000000000000000000000000000000000000000000000000000000000000000000000000000000000000000000000000000000000000000000000000000000000000000000000000000000000000000000000000000000000000000000000000000000000000000000000000000000000000000000000000000000000000000000000000000000000000000000000000000000000000000000000000000000000000000000000000000000000000000000000000000000000000000000000000000000000000000000000000000000000000000000000000000000000000000000000000000000000000000000000000000000000000000000000000000000000000000000000000000000000000000000000000000000000000000000000000000000000000000000000000000000000000000000000000000000000000000000000000000000000000000000000000000000000000000000000000000000000000000000000000000000000000000000000000000000000000000000000000000000000000000000000000000000000000000000000000000000000000000000000000000000000000000000000000000000000000000000000000000000000000000000000000000000000000000000000000000000000000000000000000000000000000000000000000000000000000000000000000000000000000000000000000000000000000000000000000000000000000000000000000000000000000000000000000000000000000000000000000000000000000000000000000000000000000000000000000000000000000000000000000000000000000000000000000000000000000000000000000000000000000000000000000000000000000000000000000000000000000000000000000000000000000000000000000000000000000000000000000000000000000000000000000000000000000000000000000000000000000000000000000000000000000000000000000000000000000000000000000000000000000000000000000000000000000000000000000000000000000000000000000000000000000000000000000000000000000000000000000000000000000000000000000000000000000000000000000000000000000000000000000000000000000000000000000000000000000000000000000000000000000000000000000000000000000000000000000000000000000000000000000000000000000000000000000000000000000000000000000000000000000000000000000000000000000000000000000000000000000000000000000000000000000000000000000000000000000000000000000000000000000000000000000000000000000000000000000000000000000000000000000000000000000000000000000000000000000000000000000000000000000000000000000000000000000000000000000000000000000000000000000000000000000000000000000000000000000000000000000000000000000000000000000000000000000000000000000000000000000000000000000000000000000000000000000000000000000000000000000000000000000000000000000000000000000000000000000000000000000000000000000000000000000000000000000000000000000000000000000000000000000000000000000000000000000000000000000000000000000000000000000000000000000000000000000000000000000000000000000000000000000000000000000000000000000000000000000000000000000000000000000000000000000000000000000000000000000000000000000000000000000000000000000000000000000000000000000000000000000000000000000000000000000000000000000000000000000000000000000000000000000000000000000000000000000000000000000000000000000000000000000000000000000000000000000000000000000000000000000000053230000000000000000000000000000000000000000000000000000000000000000000000000000000000000000000000000000000000000000000000000000000000000000000000000000000000000000000000000000000000000000000000000000000000000000000000000000000000000000000000
#0599b0:00000013000000000000000000000000
#059970:000000000000000000000000000000000000000000000000000000000000000000000000000000000000000000000000000000000000000000000000000000000000000000000000000000000000000000000000000000000000000000000000000000000000000000000000000000000000000000000000000000000000000000000000000000000000000000000000000000000000000000000000000000000000000000000000000000000000000000000000000000000000000000000000000000000000000000000000000000000000000000000000000000000000000000000000000000000000000000000000000000000000000000000000000000000000000000000000000000000000000000000000000000000000000000000000000000000000000000000000000000000000000000000000000000000000000000000000000000000000000000000000000000000000000000000000000000000000000000000000000000000000000000000000000000000000000000000000000000000000000000000000000000000000000000000000000000000000000000000000000000000000000000000000000000000000000000000000000000000000000000000000000000000000000000000000000000000000000000000000000000000000000000000000000000000000000000000000000000000000000000000000000000000000000000000000000000000000000000000000000000000000000000000000000000000000000000000000000000000000000000000000000000000000000000000000000000000000000000000000000000000000000000000000000000000000000000000000000000000000000000000000000000000000000000000000000000000000000000000000000000000000000000000000000000000000000000000000000000000000000000000000000000000000000000000000000000000000000000000000000000000000000000000000000000000000000000000000000000000000000000000000000000000000000000000000000000000000000000000000000000000000000000000000000000000000000000000000000000000000000000000000000000000000000000000000000000000000000000000053230000000000000000000000000000000000000000000000000000000000000000000000000000000000000000000000000000000000000000000000000000000000000000000000000000000000000000000000000000000000000000000000000000000000000000000000000000000000000000000000000000000000000000000000000000000000000000000000000000000000000000000000000000000000000000000000000000000000000000000000000000000000000000000000000000000000000000000000000000000000000000000000000000000000000000000000000000000000000000000000000000000000000000000000000000000000000000000000000000000000000000000000000000000000000000000000000000000000000000000000000000000000000000000000000000000000000000000000000000000000000000000000000000000000000000000000000000000000000000000000000000000000000000000000000000000000000000000000000000000000000000000000000000000000000000000000000000000000000000000000000000000000000000000000000000000000000000000000000000000000000000000000000000000000000000000000000000000000000000000000000000000000000000000000000000000000000000000000000000000000000000000000000000000000000000000000000000000000000000000000000000000000000000000000000000000000000000000000000000000000000000000000000000000000000000000000000000000000000000000000000000000000000000000000000000000000000000000000000000000000000000000000000000000000000000000000000000000000000000000000000000000000000000000000000000000000000000000000000000000000000000000000000000000000000000000000000000000000000000000000000000000000000000000000000000000000000000000000000000000000000000000000000000000000000000000000000000000000000000000000000000000000000000000000000000000000000000000000000000000000000000000000000000000000000000000000000000000000000000000000000000000000000000000000000000000000000000000000000000000000000000000000000000000000000000000000000000000000000000000000000000000000000000000000000000000000000000000000000000000000000000000000000000000000000000000000000000000000000000000000000000000000000000000000000000000000000000000000000000000000000000000000000000000000000000000000000000000000000000000000000000000000000000000000000000000000000000000000000000000000000000000000000000000000000000000000000000000000000000000000
#059920:00000000000000000000001300000000
#059960:000000000000000000000000000000000000000000000000000000000000000000000000000000000000000000000000000000000000000000000000000000000000000000000000000000000000000000000000000000000000000000000000000000000000000000000000000000000000000000000000000000000000000000000000000000000000000000000000000000000000000000000000000000000000000000000000000000000000000000000000000000000000000000000000000000000000000000000000000000000000000000000000000000000000000000000000000000000000000000000000000000000000000000000000000000000000000000000000000000000000000000000000000000000000000000000000000000000000000000000000000000000000000000000000000000000000000000000000000000000000000000000000000000000000000000000000000000000000000000000000000000000000000000000000000000000000000000000000000000000000000000000000000000000000000000000000000000000000000000000000000000000000000000000000000000000000000000000000000000000000000000000000000000000000000000000000000000000000000000000000000000000000000000000000000000000000000000000000000000000000000000000000000000000000000000000000000000000000000000000000000000000000000000000000000000000000000000000000000000000000000000000000000000000000000000000000000000000000000000000000000000000000000000000000000000000000000000000000000000000000000000000000000000000000000000000000000000000000000000000000000000000000000000000000000000000000000000000000000000000000000000000000000000000000000000000000000000000000000000000000000000000000000000000000000000000000000000000000000000000000000000000000000000000000000000000000000000000000000000000000000000000000000000000000000000000000000000000000000000000000000000000000000000000000000000000000000000000000000000000000000000000000000000000000000000000000000000000000000000000000000000000000000000000000000000000000000000000000000000000000000000000000000000000000000000000000000000000000000000000000000000000000000000000000000000000000000000000000000000000000000000000000000000000000000000000000000000000000000000000000000000000000000000000000000000000000000000000000000000000000000000000000000000000000000000000000000000000000000000000000000000000000000000000000000000000000000000000000000000000000000000000000000000000000000000000000000000000000000000000000000000000000000000000000000000000000000000000000000000000000000000000000000000000000000000000000000000000000000000000000000000000000000000000000000000000000000000000000000000000000000000000000000000000000000000000000000000000000000000000000000000000000000000000000000000000000000000000000000000000000000000000000000000000000000000000000000000000000000000000000000000000000000000000000000000000000000000000000000000000000000000000000000000000000000000000000000000000000000000000000000000000000000000000000000000000000000000000000000000000000000000000000000000000000000000000000000000000000000000000000000000000000000000000000000000000000000000000000000000000000000000000000000000000000000000000000000000000000000000000000000000000000000000000000000000000000000000000000000000000000000000000000000000000000000000000000000000000000000000000000000000000000000000000000000000000000000000000000000000000000000000000000000000000000000000000000000000000000000000000000000000000000000000000000000000000000000000000000000000000000000000000000000000000000000000000000000000000000000000000000000000000000000000000000000000000000000000000000000000000000000000000000000000000000000000000000000000000000000000000000000000000000000000000000000000000000000000000000000000000000000000000000000000000000000000000000000000000000000000000000000000000000000000000000000000000000000000000000000000000053230000000000000000000000000000000000000000000000000000000000000000000000000000000000000000000000000000000000000000000000000000000000000000000000000000000000000000000000000000000000000000000000000000000000000000000000000000000000000000000000
#060960:00000013000000000000000000000000
#060920:000000000000000000000000000000000000000000000000000000000000000000000000000000000000000000000000000000000000000000000000000000000000000000000000000000000000000000000000000000000000000000000000000000000000000000000000000000000000000000000000000000000000000000000000000000000000000000000000000000000000000000000000000000000000000000000000000000000000000000000000000000000000000000000000000000000000000000000000000000000000000000000000000000000000000000000000000000000000000000000000000000000000000000000000000000000000000000000000000000000000000000000000000000000000000000000000000000000000000000000000000000000000000000000000000000000000000000000000000000000000000000000000000000000000000000000000000000000000000000000000000000000000000000000000000000000000000000000000000000000000000000000000000000000000000000000000000000000000000000000000000000000000000000000000000000000000000000000000000000000000000000000000000000000000000000000000000000000000000000000000000000000000000000000000000000000000000000000000000000000000000000000000000000000000000000000000000000000000000000000000000000000000000000000000000000000000000000000000000000000000000000000000000000000000000000000000000000000000000000000000000000000000000000000000000000000000000000000000000000000000000000000000000000000000000000000000000000000000000000000000000000000000000000000000000000000000000000000000000000000000000000000000000000000000000000000000000000000000000000000000000000000000000000000000000000000000000000000000000000000000000000000000000000000000000000000000000000000000000000000000000000000000000000000000000000000000000000000000000000000000000000000000000000000000000000000000000000000000000000000053230000000000000000000000000000000000000000000000000000000000000000000000000000000000000000000000000000000000000000000000000000000000000000000000000000000000000000000000000000000000000000000000000000000000000000000000000000000000000000000000000000000000000000000000000000000000000000000000000000000000000000000000000000000000000000000000000000000000000000000000000000000000000000000000000000000000000000000000000000000000000000000000000000000000000000000000000000000000000000000000000000000000000000000000000000000000000000000000000000000000000000000000000000000000000000000000000000000000000000000000000000000000000000000000000000000000000000000000000000000000000000000000000000000000000000000000000000000000000000000000000000000000000000000000000000000000000000000000000000000000000000000000000000000000000000000000000000000000000000000000000000000000000000000000000000000000000000000000000000000000000000000000000000000000000000000000000000000000000000000000000000000000000000000000000000000000000000000000000000000000000000000000000000000000000000000000000000000000000000000000000000000000000000000000000000000000000000000000000000000000000000000000000000000000000000000000000000000000000000000000000000000000000000000000000000000000000000000000000000000000000000000000000000000000000000000000000000000000000000000000000000000000000000000000000000000000000000000000000000000000000000000000000000000000000000000000000000000000000000000000000000000000000000000000000000000000000000000000000000000000000000000000000000000000000000000000000000000000000000000000000000000000000000000000000000000000000000000000000000000000000000000000000000000000000000000000000000000000000000000000000000000000000000000000000000000000000000000000000000000000000000000000000000000000000000000000000000000000000000000000000000000000000000000000000000000000000000000000000000000000000000000000000000000000000000000000000000000000000000000000000000000000000000000000000000000000000000000000000000000000000000000000000000000000000000000000000000000000000000000000000000000000000000000000000000000000000000000000000000000000000000000000000000000000000000000000000000000000000000000000
#0609b1:00000013000000000000000000000000
#060971:000000000000000000000000000000000000000000000000000000000000000000000000000000000000000000000000000000000000000000000000000000000000000000000000000000000000000000000000000000000000000000000000000000000000000000000000000000000000000000000000000000000000000000000000000000000000000000000000000000000000000000000000000000000000000000000000000000000000000000000000000000000000000000000000000000000000000000000000000000000000000000000000000000000000000000000000000000000000000000000000000000000000000000000000000000000000000000000000000000000000000000000000000000000000000000000000000000000000000000000000000000000000000000000000000000000000000000000000000000000000000000000000000000000000000000000000000000000000000000000000000000000000000000000000000000000000000000000000000000000000000000000000000000000000000000000000000000000000000000000000000000000000000000000000000000000000000000000000000000000000000000000000000000000000000000000000000000000000000000000000000000000000000000000000000000000000000000000000000000000000000000000000000000000000000000000000000000000000000000000000000000000000000000000000000000000000000000000000000000000000000000000000000000000000000000000000000000000000000000000000000000000000000000000000000000000000000000000000000000000000000000000000000000000000000000000000000000000000000000000000000000000000000000000000000000000000000000000000000000000000000000000000000000000000000000000000000000000000000000000000000000000000000000000000000000000000000000000000000000000000000000000000000000000000000000000000000000000000000000000000000000000000000000000000000000000000000000000000000000000000000000000000000000000000000000000000000000000000000000000053230000000000000000000000000000000000000000000000000000000000000000000000000000000000000000000000000000000000000000000000000000000000000000000000000000000000000000000000000000000000000000000000000000000000000000000000000000000000000000000000000000000000000000000000000000000000000000000000000000000000000000000000000000000000000000000000000000000000000000000000000000000000000000000000000000000000000000000000000000000000000000000000000000000000000000000000000000000000000000000000000000000000000000000000000000000000000000000000000000000000000000000000000000000000000000000000000000000000000000000000000000000000000000000000000000000000000000000000000000000000000000000000000000000000000000000000000000000000000000000000000000000000000000000000000000000000000000000000000000000000000000000000000000000000000000000000000000000000000000000000000000000000000000000000000000000000000000000000000000000000000000000000000000000000000000000000000000000000000000000000000000000000000000000000000000000000000000000000000000000000000000000000000000000000000000000000000000000000000000000000000000000000000000000000000000000000000000000000000000000000000000000000000000000000000000000000000000000000000000000000000000000000000000000000000000000000000000000000000000000000000000000000000000000000000000000000000000000000000000000000000000000000000000000000000000000000000000000000000000000000000000000000000000000000000000000000000000000000000000000000000000000000000000000000000000000000000000000000000000000000000000000000000000000000000000000000000000000000000000000000000000000000000000000000000000000000000000000000000000000000000000000000000000000000000000000000000000000000000000000000000000000000000000000000000000000000000000000000000000000000000000000000000000000000000000000000000000000000000000000000000000000000000000000000000000000000000000000000000000000000000000000000000000000000000000000000000000000000000000000000000000000000000000000000000000000000000000000000000000000000000000000000000000000000000000000000000000000000000000000000000000000000000000000000000000000000000000000000000000000000000000000000000000000000000000000000000000000000000000000000
